osu file format v14

[General]
AudioFilename: audio.mp3
AudioLeadIn: 0
PreviewTime: 16161
Countdown: 0
SampleSet: Soft
StackLeniency: 0.7
Mode: 2
LetterboxInBreaks: 0
WidescreenStoryboard: 1

[Editor]
Bookmarks: 5919,16665,23829,30993,45322,52486,63232,70396,77560
DistanceSpacing: 1
BeatDivisor: 4
GridSize: 4
TimelineZoom: 2.699999

[Metadata]
Title:Mochio-
TitleUnicode:モチオー
Artist:[Kyoro]
ArtistUnicode:【Kyoro】
Creator:Spectator
Version:Kukkai's Deluge
Source:スーパーマリオRPG
Tags:sinnoh xinnoh lacrima myle mochi_- mochi kukkai japanese novelty super mario legend of the seven stars 音mad oto-mad otomad ニコニコ動画 niconico douga ytpmv youtube スロウスタート slow start 百地たまて tamate momochi たまちゃん tamachan 伊藤 彩沙 itou ayasa きららファンタジア kirara fantasia 芳文社 houbunsha まんがタイムきらら manga time 対カジオー戦 fight against smithy kajioh 下村陽子 yoko shimomura 任天堂 nintendo
BeatmapID:4443678
BeatmapSetID:1939725

[Difficulty]
HPDrainRate:4
CircleSize:4
OverallDifficulty:9.8
ApproachRate:9.8
SliderMultiplier:1.8
SliderTickRate:2

[Events]
//Background and Video events
0,0,"tamachan.png",0,0
Video,0,"video.mp4"
//Break Periods
//Storyboard Layer 0 (Background)
//Storyboard Layer 1 (Fail)
//Storyboard Layer 2 (Pass)
//Storyboard Layer 3 (Foreground)
//Storyboard Layer 4 (Overlay)
//Storyboard Sound Samples

[TimingPoints]
546,223.880597014925,4,2,1,70,1,0
30993,-100,4,2,1,60,0,0
45322,-100,4,2,1,70,0,0

[Colours]
Combo1 : 196,107,224
Combo2 : 101,143,241
Combo3 : 121,242,197

[HitObjects]
173,312,5919,6,0,L|301:312,1,90,4|0,1:2|0:0,0:0:0:0:
61,240,6143,1,8,1:2:0:0:
265,224,6254,2,0,L|157:224,1,90,0|0,1:3|0:0,0:0:0:0:
357,168,6478,2,0,L|303:167,1,45,4|0,1:3|0:0,0:0:0:0:
147,316,6590,2,0,L|35:316,1,90,8|0,1:2|0:0,0:0:0:0:
320,200,6814,5,0,1:2:0:0:
365,200,6869,1,0,0:0:0:0:
410,200,6925,1,0,0:0:0:0:
192,132,7038,1,8,1:2:0:0:
376,56,7150,2,0,L|268:56,1,90,0|0,1:3|0:0,0:0:0:0:
476,16,7374,1,4,1:3:0:0:
240,320,7486,2,0,L|124:320,1,90,8|0,1:2|0:0,0:0:0:0:
196,320,7654,1,0,0:0:0:0:
340,272,7710,6,0,L|464:272,1,90,0|0,1:2|0:0,0:0:0:0:
248,216,7934,1,8,1:2:0:0:
436,208,8045,1,4,1:3:0:0:
248,216,8157,1,0,0:0:0:0:
64,216,8269,1,0,1:3:0:0:
248,156,8381,2,0,L|248:44,1,90,8|0,1:2|0:0,0:0:0:0:
120,68,8605,5,2,1:3:0:0:
336,64,8717,1,0,0:0:0:0:
120,68,8829,2,0,L|216:68,1,90,10|4,1:2|1:3,0:0:0:0:
420,68,9053,1,8,0:2:0:0:
210,68,9165,1,0,1:3:0:0:
480,144,9277,1,10,1:2:0:0:
280,160,9389,1,8,1:2:0:0:
72,172,9501,6,0,L|72:76,1,90,4|0,1:2|0:0,0:0:0:0:
276,72,9725,1,8,1:2:0:0:
76,296,9837,2,0,L|176:296,1,90,4|0,1:3|0:0,0:0:0:0:
376,296,10060,1,0,1:3:0:0:
156,232,10172,2,0,L|156:116,1,90,8|0,1:2|0:0,0:0:0:0:
376,136,10396,6,0,L|268:136,1,90,0|0,1:2|0:0,0:0:0:0:
484,76,10620,1,8,1:2:0:0:
272,352,10732,2,0,L|272:248,1,90,4|0,1:3|0:0,0:0:0:0:
64,264,10956,1,0,0:0:0:0:
272,192,11068,2,0,L|172:192,1,90,8|0,1:2|0:0,0:0:0:0:
400,136,11292,6,0,L|400:240,1,90,0|0,1:2|0:0,0:0:0:0:
172,276,11516,1,8,1:2:0:0:
368,316,11628,2,0,L|236:316,1,90,4|0,1:3|0:0,0:0:0:0:
476,260,11851,1,0,1:3:0:0:
256,204,11963,2,0,L|256:96,1,90,8|0,1:2|0:0,0:0:0:0:
376,112,12187,5,4,1:3:0:0:
168,72,12299,1,0,0:0:0:0:
408,208,12411,2,0,L|308:208,1,90,8|4,1:2|1:3,0:0:0:0:
120,204,12635,1,8,1:2:0:0:
318,208,12747,1,0,1:3:0:0:
48,144,12859,1,8,1:2:0:0:
248,152,12971,1,8,1:2:0:0:
448,84,13083,6,0,L|344:84,1,90,4|2,1:2|0:3,0:0:0:0:
152,80,13307,1,8,1:2:0:0:
352,80,13419,2,0,L|352:176,1,90,4|2,1:3|0:3,0:0:0:0:
152,80,13643,1,0,1:3:0:0:
352,80,13754,2,0,L|464:80,1,90,8|0,1:2|0:0,0:0:0:0:
216,228,13978,5,0,1:2:0:0:
335,153,14090,2,0,L|251:153,1,45,2|0,0:3|0:0,0:0:0:0:
144,160,14202,1,8,1:2:0:0:
352,80,14314,2,0,L|232:80,1,90,4|2,1:3|0:3,0:0:0:0:
468,32,14538,1,2,1:3:0:0:
256,336,14650,2,0,L|256:208,1,90,8|2,1:2|0:3,0:0:0:0:
464,168,14874,6,0,L|344:168,1,90,4|2,1:2|0:3,0:0:0:0:
148,172,15098,1,8,1:2:0:0:
352,92,15210,2,0,L|240:92,1,90,4|2,1:3|0:3,0:0:0:0:
464,44,15434,1,0,1:3:0:0:
228,292,15545,2,0,L|328:292,1,90,8|0,1:2|0:0,0:0:0:0:
100,236,15769,5,8,1:2:0:0:
316,240,15881,2,0,L|316:128,1,90,0|8,0:0|1:2,0:0:0:0:
100,140,16105,1,4,1:3:0:0:
344,88,16217,1,8,1:2:0:0:
132,80,16329,1,8,1:2:0:0:
380,56,16441,1,8,1:2:0:0:
96,52,16553,1,8,1:2:0:0:
416,48,16665,6,0,L|416:168,1,90,4|0,1:2|0:0,0:0:0:0:
204,324,16889,1,8,1:2:0:0:
416,228,17001,2,0,L|416:128,1,90,2|0,1:3|2:3,0:0:0:0:
148,276,17225,1,2,1:3:0:0:
352,228,17337,2,0,L|240:228,1,90,8|0,1:2|0:0,0:0:0:0:
216,228,17504,1,0,0:0:0:0:
360,160,17560,5,0,1:0:0:0:
448,156,17672,2,0,L|448:48,1,90,0|8,0:0|1:2,0:0:0:0:
212,336,17896,2,0,L|104:336,1,90,2|0,1:3|0:0,0:0:0:0:
328,260,18120,1,2,1:3:0:0:
132,264,18232,1,8,1:2:0:0:
224,264,18344,1,0,0:0:0:0:
24,200,18456,6,0,L|132:200,1,90,0|0,1:0|0:0,0:0:0:0:
316,192,18680,1,8,1:2:0:0:
114,200,18792,1,2,1:3:0:0:
316,192,18904,2,0,L|316:84,1,90,0|0,1:0|0:0,0:0:0:0:
116,92,19128,2,0,L|220:92,1,90,8|0,1:2|1:0,0:0:0:0:
412,288,19351,5,0,1:0:0:0:
206,92,19463,1,0,0:0:0:0:
412,288,19575,2,0,L|412:164,1,90,8|0,1:2|0:0,0:0:0:0:
216,196,19799,2,0,L|340:196,1,90,0|4,1:0|1:3,0:0:0:0:
104,144,20023,2,0,L|4:144,1,90,8|0,1:2|1:0,0:0:0:0:
224,312,20247,6,0,L|104:312,1,90,4|0,1:2|0:0,0:0:0:0:
352,248,20471,1,8,1:2:0:0:
132,192,20583,2,0,L|244:192,1,90,2|0,1:3|2:3,0:0:0:0:
16,136,20807,1,2,1:3:0:0:
224,88,20919,2,0,L|112:88,1,90,8|0,1:2|0:0,0:0:0:0:
180,88,21087,1,0,0:0:0:0:
368,88,21143,6,0,L|272:88,2,90,0|0|8,1:0|0:0|1:2,0:0:0:0:
144,280,21478,2,0,L|252:280,1,90,2|0,1:3|0:0,0:0:0:0:
36,204,21702,1,2,1:3:0:0:
232,152,21814,2,0,L|124:152,1,90,8|0,1:2|0:0,0:0:0:0:
368,64,22038,6,0,L|476:64,2,90,0|0|8,1:0|0:0|1:2,0:0:0:0:
160,272,22374,2,0,L|276:272,1,90,0|0,1:3|1:0,0:0:0:0:
32,200,22598,1,0,0:0:0:0:
240,200,22710,2,0,L|240:88,1,90,8|0,1:2|1:0,0:0:0:0:
28,104,22934,6,0,L|132:104,1,90,0|0,1:0|0:0,0:0:0:0:
320,304,23157,2,0,L|216:304,1,90,8|0,1:2|0:0,0:0:0:0:
432,212,23381,1,2,1:3:0:0:
236,304,23493,1,0,1:3:0:0:
432,212,23605,2,0,L|432:100,1,90,8|4,1:2|1:3,0:0:0:0:
200,136,23829,6,0,L|88:136,1,90,4|0,1:2|0:0,0:0:0:0:
312,84,24053,1,8,1:2:0:0:
112,232,24165,2,0,L|112:116,1,90,4|4,0:3|1:3,0:0:0:0:
296,144,24389,1,0,2:3:0:0:
80,72,24501,1,8,1:2:0:0:
264,72,24613,1,0,0:0:0:0:
80,72,24725,5,0,1:0:0:0:
280,28,24837,1,0,0:0:0:0:
472,28,24948,1,8,1:2:0:0:
280,64,25060,1,0,0:0:0:0:
64,240,25172,2,0,L|184:240,1,90,2|2,1:3|0:3,0:0:0:0:
408,160,25396,2,0,L|288:160,1,90,10|2,1:3|0:3,0:0:0:0:
136,88,25620,6,0,L|240:88,1,90,4|0,1:3|0:0,0:0:0:0:
32,176,25844,2,0,L|32:72,1,90,8|4,1:2|0:3,0:0:0:0:
220,300,26068,1,4,1:3:0:0:
412,300,26180,1,0,2:3:0:0:
168,208,26292,1,8,1:2:0:0:
352,208,26404,1,0,0:0:0:0:
120,152,26516,5,0,1:0:0:0:
304,144,26628,1,0,0:0:0:0:
488,144,26740,1,8,1:2:0:0:
280,92,26851,1,0,0:0:0:0:
452,88,26963,2,0,L|452:200,1,90,2|2,1:3|0:3,0:0:0:0:
236,292,27187,2,0,L|352:292,1,90,10|2,1:3|0:3,0:0:0:0:
104,240,27411,6,0,L|-4:240,1,90,4|0,1:2|0:0,0:0:0:0:
216,160,27635,1,8,1:2:0:0:
14,240,27747,2,0,L|132:240,1,90,4|4,0:3|1:3,0:0:0:0:
300,232,27971,1,0,2:3:0:0:
104,240,28083,1,8,1:2:0:0:
296,152,28195,1,0,0:0:0:0:
488,144,28307,5,0,1:0:0:0:
248,88,28419,1,0,0:0:0:0:
444,80,28531,1,8,1:2:0:0:
184,44,28643,1,0,0:0:0:0:
388,36,28754,2,0,L|284:36,1,90,2|2,1:3|0:3,0:0:0:0:
56,224,28978,2,0,L|176:224,1,90,10|2,1:3|0:3,0:0:0:0:
376,364,29202,6,0,L|376:244,1,90,0|0,1:0|0:0,0:0:0:0:
256,280,29426,1,8,1:2:0:0:
456,200,29538,1,4,0:3:0:0:
256,212,29650,2,0,L|360:212,1,90,0|4,0:0|1:3,0:0:0:0:
144,152,29874,2,0,L|36:152,1,90,8|0,1:2|0:0,0:0:0:0:
288,96,30098,5,0,1:3:0:0:
52,96,30210,1,0,1:3:0:0:
344,96,30322,1,0,1:3:0:0:
116,96,30434,1,0,1:3:0:0:
400,96,30545,1,8,1:2:0:0:
172,96,30657,1,8,1:2:0:0:
464,96,30769,1,8,1:2:0:0:
224,96,30881,1,8,1:2:0:0:
464,36,30993,6,0,B|376:36|376:36|468:36,1,180,4|8,1:2|0:0,0:0:0:0:
236,224,31329,2,0,L|444:224,1,180
212,144,31665,1,8,0:0:0:0:
416,224,31777,1,8,0:0:0:0:
140,332,31889,6,0,L|20:332,1,90,4|0,1:3|0:0,0:0:0:0:
232,264,32113,1,8,0:0:0:0:
50,332,32225,1,0,1:0:0:0:
232,272,32337,2,0,L|232:168,1,90,0|0,1:0|0:0,0:0:0:0:
48,176,32560,1,8,2:2:0:0:
232,272,32672,1,10,2:3:0:0:
416,176,32784,6,0,L|216:176,1,180,4|8,1:3|0:0,0:0:0:0:
440,176,33120,2,0,P|500:144|424:92,1,180
232,92,33456,1,10,1:3:0:0:
439,83,33568,1,8,0:0:0:0:
232,184,33680,6,0,L|336:184,1,90,4|2,1:3|1:3,0:0:0:0:
136,160,33904,1,8,0:0:0:0:
322,184,34016,1,0,0:0:0:0:
100,160,34128,2,0,L|100:256,1,90,4|0,1:3|1:0,0:0:0:0:
288,248,34351,1,8,0:0:0:0:
472,244,34463,1,10,0:3:0:0:
288,188,34575,6,0,L|96:188,1,180,4|8,1:3|0:0,0:0:0:0:
304,124,34911,2,0,L|504:124,1,180,0|4,0:0|0:3,0:0:0:0:
288,56,35247,1,8,0:0:0:0:
484,124,35359,1,8,0:0:0:0:
260,264,35471,6,0,L|160:264,1,90,4|0,1:3|1:3,0:0:0:0:
360,200,35695,1,8,0:0:0:0:
168,240,35807,2,0,L|168:116,1,90,0|0,1:0|1:3,0:0:0:0:
360,136,36031,1,0,0:0:0:0:
168,88,36143,1,8,0:0:0:0:
416,76,36254,1,10,0:3:0:0:
124,164,36366,6,0,L|328:164,1,180,4|8,1:3|0:0,0:0:0:0:
96,312,36702,2,0,P|44:284|124:220,1,180,4|2,1:3|0:3,0:0:0:0:
304,212,37038,1,8,0:0:0:0:
100,208,37150,1,2,0:3:0:0:
288,152,37262,6,0,L|160:152,1,90,4|0,1:3|1:0,0:0:0:0:
388,96,37486,1,8,1:2:0:0:
180,100,37598,1,0,1:0:0:0:
412,60,37710,1,8,1:2:0:0:
156,56,37822,1,0,1:0:0:0:
448,28,37934,1,8,1:2:0:0:
132,20,38045,1,8,1:2:0:0:
488,28,38157,6,0,L|288:28,1,180,4|8,1:2|0:0,0:0:0:0:
104,328,38493,2,0,L|296:328,1,180,0|0,1:0|0:0,0:0:0:0:
80,252,38829,1,8,0:0:0:0:
284,328,38941,1,8,0:0:0:0:
80,252,39053,6,0,L|80:152,1,90,4|0,1:3|0:0,0:0:0:0:
260,152,39277,1,8,0:0:0:0:
80,252,39389,1,0,0:0:0:0:
296,152,39501,2,0,L|424:152,1,90,2|0,1:3|0:0,0:0:0:0:
204,92,39725,1,8,0:0:0:0:
24,96,39837,1,10,1:3:0:0:
252,268,39948,6,0,L|460:268,1,180,4|8,1:3|0:0,0:0:0:0:
208,216,40284,2,0,P|156:180|244:120,1,180,0|0,0:0|1:0,0:0:0:0:
396,104,40620,1,8,0:0:0:0:
216,108,40732,1,10,1:3:0:0:
28,64,40844,6,0,L|144:64,1,90,4|2,1:3|1:3,0:0:0:0:
308,60,41068,1,8,1:2:0:0:
118,64,41180,1,0,0:0:0:0:
344,160,41292,2,0,L|344:60,1,90,4|0,1:3|0:0,0:0:0:0:
160,232,41516,1,8,0:0:0:0:
344,160,41628,1,8,0:0:0:0:
92,232,41740,6,0,P|32:196|120:148,1,180,4|8,1:3|0:0,0:0:0:0:
280,76,42075,2,0,L|80:76,1,180,0|4,0:0|0:3,0:0:0:0:
300,268,42411,1,8,0:0:0:0:
100,76,42523,1,8,0:0:0:0:
384,208,42635,6,0,L|496:208,1,90,2|4,1:3|3:3,0:0:0:0:
288,144,42859,1,8,1:2:0:0:
104,144,42971,1,2,3:3:0:0:
288,144,43083,2,0,L|288:52,1,90,4|0,1:3|0:0,0:0:0:0:
100,60,43307,1,8,1:2:0:0:
288,144,43419,1,8,0:0:0:0:
76,200,43531,6,0,P|28:164|104:88,1,180,4|8,1:3|0:0,0:0:0:0:
284,320,43866,2,0,B|376:320|376:320|376:212,1,180,4|2,0:3|0:3,0:0:0:0:
188,232,44202,1,8,0:0:0:0:
376,232,44314,1,12,1:3:0:0:
188,168,44426,6,0,L|296:168,1,90,8|0,1:2|0:0,0:0:0:0:
96,104,44650,1,8,1:2:0:0:
336,96,44762,1,0,0:0:0:0:
68,104,44874,1,8,1:2:0:0:
364,96,44986,1,8,1:2:0:0:
40,104,45098,1,8,1:2:0:0:
392,96,45210,1,8,1:2:0:0:
36,44,45322,5,4,1:2:0:0:
244,44,45434,1,2,0:2:0:0:
64,44,45545,1,10,1:3:0:0:
272,40,45657,1,2,0:2:0:0:
96,44,45769,1,4,1:3:0:0:
300,40,45881,1,2,0:2:0:0:
128,44,45993,1,10,1:3:0:0:
336,40,46105,2,0,L|280:40,1,45,2|0,0:2|0:0,0:0:0:0:
124,316,46217,6,0,L|252:316,1,90,4|2,1:3|0:0,0:0:0:0:
28,248,46441,1,10,1:3:0:0:
212,200,46553,2,0,L|100:200,1,90,2|4,0:0|1:3,0:0:0:0:
320,140,46777,1,2,0:0:0:0:
120,136,46889,2,0,P|112:80|132:28,1,90,10|4,1:3|1:3,0:0:0:0:
168,48,47057,1,0,0:0:0:0:
356,364,47113,6,0,L|240:364,2,90,4|0|8,1:3|0:0|1:2,0:0:0:0:
164,280,47448,1,0,0:0:0:0:
252,284,47560,2,0,L|252:164,1,90,4|0,3:0|0:0,0:0:0:0:
52,144,47784,2,0,L|148:144,1,90,8|0,1:2|0:0,0:0:0:0:
364,96,48008,5,8,1:2:0:0:
144,324,48120,2,0,L|272:324,1,90,4|0,1:3|0:0,0:0:0:0:
432,108,48344,1,8,1:2:0:0:
180,272,48456,2,0,L|304:272,1,90,4|0,1:3|0:0,0:0:0:0:
484,108,48680,2,0,L|484:208,1,90,4|2,1:2|0:0,0:0:0:0:
440,196,48848,1,0,0:0:0:0:
280,204,48904,5,4,1:2:0:0:
468,200,49016,1,2,0:2:0:0:
252,160,49128,1,10,1:3:0:0:
440,160,49240,1,2,0:2:0:0:
224,112,49351,1,4,1:3:0:0:
408,108,49463,1,2,0:2:0:0:
192,72,49575,1,10,1:3:0:0:
384,64,49687,2,0,L|320:64,1,45,2|0,0:2|0:0,0:0:0:0:
172,336,49799,6,0,L|276:336,1,90,4|2,1:3|0:0,0:0:0:0:
64,248,50023,2,0,L|172:248,1,90,10|2,1:3|0:0,0:0:0:0:
336,180,50247,2,0,L|224:180,1,90,4|2,1:3|0:0,0:0:0:0:
448,100,50471,2,0,L|340:100,1,90,10|4,1:3|1:3,0:0:0:0:
156,216,50695,6,0,L|276:216,2,90,4|0|8,1:3|0:0|1:2,0:0:0:0:
368,152,51031,1,0,1:0:0:0:
278,152,51142,1,4,1:3:0:0:
188,152,51254,1,2,0:0:0:0:
392,300,51366,2,0,L|392:176,1,90,8|2,1:2|0:0,0:0:0:0:
348,212,51534,1,0,0:0:0:0:
184,316,51590,5,8,1:2:0:0:
372,320,51702,1,2,0:0:0:0:
184,316,51814,2,0,L|92:316,1,90,8|4,1:2|3:3,0:0:0:0:
296,240,52038,1,8,1:2:0:0:
94,316,52150,1,0,3:3:0:0:
296,240,52262,2,0,L|412:240,1,90,12|0,1:3|0:0,0:0:0:0:
144,200,52486,6,0,L|144:100,1,90,4|0,1:2|0:0,0:0:0:0:
336,100,52710,1,8,1:2:0:0:
144,192,52822,2,0,L|252:192,1,90,0|0,1:3|0:0,0:0:0:0:
48,128,53045,1,4,1:3:0:0:
228,120,53157,1,8,1:2:0:0:
416,124,53269,1,0,0:0:0:0:
224,176,53381,6,0,L|108:176,1,90,0|0,1:2|0:0,0:0:0:0:
328,176,53605,1,8,1:2:0:0:
134,176,53717,1,0,1:3:0:0:
328,176,53829,2,0,L|440:176,1,90,0|4,0:0|1:3,0:0:0:0:
232,76,54053,1,8,1:2:0:0:
418,176,54165,2,0,L|360:176,1,45
196,276,54277,6,0,L|328:272,1,90,0|0,1:2|0:0,0:0:0:0:
108,208,54501,1,8,1:2:0:0:
296,204,54613,1,4,1:3:0:0:
104,144,54725,1,0,0:0:0:0:
296,136,54837,1,0,1:3:0:0:
484,72,54948,2,0,L|384:72,1,90,8|0,1:2|0:0,0:0:0:0:
184,72,55172,6,0,L|184:168,1,90,2|0,1:3|0:0,0:0:0:0:
375,273,55396,2,0,L|279:273,1,90,10|4,1:2|1:3,0:0:0:0:
96,272,55620,1,8,0:2:0:0:
280,208,55732,1,0,1:3:0:0:
40,140,55844,1,10,1:2:0:0:
232,144,55956,1,8,1:2:0:0:
420,56,56068,6,0,L|320:56,1,90,4|0,1:2|0:0,0:0:0:0:
132,52,56292,1,8,1:2:0:0:
340,56,56404,2,0,L|344:188,1,90,4|0,1:3|0:0,0:0:0:0:
136,112,56628,1,0,1:3:0:0:
348,200,56740,2,0,L|456:200,1,90,8|0,1:2|0:0,0:0:0:0:
208,292,56963,6,0,L|96:292,1,90,0|0,1:2|0:0,0:0:0:0:
300,208,57187,1,8,1:2:0:0:
118,292,57299,1,4,1:3:0:0:
392,172,57411,2,0,L|512:172,1,90,0|0,0:0|1:3,0:0:0:0:
292,120,57635,1,8,1:2:0:0:
104,120,57747,1,0,0:0:0:0:
320,248,57859,6,0,L|216:248,1,90,0|0,1:2|0:0,0:0:0:0:
432,200,58083,1,8,1:2:0:0:
230,248,58195,2,0,L|228:144,1,90,4|0,1:3|0:0,0:0:0:0:
40,156,58419,1,0,1:3:0:0:
230,248,58531,2,0,L|132:248,1,90,8|0,1:2|0:0,0:0:0:0:
328,168,58754,5,4,1:3:0:0:
136,172,58866,2,0,L|136:44,1,90,0|8,0:0|1:2,0:0:0:0:
232,80,59090,1,4,1:3:0:0:
32,40,59202,1,8,1:2:0:0:
220,32,59314,1,0,1:3:0:0:
420,28,59426,1,8,1:2:0:0:
188,32,59538,1,0,0:0:0:0:
400,100,59650,6,0,L|300:100,1,90,4|2,1:2|0:3,0:0:0:0:
120,120,59874,1,8,1:2:0:0:
312,176,59986,2,0,L|312:280,1,90,4|2,1:3|0:3,0:0:0:0:
120,176,60210,1,0,1:3:0:0:
328,176,60322,2,0,L|448:176,1,90,8|0,1:2|0:0,0:0:0:0:
188,272,60545,6,0,L|60:272,1,90,0|2,1:2|0:3,0:0:0:0:
280,208,60769,1,8,1:2:0:0:
464,212,60881,1,4,1:3:0:0:
280,144,60993,2,0,L|380:144,1,90,2|2,0:3|1:3,0:0:0:0:
184,88,61217,1,8,1:2:0:0:
368,136,61329,1,2,0:3:0:0:
156,268,61441,6,0,L|252:268,1,90,4|2,1:2|0:3,0:0:0:0:
32,200,61665,1,8,1:2:0:0:
256,180,61777,2,0,L|124:180,1,90,4|2,1:3|0:3,0:0:0:0:
360,96,62001,2,0,L|260:96,1,90,0|8,1:3|1:2,0:0:0:0:
472,48,62225,6,0,L|472:144,1,90,0|8,0:0|1:2,0:0:0:0:
288,144,62448,1,0,0:0:0:0:
84,148,62560,2,0,L|200:148,1,90,8|4,1:2|1:3,0:0:0:0:
368,152,62784,1,8,1:2:0:0:
164,88,62896,1,8,1:2:0:0:
400,96,63008,1,8,1:2:0:0:
136,48,63120,1,8,1:2:0:0:
436,48,63232,6,0,L|328:48,1,90,4|0,1:2|0:0,0:0:0:0:
136,208,63456,1,8,1:2:0:0:
346,48,63568,2,0,L|220:48,1,90,2|0,1:3|2:3,0:0:0:0:
468,48,63792,1,2,1:3:0:0:
256,48,63904,2,0,L|376:48,1,90,8|0,1:2|0:0,0:0:0:0:
300,48,64072,1,0,0:0:0:0:
136,308,64128,5,0,1:0:0:0:
328,256,64240,2,0,L|328:144,1,90,0|8,0:0|1:2,0:0:0:0:
104,120,64463,2,0,L|212:120,1,90,2|0,1:3|0:0,0:0:0:0:
396,120,64687,1,2,1:3:0:0:
192,124,64799,2,0,L|304:124,1,90,8|0,1:2|0:0,0:0:0:0:
72,208,65023,6,0,L|72:92,1,90,0|0,1:0|0:0,0:0:0:0:
256,44,65247,1,8,1:2:0:0:
72,208,65359,1,2,1:3:0:0:
280,44,65471,2,0,L|156:44,1,90,0|0,1:0|0:0,0:0:0:0:
392,44,65695,2,0,L|496:44,1,90,8|0,1:2|1:0,0:0:0:0:
272,280,65919,6,0,L|272:160,1,90,0|0,1:0|0:0,0:0:0:0:
476,132,66143,1,8,1:2:0:0:
268,132,66254,1,0,0:0:0:0:
64,88,66366,2,0,L|160:88,1,90,0|4,1:0|1:3,0:0:0:0:
376,80,66590,2,0,L|504:80,1,90,8|0,1:2|1:0,0:0:0:0:
240,264,66814,5,4,1:2:0:0:
436,192,66926,2,0,L|340:192,1,90,0|8,0:0|1:2,0:0:0:0:
128,192,67150,1,2,1:3:0:0:
356,128,67262,2,0,L|240:128,1,90,0|2,2:3|1:3,0:0:0:0:
472,56,67486,2,0,L|368:56,1,90,8|0,1:2|0:0,0:0:0:0:
336,56,67654,1,0,0:0:0:0:
172,292,67710,6,0,L|296:292,1,90,0|0,1:0|0:0,0:0:0:0:
68,204,67934,1,8,1:2:0:0:
268,216,68045,2,0,L|268:100,1,90,2|0,1:3|0:0,0:0:0:0:
64,116,68269,1,2,1:3:0:0:
268,64,68381,2,0,L|164:64,1,90,8|0,1:2|0:0,0:0:0:0:
132,64,68549,1,0,0:0:0:0:
312,184,68605,6,0,L|412:184,2,90,0|0|8,1:0|0:0|1:2,0:0:0:0:
88,284,68941,2,0,L|204:284,1,90,0|0,1:3|1:0,0:0:0:0:
384,280,69165,1,0,0:0:0:0:
168,216,69277,2,0,L|168:100,1,90,8|0,1:2|1:0,0:0:0:0:
380,96,69501,6,0,L|280:96,1,90,0|0,1:0|0:0,0:0:0:0:
492,52,69725,1,8,1:2:0:0:
288,100,69837,1,0,0:0:0:0:
100,100,69948,2,0,L|224:100,1,90,2|0,1:3|1:3,0:0:0:0:
12,52,70172,2,0,L|112:52,1,90,8|4,1:2|1:3,0:0:0:0:
340,328,70396,6,0,L|212:328,1,90,4|0,1:2|0:0,0:0:0:0:
56,320,70620,1,8,1:2:0:0:
272,272,70732,2,0,L|272:152,1,90,4|4,0:3|1:3,0:0:0:0:
88,136,70956,1,0,2:3:0:0:
332,104,71068,1,8,1:2:0:0:
132,48,71180,1,0,0:0:0:0:
320,48,71292,5,0,1:0:0:0:
504,44,71404,1,0,0:0:0:0:
280,44,71516,1,8,1:2:0:0:
468,40,71628,1,0,0:0:0:0:
248,64,71740,2,0,L|148:64,1,90,2|2,1:3|0:3,0:0:0:0:
380,72,71963,2,0,L|484:72,1,90,10|2,1:3|0:3,0:0:0:0:
264,228,72187,6,0,L|376:228,1,90,4|0,1:2|0:0,0:0:0:0:
164,164,72411,2,0,L|64:164,1,90,8|4,1:2|0:3,0:0:0:0:
264,80,72635,1,4,1:3:0:0:
452,76,72747,1,0,2:3:0:0:
264,80,72859,1,8,1:2:0:0:
76,80,72971,1,0,0:0:0:0:
296,36,73083,5,0,1:0:0:0:
104,44,73195,1,0,0:0:0:0:
332,32,73307,1,8,1:2:0:0:
136,40,73419,1,0,0:0:0:0:
356,32,73531,2,0,L|240:32,1,90,2|2,1:3|0:3,0:0:0:0:
468,36,73754,2,0,L|468:132,1,90,10|2,1:3|0:3,0:0:0:0:
240,268,73978,5,4,1:2:0:0:
424,180,74090,2,0,L|304:180,1,90,0|8,0:0|1:2,0:0:0:0:
144,176,74314,1,4,0:3:0:0:
372,120,74426,1,4,1:3:0:0:
168,128,74538,1,0,2:3:0:0:
408,80,74650,1,8,1:2:0:0:
196,84,74762,1,0,0:0:0:0:
12,84,74874,5,0,1:0:0:0:
224,40,74986,1,0,0:0:0:0:
40,48,75098,1,8,1:2:0:0:
256,40,75210,1,0,0:0:0:0:
68,48,75322,2,0,L|172:48,1,90,2|2,1:3|0:3,0:0:0:0:
388,208,75545,2,0,L|272:208,1,90,10|2,1:3|0:3,0:0:0:0:
496,124,75769,6,0,L|388:124,1,90,0|0,1:0|0:0,0:0:0:0:
192,128,75993,1,8,1:2:0:0:
406,124,76105,2,0,L|404:20,1,90,0|4,0:0|1:3,0:0:0:0:
196,44,76329,1,0,0:0:0:0:
406,124,76441,2,0,L|504:124,1,90,8|0,1:2|0:0,0:0:0:0:
288,72,76665,5,8,1:2:0:0:
496,124,76777,1,8,1:2:0:0:
220,72,76889,1,8,1:2:0:0:
428,128,77001,1,8,1:2:0:0:
152,72,77113,1,8,1:2:0:0:
360,128,77225,1,8,1:2:0:0:
88,72,77337,1,8,1:2:0:0:
296,128,77448,1,8,1:2:0:0:
32,72,77560,5,6,0:0:0:0:
