osu file format v14

[General]
AudioFilename: audio.mp3
AudioLeadIn: 0
PreviewTime: 16665
Countdown: 0
SampleSet: Normal
StackLeniency: 0.3
Mode: 0
LetterboxInBreaks: 0
EpilepsyWarning: 1
WidescreenStoryboard: 1

[Editor]
Bookmarks: 45322,52487
DistanceSpacing: 1
BeatDivisor: 2
GridSize: 8
TimelineZoom: 2.600001

[Metadata]
Title:Mochio-
TitleUnicode:モチオー
Artist:[Kyoro]
ArtistUnicode:【Kyoro】
Creator:Snow Note
Version:Insane
Source:スーパーマリオRPG
Tags:7odoa 音MAD oto-mad otomad ニコニコ動画 niconico douga YTPMV Youtube スロウスタート Slow Start 百地たまて Tamate Momochi たまちゃん tamachan 伊藤 彩沙 Itou Ayasa きららファンタジア Kirara Fantasia 芳文社 Houbunsha まんがタイムきらら manga time 対カジオー戦 Fight Against Smithy Kajioh Super Mario Legend of the Seven Stars 下村陽子 Yoko Shimomura 任天堂 nintendo novelty japanese
BeatmapID:3028465
BeatmapSetID:1473006

[Difficulty]
HPDrainRate:4
CircleSize:3.8
OverallDifficulty:8.5
ApproachRate:9.2
SliderMultiplier:1.7
SliderTickRate:1

[Events]
//Background and Video events
0,0,"tamachan.jpg",0,0
Video,0,"video.mp4"
//Break Periods
//Storyboard Layer 0 (Background)
//Storyboard Layer 1 (Fail)
//Storyboard Layer 2 (Pass)
//Storyboard Layer 3 (Foreground)
//Storyboard Layer 4 (Overlay)
//Storyboard Sound Samples

[TimingPoints]
546,223.880597014925,4,1,1,65,1,0
5303,-100,4,1,1,5,0,0
5807,-100,4,1,2,65,0,0
16665,-100,4,1,1,65,0,1
30993,-100,4,1,2,65,0,0
45322,-100,4,1,1,65,0,1
48904,-86.9565217391304,4,1,1,65,0,1
50695,-100,4,1,1,65,0,1
52486,-100,4,1,2,65,0,0
63232,-100,4,1,1,65,0,1
77560,-100,4,1,2,65,0,0

[Colours]
Combo1 : 148,255,176
Combo2 : 150,252,255
Combo3 : 0,128,192
Combo4 : 200,0,200

[HitObjects]
256,192,3904,12,0,5359,0:0:0:0:
360,192,5919,6,0,P|371:107|308:43,1,170,4|8,0:0|0:0,0:0:0:0:
192,48,6254,2,0,P|138:110|150:192,1,170
256,248,6590,1,8,0:0:0:0:
256,152,6702,1,0,0:0:0:0:
152,192,6814,6,0,P|135:235|145:290,1,85,2|2,0:0|0:0,0:0:0:0:
360,192,7038,2,0,P|376:148|366:93,1,85,10|2,0:0|0:0,0:0:0:0:
216,247,7262,2,0,P|228:288|256:319,2,85,2|2|10,0:0|0:0|0:0,0:0:0:0:
256,152,7598,1,2,0:0:0:0:
290,244,7710,6,0,P|281:285|256:319,1,85
120,272,7934,2,0,P|122:229|142:192,1,85,8|0,0:0|0:0,0:0:0:0:
369,192,8157,2,0,P|389:229|392:272,1,85
256,318,8381,2,0,P|230:285|221:244,1,85,8|0,0:0|0:0,0:0:0:0:
177,43,8605,6,0,P|256:16|334:43,1,170,0|8,0:0|0:0,0:0:0:0:
385,133,8941,1,0,0:0:0:0:
335,222,9053,2,0,P|256:248|177:222,1,170,0|8,0:0|0:0,0:0:0:0:
127,133,9389,1,0,0:0:0:0:
80,224,9501,1,4,0:0:0:0:
80,224,9725,5,8,0:0:0:0:
127,314,9837,1,0,0:0:0:0:
176,221,9948,2,0,P|188:178|172:124,1,85
66,52,10172,2,0,P|54:95|70:149,1,85,8|0,0:0|0:0,0:0:0:0:
176,221,10396,6,0,P|226:228|328:161,2,170,0|8|0,0:0|0:0|0:0,0:0:0:0:
312,64,11068,1,8,0:0:0:0:
408,96,11180,1,0,0:0:0:0:
323,169,11292,6,0,L|224:152,1,85
228,49,11516,2,0,L|312:64,1,85,8|0,0:0|0:0,0:0:0:0:
408,96,11740,2,0,P|438:173|382:258,1,170,0|8,0:0|0:0,0:0:0:0:
288,240,12075,1,0,0:0:0:0:
368,160,12187,6,0,P|437:205|440:308,1,170,0|8,0:0|0:0,0:0:0:0:
352,336,12523,1,0,0:0:0:0:
288,240,12635,2,0,P|276:200|284:159,1,85
400,56,12859,2,0,P|412:96|404:137,1,85,8|0,0:0|0:0,0:0:0:0:
288,240,13083,6,0,P|248:248|192:240,1,85,4|2,0:0|0:0,0:0:0:0:
240,80,13307,2,0,P|281:72|323:77,1,85,8|0,0:0|0:0,0:0:0:0:
464,144,13531,5,2,0:0:0:0:
498,221,13643,1,0,0:0:0:0:
488,304,13754,1,8,0:0:0:0:
426,362,13866,1,2,0:0:0:0:
343,380,13978,6,0,L|248:368,1,85
168,280,14202,2,0,L|263:268,1,85,8|0,0:0|0:0,0:0:0:0:
384,192,14426,2,0,P|400:144|336:24,1,170,0|10,0:0|0:0,0:0:0:0:
256,8,14762,1,2,0:0:0:0:
154,38,14874,6,0,P|90:91|76:173,1,170,10|0,0:0|0:0,0:0:0:0:
102,294,15210,2,0,P|155:357|237:371,1,170,10|0,0:0|0:0,0:0:0:0:
358,346,15545,2,0,P|421:292|435:210,1,170,10|0,0:0|0:0,0:0:0:0:
410,90,15881,2,0,P|356:26|274:12,1,170,10|0,0:0|0:0,0:0:0:0:
154,38,16217,5,8,0:0:0:0:
106,102,16329,1,8,0:0:0:0:
106,182,16441,1,8,0:0:0:0:
154,246,16553,1,8,0:0:0:0:
240,264,16665,6,0,P|284:264|330:226,1,85,6|0,0:0|0:0,0:0:0:0:
368,144,16889,1,8,0:0:0:0:
272,107,17001,2,0,P|251:144|252:186,1,85
304,280,17225,1,0,0:0:0:0:
392,216,17337,2,0,P|371:178|314:158,1,85,10|0,0:0|0:0,0:0:0:0:
176,168,17560,6,0,P|176:212|214:258,1,85
336,160,17785,2,0,P|358:125|357:83,1,85,8|0,0:0|0:0,0:0:0:0:
256,16,18008,5,2,0:0:0:0:
256,104,18120,1,0,0:0:0:0:
256,192,18232,1,10,0:0:0:0:
256,192,18456,6,0,P|328:224|416:200,1,170,6|8,0:0|0:0,0:0:0:0:
344,104,18792,1,0,0:0:0:0:
256,192,18904,2,0,P|184:224|96:200,1,170,0|10,0:0|0:0,0:0:0:0:
168,104,19240,1,0,0:0:0:0:
342,197,19351,6,0,P|350:237|342:287,1,85
170,187,19575,2,0,P|162:145|168:104,1,85,8|0,0:0|0:0,0:0:0:0:
328,16,19799,2,0,P|411:2|491:25,1,170,2|10,0:0|0:0,0:0:0:0:
496,352,20247,6,0,P|452:352|406:314,1,85,6|0,0:0|0:0,0:0:0:0:
364,243,20471,1,8,0:0:0:0:
458,197,20583,2,0,P|479:235|469:293,1,85
416,360,20807,1,0,0:0:0:0:
312,368,20919,2,0,L|216:352,1,85,10|0,0:0|0:0,0:0:0:0:
216,256,21143,6,0,P|260:256|306:294,1,85
137,334,21366,2,0,P|116:297|113:255,1,85,8|0,0:0|0:0,0:0:0:0:
128,168,21590,5,2,0:0:0:0:
176,96,21702,1,0,0:0:0:0:
256,64,21814,1,10,0:0:0:0:
336,96,21926,1,0,0:0:0:0:
384,168,22038,6,0,P|397:213|378:251,1,85,6|0,0:0|0:0,0:0:0:0:
248,248,22262,2,0,P|280:214|323:211,1,85,8|0,0:0|0:0,0:0:0:0:
384,328,22486,2,0,P|338:316|314:280,1,85
384,168,22710,2,0,L|473:175,1,85,10|0,0:0|0:0,0:0:0:0:
496,320,22934,6,0,L|412:315,1,85
248,248,23157,2,0,P|233:203|240:160,1,85,8|0,0:0|0:0,0:0:0:0:
298,73,23381,1,2,0:0:0:0:
326,234,23493,2,0,P|322:274|296:317,2,85,0|10|0,0:0|0:0|0:0,0:0:0:0:
298,73,23829,6,0,P|256:66|215:73,1,85,6|0,0:0|0:0,0:0:0:0:
131,215,24053,2,0,P|146:254|173:286,1,85,8|0,0:0|0:0,0:0:0:0:
338,287,24277,2,0,P|364:255|379:216,2,85,0|0|10,0:0|0:0|0:0,0:0:0:0:
256,336,24613,1,0,0:0:0:0:
173,286,24725,6,0,P|173:254|192:202,1,85
321,204,24948,2,0,P|337:243|339:286,1,85,8|0,0:0|0:0,0:0:0:0:
160,368,25172,2,0,L|115:362,7,42.5,2|0|0|0|10|0|0|0,0:0|3:0|3:0|3:0|0:0|3:0|3:0|3:0,0:0:0:0:
88,360,25620,6,0,L|96:272,1,85,6|0,0:0|0:0,0:0:0:0:
321,204,25844,2,0,L|313:292,1,85,8|0,0:0|0:0,0:0:0:0:
199,288,26068,2,0,L|191:200,2,85,0|0|10,0:0|0:0|0:0,0:0:0:0:
256,376,26404,1,0,0:0:0:0:
352,336,26516,6,0,P|368:296|359:251,1,85
150,255,26740,2,0,P|144:297|160:336,1,85,8|0,0:0|0:0,0:0:0:0:
312,192,26963,2,0,L|306:147,7,42.5,2|0|0|0|10|0|0|0,0:0|3:0|3:0|3:0|0:0|3:0|3:0|3:0,0:0:0:0:
304,112,27411,6,0,L|407:104,1,85,6|0,0:0|0:0,0:0:0:0:
488,192,27635,2,0,L|385:200,1,85,8|0,0:0|0:0,0:0:0:0:
360,16,27859,2,0,L|445:9,2,85,0|0|10,0:0|0:0|0:0,0:0:0:0:
256,24,28195,1,0,0:0:0:0:
176,88,28307,6,0,P|167:133|176:192,1,85
205,313,28531,2,0,P|245:300|280:276,1,85,8|0,0:0|0:0,0:0:0:0:
386,175,28754,2,0,L|368:120,7,42.5,2|0|0|0|10|0|0|0,0:0|3:0|3:0|3:0|0:0|3:0|3:0|3:0,0:0:0:0:
360,104,29202,6,0,P|320:96|256:112,1,85,6|0,0:0|0:0,0:0:0:0:
152,280,29426,2,0,P|192:288|256:272,1,85,8|0,0:0|0:0,0:0:0:0:
184,136,29650,2,0,P|144:128|80:144,1,85
328,248,29874,2,0,P|368:256|432:240,1,85,10|0,0:0|0:0,0:0:0:0:
504,184,30098,5,8,0:0:0:0:
502,174,30210,1,8,0:0:0:0:
499,163,30322,1,8,0:0:0:0:
496,152,30434,1,8,0:0:0:0:
456,40,30545,5,10,0:0:0:0:
454,50,30657,1,8,0:0:0:0:
451,61,30769,1,10,0:0:0:0:
448,72,30881,1,8,0:0:0:0:
400,152,30993,6,0,L|224:152,1,170,4|8,0:0|0:0,0:0:0:0:
144,152,31329,1,0,0:0:0:0:
184,72,31441,2,0,L|304:72,1,85
328,304,31665,2,0,L|208:304,1,85,8|8,0:0|0:0,0:0:0:0:
143,235,31889,6,0,P|135:193|144:152,1,85,0|0,0:0|0:0,0:0:0:0:
328,220,32113,2,0,P|336:262|328:304,1,85,8|0,0:0|0:0,0:0:0:0:
183,163,32337,2,0,P|175:121|184:80,1,85,0|0,0:0|0:0,0:0:0:0:
368,148,32560,2,0,P|376:190|368:232,1,85,8|8,0:0|0:0,0:0:0:0:
243,304,32784,6,0,L|67:304,1,170,0|8,0:0|0:0,0:0:0:0:
0,232,33120,1,0,0:0:0:0:
88,232,33232,2,0,L|184:232,1,85,0|0,0:0|0:0,0:0:0:0:
144,376,33456,2,0,L|59:376,1,85,8|8,0:0|0:0,0:0:0:0:
0,232,33680,6,0,L|16:136,1,85,0|0,0:0|0:0,0:0:0:0:
184,152,33904,2,0,L|168:248,1,85,8|0,0:0|0:0,0:0:0:0:
80,112,34128,2,0,L|96:16,1,85,0|0,0:0|0:0,0:0:0:0:
264,32,34351,2,0,L|248:128,1,85,8|8,0:0|0:0,0:0:0:0:
256,304,34575,6,0,P|310:353|418:342,1,170,4|8,0:0|0:0,0:0:0:0:
464,296,34911,1,0,0:0:0:0:
400,240,35023,2,0,L|296:240,1,85,0|0,0:0|0:0,0:0:0:0:
344,160,35247,2,0,L|429:160,1,85,8|8,0:0|0:0,0:0:0:0:
464,296,35471,6,0,L|379:296,1,85,0|0,0:0|0:0,0:0:0:0:
259,160,35695,2,0,L|344:160,1,85,8|0,0:0|0:0,0:0:0:0:
379,296,35919,2,0,L|294:296,1,85,0|0,0:0|0:0,0:0:0:0:
208,296,36143,1,8,0:0:0:0:
152,232,36254,6,0,P|128:136|160:72,1,170,8|0,0:0|0:0,0:0:0:0:
263,75,36590,2,0,L|259:160,1,85,8|0,0:0|0:0,0:0:0:0:
152,232,36814,2,0,L|156:147,1,85,0|0,0:0|0:0,0:0:0:0:
360,152,37038,2,0,L|355:236,1,85,8|8,0:0|0:0,0:0:0:0:
352,344,37262,5,8,0:0:0:0:
360,352,37374,1,8,0:0:0:0:
368,360,37486,1,8,0:0:0:0:
376,368,37598,1,8,0:0:0:0:
440,320,37710,5,8,0:0:0:0:
432,312,37822,1,8,0:0:0:0:
424,304,37934,1,8,0:0:0:0:
416,296,38045,1,8,0:0:0:0:
355,236,38157,6,0,P|296:216|208:296,1,170,4|8,0:0|0:0,0:0:0:0:
256,368,38493,1,0,0:0:0:0:
353,319,38605,2,0,P|360:278|355:236,1,85,0|0,0:0|0:0,0:0:0:0:
215,189,38829,2,0,P|208:230|213:272,1,85,8|8,0:0|0:0,0:0:0:0:
344,144,39053,6,0,L|336:48,1,85,0|0,0:0|0:0,0:0:0:0:
376,160,39277,2,0,L|368:64,1,85,8|0,0:0|0:0,0:0:0:0:
408,176,39501,2,0,L|400:80,1,85,0|0,0:0|0:0,0:0:0:0:
440,192,39725,2,0,L|432:96,1,85,8|8,0:0|0:0,0:0:0:0:
336,59,39948,6,0,P|272:40|160:80,1,170,0|8,0:0|0:0,0:0:0:0:
136,144,40284,1,0,0:0:0:0:
208,192,40396,2,0,P|248:200|312:184,1,85,0|0,0:0|0:0,0:0:0:0:
175,67,40620,2,0,P|135:59|71:75,1,85,8|8,0:0|0:0,0:0:0:0:
40,192,40844,6,0,L|32:288,1,85
72,176,41068,2,0,L|64:272,1,85,8|0,0:0|0:0,0:0:0:0:
104,160,41292,2,0,L|96:256,1,85,0|0,0:0|0:0,0:0:0:0:
136,144,41516,2,0,L|128:228,1,85,8|8,0:0|0:0,0:0:0:0:
192,368,41740,6,0,L|199:283,1,85,4|0,0:0|0:0,0:0:0:0:
224,352,41963,2,0,L|231:267,1,85,8|0,0:0|0:0,0:0:0:0:
256,336,42187,2,0,L|263:251,1,85,0|0,0:0|0:0,0:0:0:0:
288,320,42411,2,0,L|295:235,1,85,8|8,0:0|0:0,0:0:0:0:
472,192,42635,6,0,L|480:288,1,85,0|0,0:0|0:0,0:0:0:0:
440,176,42859,2,0,L|448:272,1,85,8|0,0:0|0:0,0:0:0:0:
408,160,43083,2,0,L|416:256,1,85,0|0,0:0|0:0,0:0:0:0:
376,144,43307,2,0,L|383:228,1,85,8|8,0:0|0:0,0:0:0:0:
392,320,43531,5,0,0:0:0:0:
320,368,43643,2,0,P|232:320|216:240,1,170,0|0,0:0|0:0,0:0:0:0:
256,168,43978,1,0,0:0:0:0:
297,257,44090,2,0,P|267:335|192:368,1,170,0|0,0:0|0:0,0:0:0:0:
104,360,44426,5,8,0:0:0:0:
96,352,44538,1,8,0:0:0:0:
88,344,44650,1,8,0:0:0:0:
80,336,44762,1,8,0:0:0:0:
24,272,44874,5,8,0:0:0:0:
32,264,44986,1,8,0:0:0:0:
40,256,45098,1,8,0:0:0:0:
48,248,45210,1,8,0:0:0:0:
128,176,45322,6,0,P|147:146|196:118,1,85,6|0,0:0|0:0,0:0:0:0:
335,293,45545,2,0,P|293:300|252:290,1,85,10|0,0:0|0:0,0:0:0:0:
271,63,45769,2,0,P|306:88|327:124,1,85,2|0,0:0|0:0,0:0:0:0:
154,271,45993,2,0,P|147:236|161:182,1,85,10|0,0:0|0:0,0:0:0:0:
384,208,46217,6,0,P|364:237|315:265,1,85,2|0,0:0|0:0,0:0:0:0:
176,90,46441,2,0,P|218:83|259:93,1,85,10|0,0:0|0:0,0:0:0:0:
240,320,46665,2,0,P|205:295|184:259,1,85,2|0,0:0|0:0,0:0:0:0:
357,112,46889,2,0,P|364:147|350:201,1,85,10|0,0:0|0:0,0:0:0:0:
128,176,47113,5,0,0:0:0:0:
125,144,47225,1,0,0:0:0:0:
130,112,47337,1,8,0:0:0:0:
141,83,47448,1,0,0:0:0:0:
160,57,47560,1,0,0:0:0:0:
184,36,47672,1,0,0:0:0:0:
212,21,47784,1,8,0:0:0:0:
242,13,47896,1,0,0:0:0:0:
275,12,48008,5,8,0:0:0:0:
241,37,48119,1,0,0:0:0:0:
215,68,48231,1,0,0:0:0:0:
193,104,48343,1,8,0:0:0:0:
181,144,48455,1,0,0:0:0:0:
174,184,48567,1,0,0:0:0:0:
177,226,48679,1,8,0:0:0:0:
187,266,48791,1,0,0:0:0:0:
205,304,48904,6,0,P|249:300|292:267,1,97.7500018644333,6|0,0:0|0:0,0:0:0:0:
212,76,49128,2,0,P|183:110|176:164,1,97.7500018644333,10|0,0:0|0:0,0:0:0:0:
368,243,49351,2,0,P|364:198|331:155,1,97.7500018644333,2|0,0:0|0:0,0:0:0:0:
140,235,49575,2,0,P|174:264|228:271,1,97.7500018644333,10|0,0:0|0:0,0:0:0:0:
307,80,49799,6,0,P|262:83|219:116,1,97.7500018644333,2|0,0:0|0:0,0:0:0:0:
299,307,50023,2,0,P|328:273|335:219,1,97.7500018644333,10|0,0:0|0:0,0:0:0:0:
144,141,50247,2,0,P|147:185|180:228,1,97.7500018644333,2|0,0:0|0:0,0:0:0:0:
371,148,50471,2,0,P|337:119|283:112,1,97.7500018644333,10|0,0:0|0:0,0:0:0:0:
205,304,50695,5,0,0:0:0:0:
225,334,50806,1,0,0:0:0:0:
254,358,50918,1,8,0:0:0:0:
287,374,51030,1,0,0:0:0:0:
324,379,51142,1,0,0:0:0:0:
361,375,51254,1,0,0:0:0:0:
395,360,51366,1,8,0:0:0:0:
424,337,51478,1,0,0:0:0:0:
445,307,51590,5,8,0:0:0:0:
392,305,51701,1,0,0:0:0:0:
343,285,51813,1,0,0:0:0:0:
303,250,51925,1,8,0:0:0:0:
278,203,52037,1,0,0:0:0:0:
271,151,52149,1,0,0:0:0:0:
282,99,52261,1,8,0:0:0:0:
310,54,52373,1,0,0:0:0:0:
352,22,52486,6,0,P|436:32|500:90,1,170,4|8,0:0|0:0,0:0:0:0:
460,182,52822,2,0,B|411:198|411:198|294:176,1,170
208,168,53157,1,8,0:0:0:0:
248,248,53269,1,0,0:0:0:0:
294,176,53381,6,0,P|304:136|286:72,1,85,2|2,0:0|0:0,0:0:0:0:
160,248,53605,2,0,P|150:290|159:331,1,85,10|2,0:0|0:0,0:0:0:0:
353,330,53829,2,0,P|361:288|352:248,2,85,2|2|10,0:0|0:0|0:0,0:0:0:0:
256,376,54165,1,2,0:0:0:0:
167,340,54277,6,0,P|158:298|168:257,1,85
343,257,54501,2,0,P|353:298|345:340,1,85,8|0,0:0|0:0,0:0:0:0:
168,257,54725,2,0,P|159:215|169:174,2,85,0|0|8,0:0|0:0|0:0,0:0:0:0:
256,304,55060,1,0,0:0:0:0:
344,257,55172,6,0,P|376:176|344:96,1,170,0|8,0:0|0:0,0:0:0:0:
256,48,55508,1,0,0:0:0:0:
163,101,55620,2,0,P|136:180|168:257,1,170,0|8,0:0|0:0,0:0:0:0:
256,304,55956,1,0,0:0:0:0:
160,352,56068,1,4,0:0:0:0:
160,352,56292,5,8,0:0:0:0:
256,304,56404,1,0,0:0:0:0:
352,352,56516,2,0,L|448:352,1,85
512,264,56740,2,0,L|427:264,1,85,8|0,0:0|0:0,0:0:0:0:
352,152,56963,6,0,P|431:144|504:192,2,170,0|8|0,0:0|0:0|0:0,0:0:0:0:
176,320,57635,1,8,0:0:0:0:
256,368,57747,1,0,0:0:0:0:
336,320,57859,6,0,L|336:232,1,85
176,235,58083,2,0,L|176:320,1,85,8|0,0:0|0:0,0:0:0:0:
336,235,58307,2,0,P|360:155|296:75,1,170,0|8,0:0|0:0,0:0:0:0:
256,168,58643,1,0,0:0:0:0:
336,235,58754,6,0,P|416:235|480:168,1,170,0|8,0:0|0:0,0:0:0:0:
424,104,59090,1,0,0:0:0:0:
336,235,59202,2,0,P|336:280|352:323,1,85
472,384,59426,2,0,P|472:341|459:301,1,85,8|0,0:0|0:0,0:0:0:0:
336,235,59650,6,0,P|296:227|240:235,1,85,4|2,0:0|0:0,0:0:0:0:
170,350,59874,2,0,P|211:358|253:352,1,85,8|0,0:0|0:0,0:0:0:0:
397,271,60098,5,2,0:0:0:0:
434,194,60210,1,0,0:0:0:0:
409,112,60322,1,8,0:0:0:0:
341,60,60434,1,2,0:0:0:0:
256,58,60545,6,0,L|153:73,1,85
75,187,60769,2,0,L|160:200,1,85,8|0,0:0|0:0,0:0:0:0:
328,248,60993,2,0,P|304:328|216:352,1,170,0|10,0:0|0:0,0:0:0:0:
112,304,61329,1,2,0:0:0:0:
75,187,61441,6,0,P|75:107|128:32,1,170,10|0,0:0|0:0,0:0:0:0:
261,11,61777,2,0,P|341:11|416:64,1,170,10|0,0:0|0:0,0:0:0:0:
437,197,62113,2,0,P|437:277|384:352,1,170,10|0,0:0|0:0,0:0:0:0:
251,373,62449,2,0,P|171:373|96:320,1,170,10|0,0:0|0:0,0:0:0:0:
8,192,62784,5,8,0:0:0:0:
88,224,62896,1,8,0:0:0:0:
176,216,63008,1,8,0:0:0:0:
240,160,63120,1,8,0:0:0:0:
256,80,63232,6,0,P|234:42|177:22,1,85,6|0,0:0|0:0,0:0:0:0:
144,120,63456,1,8,0:0:0:0:
240,160,63568,2,0,P|282:160|328:122,1,85
384,56,63792,1,0,0:0:0:0:
278,3,63904,2,0,P|255:38|256:80,1,85,10|0,0:0|0:0,0:0:0:0:
419,129,64128,6,0,P|411:87|384:56,1,85
240,160,64351,2,0,P|225:199|233:240,1,85,8|0,0:0|0:0,0:0:0:0:
304,304,64575,5,2,0:0:0:0:
400,320,64687,1,0,0:0:0:0:
480,264,64799,1,10,0:0:0:0:
256,40,65023,6,0,L|80:40,1,170,6|8,0:0|0:0,0:0:0:0:
16,96,65359,1,0,0:0:0:0:
110,120,65471,2,0,L|280:120,1,170,0|10,0:0|0:0,0:0:0:0:
360,160,65807,1,0,0:0:0:0:
256,200,65919,6,0,L|166:200,1,85,0|0,0:0|0:0,0:0:0:0:
256,40,66143,2,0,L|342:40,1,85,8|0,0:0|0:0,0:0:0:0:
472,120,66366,2,0,P|480:216|432:280,1,170,2|10,0:0|0:0,0:0:0:0:
56,216,66814,6,0,P|56:172|94:126,1,85,6|0,0:0|0:0,0:0:0:0:
176,88,67038,1,8,0:0:0:0:
213,184,67150,2,0,P|176:205|134:204,1,85
40,152,67374,1,0,0:0:0:0:
104,64,67486,2,0,P|142:85|162:142,1,85,10|0,0:0|0:0,0:0:0:0:
152,280,67710,6,0,P|108:280|62:242,1,85
160,120,67934,2,0,P|195:98|237:99,1,85,8|0,0:0|0:0,0:0:0:0:
340,108,68157,5,2,0:0:0:0:
376,192,68269,1,0,0:0:0:0:
340,276,68381,1,10,0:0:0:0:
256,320,68493,1,0,0:0:0:0:
172,276,68605,6,0,P|154:235|156:189,1,85,6|0,0:0|0:0,0:0:0:0:
225,77,68829,2,0,P|269:82|308:106,1,85,8|0,0:0|0:0,0:0:0:0:
370,222,69053,2,0,P|344:258|303:280,1,85
158,267,69277,2,0,P|143:224|149:178,1,85,10|0,0:0|0:0,0:0:0:0:
256,192,69501,6,0,L|250:282,1,85
467,333,69725,2,0,L|474:249,1,85,8|0,0:0|0:0,0:0:0:0:
344,168,69948,1,2,0:0:0:0:
336,272,70060,2,0,L|329:356,2,85,0|10|0,0:0|0:0|0:0,0:0:0:0:
392,80,70396,6,0,P|434:77|475:90,1,85,6|0,0:0|0:0,0:0:0:0:
336,272,70620,2,0,P|293:274|253:262,1,85,8|0,0:0|0:0,0:0:0:0:
180,45,70844,2,0,P|222:42|262:54,2,85,0|0|10,0:0|0:0|0:0,0:0:0:0:
68,93,71180,1,0,0:0:0:0:
185,205,71292,6,0,P|205:162|201:109,1,85
13,196,71516,2,0,P|8:245|30:291,1,85,8|0,0:0|0:0,0:0:0:0:
113,366,71740,2,0,L|158:360,7,42.5,2|0|0|0|10|0|0|0,0:0|3:0|3:0|3:0|0:0|3:0|3:0|3:0,0:0:0:0:
177,358,72187,6,0,L|265:350,1,85,6|0,0:0|0:0,0:0:0:0:
262,158,72411,2,0,L|178:166,1,85,8|0,0:0|0:0,0:0:0:0:
408,240,72635,2,0,B|416:200|416:200|400:152,2,85,0|0|10,0:0|0:0|0:0,0:0:0:0:
368,344,72971,1,0,0:0:0:0:
261,350,73083,6,0,B|248:320|248:320|253:265,1,85
474,300,73307,2,0,B|488:320|488:320|481:384,1,85,8|0,0:0|0:0,0:0:0:0:
298,150,73531,2,0,L|343:144,7,42.5,2|0|0|0|10|0|0|0,0:0|3:0|3:0|3:0|0:0|3:0|3:0|3:0,0:0:0:0:
362,139,73978,6,0,L|450:147,1,85,6|0,0:0|0:0,0:0:0:0:
464,296,74202,2,0,L|361:288,1,85,8|0,0:0|0:0,0:0:0:0:
368,56,74426,2,0,L|453:63,2,85,0|0|10,0:0|0:0|0:0,0:0:0:0:
216,32,74762,1,0,0:0:0:0:
362,139,74874,6,0,P|370:98|368:56,1,85
147,167,75098,2,0,P|138:212|147:271,1,85,8|0,0:0|0:0,0:0:0:0:
280,344,75322,2,0,L|336:344,7,42.5,2|0|0|0|10|0|0|0,0:0|3:0|3:0|3:0|0:0|3:0|3:0|3:0,0:0:0:0:
352,344,75769,6,0,P|360:304|344:240,1,85,6|0,0:0|0:0,0:0:0:0:
159,260,75993,2,0,P|151:300|167:364,1,85,8|0,0:0|0:0,0:0:0:0:
353,123,76217,2,0,P|360:81|352:40,1,85
157,40,76441,2,0,P|150:82|159:124,1,85,10|0,0:0|0:0,0:0:0:0:
256,299,76665,5,8,0:0:0:0:
331,267,76777,1,8,0:0:0:0:
363,192,76889,1,8,0:0:0:0:
331,116,77001,1,8,0:0:0:0:
256,84,77113,1,10,0:0:0:0:
180,116,77225,1,8,0:0:0:0:
148,192,77337,1,10,0:0:0:0:
180,267,77448,1,8,0:0:0:0:
256,299,77560,5,4,0:0:0:0:
