osu file format v14

[General]
AudioFilename: audio.mp3
AudioLeadIn: 0
PreviewTime: 16665
Countdown: 0
SampleSet: Normal
StackLeniency: 0.3
Mode: 0
LetterboxInBreaks: 0
EpilepsyWarning: 1
WidescreenStoryboard: 1

[Editor]
Bookmarks: 45322,52487
DistanceSpacing: 1
BeatDivisor: 4
GridSize: 8
TimelineZoom: 2.9

[Metadata]
Title:Mochio-
TitleUnicode:モチオー
Artist:[Kyoro]
ArtistUnicode:【Kyoro】
Creator:Snow Note
Version:Extreme
Source:スーパーマリオRPG
Tags:7odoa 音MAD oto-mad otomad ニコニコ動画 niconico douga YTPMV Youtube スロウスタート Slow Start 百地たまて Tamate Momochi たまちゃん tamachan 伊藤 彩沙 Itou Ayasa きららファンタジア Kirara Fantasia 芳文社 Houbunsha まんがタイムきらら manga time 対カジオー戦 Fight Against Smithy Kajioh Super Mario Legend of the Seven Stars 下村陽子 Yoko Shimomura 任天堂 nintendo novelty japanese
BeatmapID:3076104
BeatmapSetID:1473006

[Difficulty]
HPDrainRate:4.2
CircleSize:4
OverallDifficulty:9.4
ApproachRate:9.7
SliderMultiplier:2.3
SliderTickRate:2

[Events]
//Background and Video events
0,0,"tamachan.jpg",0,0
Video,0,"video.mp4"
//Break Periods
//Storyboard Layer 0 (Background)
//Storyboard Layer 1 (Fail)
//Storyboard Layer 2 (Pass)
//Storyboard Layer 3 (Foreground)
//Storyboard Layer 4 (Overlay)
//Storyboard Sound Samples

[TimingPoints]
546,223.880597014925,4,1,1,65,1,0
5303,-100,4,1,1,5,0,0
5807,-100,4,1,2,65,0,0
16665,-100,4,1,1,65,0,1
30993,-100,4,1,2,65,0,0
45322,-100,4,1,1,65,0,1
52486,-100,4,1,2,65,0,0
63232,-100,4,1,1,65,0,1
77560,-100,4,1,2,65,0,0

[Colours]
Combo1 : 148,255,176
Combo2 : 150,252,255
Combo3 : 0,128,192
Combo4 : 200,0,200

[HitObjects]
256,192,3904,12,0,5359,0:0:0:0:
160,136,5919,6,0,P|152:87|172:24,1,115,4|0,0:0|0:0,0:0:0:0:
341,25,6143,2,0,P|359:78|351:135,1,115,8|0,0:0|0:0,0:0:0:0:
144,256,6366,1,0,0:0:0:0:
256,80,6478,1,0,0:0:0:0:
256,80,6534,1,0,0:0:0:0:
256,80,6590,1,8,0:0:0:0:
368,256,6702,1,0,0:0:0:0:
160,136,6814,5,2,0:0:0:0:
160,136,6870,1,0,0:0:0:0:
160,136,6926,1,2,0:0:0:0:
256,304,7038,1,10,0:0:0:0:
350,135,7150,1,2,0:0:0:0:
144,256,7262,2,0,P|118:306|126:361,1,115,2|2,0:0|0:0,0:0:0:0:
351,248,7486,1,10,0:0:0:0:
160,136,7598,1,2,0:0:0:0:
160,136,7654,1,0,0:0:0:0:
161,136,7710,6,0,P|104:137|59:171,1,115,0|0,0:0|0:0,0:0:0:0:
351,248,7934,2,0,P|408:247|453:213,1,115,8|0,0:0|0:0,0:0:0:0:
288,16,8157,5,0,0:0:0:0:
168,232,8269,1,0,0:0:0:0:
344,176,8381,1,8,0:0:0:0:
176,32,8493,1,0,0:0:0:0:
32,176,8605,6,0,P|16:264|96:384,1,230,0|8,0:0|0:0,0:0:0:0:
256,192,8941,1,0,0:0:0:0:
480,176,9053,2,0,P|496:264|416:384,1,230,0|8,0:0|0:0,0:0:0:0:
136,248,9389,5,0,0:0:0:0:
376,248,9501,1,4,0:0:0:0:
376,248,9725,5,8,0:0:0:0:
136,248,9837,1,0,0:0:0:0:
200,40,9948,2,0,P|248:24|312:40,1,115,0|0,0:0|0:0,0:0:0:0:
312,352,10172,2,0,P|264:368|200:352,1,115,8|0,0:0|0:0,0:0:0:0:
0,256,10396,5,0,0:0:0:0:
184,192,10508,1,0,0:0:0:0:
184,192,10564,1,0,0:0:0:0:
184,192,10620,1,8,0:0:0:0:
128,376,10732,1,0,0:0:0:0:
77,184,10844,2,0,P|85:88|197:8,1,230,0|8,0:0|0:0,0:0:0:0:
424,64,11180,1,0,0:0:0:0:
224,136,11292,5,0,0:0:0:0:
224,136,11348,1,0,3:0:0:0:
224,136,11404,2,0,L|152:128,2,57.5,0|0|8,0:0|3:0|0:0,0:0:0:0:
416,192,11628,1,0,0:0:0:0:
416,192,11684,1,0,3:0:0:0:
416,192,11740,2,0,L|488:200,2,57.5,0|0|0,0:0|3:0|0:0,0:0:0:0:
168,240,11963,1,8,0:0:0:0:
168,240,12019,1,0,3:0:0:0:
168,240,12075,2,0,L|96:232,2,57.5,0|0|0,0:0|3:0|0:0,0:0:0:0:
384,280,12299,5,0,0:0:0:0:
381,294,12355,1,0,3:0:0:0:
379,307,12411,1,8,0:0:0:0:
152,368,12523,1,0,0:0:0:0:
155,354,12579,1,0,3:0:0:0:
157,341,12635,1,0,0:0:0:0:
272,88,12747,5,0,0:0:0:0:
240,296,12859,1,8,0:0:0:0:
80,192,12971,1,0,0:0:0:0:
80,192,13027,1,0,0:0:0:0:
80,192,13083,6,0,P|75:133|96:72,1,115,4|2,0:0|0:0,0:0:0:0:
420,80,13307,2,0,P|437:135|432:192,1,115,8|0,0:0|0:0,0:0:0:0:
312,368,13531,1,2,0:0:0:0:
168,264,13643,1,0,0:0:0:0:
344,264,13754,1,8,0:0:0:0:
200,368,13866,1,2,0:0:0:0:
256,192,13978,5,0,0:0:0:0:
80,192,14090,1,0,0:0:0:0:
80,192,14146,1,0,0:0:0:0:
80,192,14202,2,0,P|63:241|71:313,1,115,8|0,0:0|0:0,0:0:0:0:
308,285,14426,5,0,0:0:0:0:
256,120,14538,1,2,0:0:0:0:
204,285,14650,1,10,0:0:0:0:
349,192,14762,1,2,0:0:0:0:
162,192,14874,5,10,0:0:0:0:
162,192,14930,1,0,3:0:0:0:
162,192,14986,2,0,L|172:108,2,57.5,0|0|0,0:0|3:0|0:0,0:0:0:0:
256,320,15210,1,10,0:0:0:0:
256,320,15266,1,0,3:0:0:0:
256,320,15322,2,0,L|256:400,2,57.5,0|0|0,0:0|3:0|0:0,0:0:0:0:
350,192,15545,1,10,0:0:0:0:
350,192,15601,1,0,3:0:0:0:
350,192,15657,2,0,L|340:108,2,57.5,0|0|0,0:0|3:0|0:0,0:0:0:0:
368,304,15881,5,10,0:0:0:0:
368,304,15937,1,0,3:0:0:0:
368,304,15993,1,0,0:0:0:0:
144,304,16105,1,0,0:0:0:0:
144,304,16161,1,0,3:0:0:0:
144,304,16217,1,8,0:0:0:0:
360,192,16329,5,8,0:0:0:0:
152,192,16441,1,8,0:0:0:0:
256,368,16553,1,8,0:0:0:0:
456,368,16665,6,0,P|484:321|476:255,1,115,6|0,0:0|0:0,0:0:0:0:
416,64,16889,1,8,0:0:0:0:
160,192,17001,2,0,L|288:184,1,115
488,168,17225,1,0,0:0:0:0:
256,8,17337,5,10,0:0:0:0:
208,272,17448,1,0,0:0:0:0:
208,272,17504,1,0,0:0:0:0:
208,272,17560,1,0,0:0:0:0:
304,112,17672,1,0,0:0:0:0:
304,112,17728,1,0,0:0:0:0:
304,112,17784,2,0,L|176:120,1,115,8|0,0:0|0:0,0:0:0:0:
256,368,18008,5,2,0:0:0:0:
400,192,18120,1,0,0:0:0:0:
96,248,18232,1,10,0:0:0:0:
96,248,18344,1,0,0:0:0:0:
96,248,18456,6,0,P|83:325|120:391,1,115,6|0,0:0|0:0,0:0:0:0:
488,240,18680,2,0,P|500:162|463:96,1,115,8|0,0:0|0:0,0:0:0:0:
256,0,18904,5,0,0:0:0:0:
376,240,19016,1,0,0:0:0:0:
376,48,19128,1,10,0:0:0:0:
256,192,19240,1,0,0:0:0:0:
376,336,19351,6,0,B|416:352|416:352|504:336,1,115,0|0,0:0|0:0,0:0:0:0:
136,48,19575,2,0,B|96:32|96:32|8:48,1,115,8|0,0:0|0:0,0:0:0:0:
0,330,19799,2,0,P|33:367|96:378,1,115,2|0,0:0|0:0,0:0:0:0:
320,328,20023,1,10,0:0:0:0:
148,260,20135,1,0,0:0:0:0:
148,260,20191,1,0,0:0:0:0:
148,260,20247,6,0,P|124:228|124:142,1,115,6|0,0:0|0:0,0:0:0:0:
256,16,20471,1,8,0:0:0:0:
315,197,20583,2,0,L|195:189,1,115
0,168,20807,1,0,0:0:0:0:
320,96,20919,5,10,0:0:0:0:
192,288,21031,1,0,0:0:0:0:
192,288,21087,1,0,0:0:0:0:
192,288,21143,1,0,0:0:0:0:
96,32,21254,1,0,0:0:0:0:
96,32,21310,1,0,0:0:0:0:
96,32,21366,2,0,P|142:20|208:40,1,115,8|0,0:0|0:0,0:0:0:0:
368,136,21590,5,2,0:0:0:0:
256,312,21702,1,0,0:0:0:0:
144,136,21814,1,10,0:0:0:0:
432,80,21926,1,0,0:0:0:0:
432,80,21982,1,0,0:0:0:0:
432,80,22038,6,0,P|456:128|448:192,1,115,6|0,0:0|0:0,0:0:0:0:
160,296,22262,2,0,P|149:247|174:182,1,115,8|0,0:0|0:0,0:0:0:0:
352,296,22486,1,0,0:0:0:0:
120,384,22598,1,0,0:0:0:0:
120,384,22654,1,0,0:0:0:0:
120,384,22710,1,10,0:0:0:0:
256,192,22822,1,0,0:0:0:0:
19,192,22934,6,0,P|10:247|34:299,1,115,0|0,0:0|0:0,0:0:0:0:
477,299,23157,2,0,P|501:247|493:192,1,115,8|0,0:0|0:0,0:0:0:0:
119,10,23381,2,0,P|98:63|104:120,1,115,2|0,0:0|0:0,0:0:0:0:
256,360,23605,1,10,0:0:0:0:
409,119,23717,1,0,0:0:0:0:
409,119,23773,1,0,0:0:0:0:
408,119,23829,6,0,P|413:62|393:10,1,115,6|0,0:0|0:0,0:0:0:0:
103,264,24053,2,0,P|98:321|119:374,1,115,8|0,0:0|0:0,0:0:0:0:
394,373,24277,5,0,0:0:0:0:
408,192,24389,1,0,0:0:0:0:
304,304,24501,1,10,0:0:0:0:
496,320,24613,1,0,0:0:0:0:
448,40,24725,6,0,P|399:33|329:56,1,115,0|0,0:0|0:0,0:0:0:0:
64,344,24948,2,0,P|113:351|183:328,1,115,8|0,0:0|0:0,0:0:0:0:
256,24,25172,5,2,0:0:0:0:
227,20,25227,1,0,3:0:0:0:
198,16,25283,1,0,3:0:0:0:
170,13,25339,1,0,3:0:0:0:
141,9,25396,2,0,L|63:26,3,57.5,10|0|0|0,0:0|3:0|3:0|3:0,0:0:0:0:
64,32,25620,6,0,P|48:88|64:152,1,115,6|0,0:0|0:0,0:0:0:0:
448,352,25844,2,0,P|464:296|448:232,1,115,8|0,0:0|0:0,0:0:0:0:
240,72,26068,5,0,0:0:0:0:
272,312,26180,1,0,0:0:0:0:
352,120,26292,1,10,0:0:0:0:
160,264,26404,1,0,0:0:0:0:
392,320,26516,6,0,P|448:320|504:296,1,115,0|0,0:0|0:0,0:0:0:0:
120,64,26740,2,0,P|64:64|8:88,1,115,8|0,0:0|0:0,0:0:0:0:
0,352,26963,5,2,0:0:0:0:
29,356,27018,1,0,3:0:0:0:
58,360,27074,1,0,3:0:0:0:
86,363,27130,1,0,3:0:0:0:
115,367,27187,2,0,L|193:350,3,57.5,10|0|0|0,0:0|3:0|3:0|3:0,0:0:0:0:
200,344,27411,6,0,P|216:288|200:216,1,115,6|0,0:0|0:0,0:0:0:0:
32,24,27635,2,0,P|16:80|32:152,1,115,8|0,0:0|0:0,0:0:0:0:
128,288,27859,5,0,0:0:0:0:
384,96,27971,1,0,0:0:0:0:
192,72,28083,1,10,0:0:0:0:
320,312,28195,1,0,0:0:0:0:
488,136,28307,6,0,P|496:79|480:24,1,115,0|0,0:0|0:0,0:0:0:0:
32,248,28531,2,0,P|24:305|40:360,1,115,8|0,0:0|0:0,0:0:0:0:
360,16,28754,5,2,0:0:0:0:
331,12,28809,1,0,3:0:0:0:
302,8,28865,1,0,3:0:0:0:
274,5,28921,1,0,3:0:0:0:
245,1,28978,2,0,L|167:18,3,57.5,10|0|0|0,0:0|3:0|3:0|3:0,0:0:0:0:
168,24,29202,6,0,P|160:72|176:136,1,115,6|0,0:0|0:0,0:0:0:0:
488,344,29426,2,0,P|497:288|486:232,1,115,8|0,0:0|0:0,0:0:0:0:
26,231,29650,2,0,P|15:287|24:344,1,115
336,135,29874,2,0,P|351:80|344:24,1,115,10|0,0:0|0:0,0:0:0:0:
84,191,30098,5,8,0:0:0:0:
132,310,30210,1,8,0:0:0:0:
254,360,30322,1,8,0:0:0:0:
376,309,30434,1,8,0:0:0:0:
426,191,30545,1,10,0:0:0:0:
374,68,30657,1,8,0:0:0:0:
255,17,30769,1,10,0:0:0:0:
133,69,30881,1,8,0:0:0:0:
85,191,30993,6,0,P|124:297|227:336,1,230,4|8,0:0|0:0,0:0:0:0:
424,192,31329,1,0,0:0:0:0:
222,45,31441,2,0,P|162:34|110:57,1,115,0|0,0:0|0:0,0:0:0:0:
256,192,31665,1,8,0:0:0:0:
368,72,31777,1,8,0:0:0:0:
167,128,31889,6,0,P|128:168|119:224,1,115,0|0,0:0|0:0,0:0:0:0:
119,224,32057,1,0,0:0:0:0:
119,224,32113,1,8,0:0:0:0:
256,384,32225,1,0,0:0:0:0:
392,224,32337,2,0,P|383:168|344:128,1,115,0|0,0:0|0:0,0:0:0:0:
136,344,32560,1,8,0:0:0:0:
376,344,32672,1,8,0:0:0:0:
464,112,32784,6,0,P|440:64|280:40,1,230,0|8,0:0|0:0,0:0:0:0:
168,200,33120,1,0,0:0:0:0:
356,235,33232,2,0,P|367:179|344:128,1,115,0|0,0:0|0:0,0:0:0:0:
256,288,33456,1,8,0:0:0:0:
456,192,33568,1,8,0:0:0:0:
155,148,33680,6,0,P|144:204|168:256,1,115,0|0,0:0|0:0,0:0:0:0:
167,255,33848,1,0,0:0:0:0:
167,255,33904,1,8,0:0:0:0:
352,184,34016,1,0,0:0:0:0:
256,32,34128,2,0,L|136:40,1,115,0|0,0:0|0:0,0:0:0:0:
24,213,34351,1,8,0:0:0:0:
256,192,34463,1,8,0:0:0:0:
176,360,34575,6,0,P|105:384|1:289,1,230,4|8,0:0|0:0,0:0:0:0:
128,104,34911,1,0,0:0:0:0:
344,264,35023,2,0,L|329:384,1,115,0|0,0:0|0:0,0:0:0:0:
256,192,35247,1,8,0:0:0:0:
440,328,35359,1,8,0:0:0:0:
182,378,35471,6,0,L|168:264,1,115,0|0,0:0|0:0,0:0:0:0:
168,264,35639,1,0,0:0:0:0:
168,264,35695,1,8,0:0:0:0:
144,56,35807,1,0,0:0:0:0:
370,184,35919,2,0,L|256:192,1,115,0|0,0:0|0:0,0:0:0:0:
96,208,36143,1,8,0:0:0:0:
432,72,36254,6,0,P|494:192|464:272,1,230,8|0,0:0|0:0,0:0:0:0:
192,384,36590,2,0,P|176:338|193:275,1,115,8|0,0:0|0:0,0:0:0:0:
320,0,36814,2,0,P|336:46|319:109,1,115,0|0,0:0|0:0,0:0:0:0:
56,40,37038,2,0,L|176:48,1,115,8|8,0:0|0:0,0:0:0:0:
296,320,37262,5,8,0:0:0:0:
198,378,37374,1,8,0:0:0:0:
83,354,37486,1,8,0:0:0:0:
7,260,37598,1,8,0:0:0:0:
21,135,37710,1,8,0:0:0:0:
119,51,37822,1,8,0:0:0:0:
252,72,37934,1,8,0:0:0:0:
335,182,38045,1,8,0:0:0:0:
296,320,38157,6,0,P|232:368|88:344,1,230,4|8,0:0|0:0,0:0:0:0:
256,120,38493,1,0,0:0:0:0:
416,256,38605,2,0,P|424:312|400:376,1,115,0|0,0:0|0:0,0:0:0:0:
160,192,38829,1,8,0:0:0:0:
352,192,38941,1,8,0:0:0:0:
106,366,39053,6,0,P|88:311|96:255,1,115,0|0,0:0|0:0,0:0:0:0:
96,255,39221,1,0,0:0:0:0:
96,255,39277,1,8,0:0:0:0:
226,33,39389,1,0,0:0:0:0:
18,17,39501,2,0,P|4:71|17:127,1,115,0|0,0:0|0:0,0:0:0:0:
256,192,39725,1,8,0:0:0:0:
123,27,39837,1,8,0:0:0:0:
48,360,39948,6,0,P|104:384|216:272,1,230,0|8,0:0|0:0,0:0:0:0:
144,112,40284,1,0,0:0:0:0:
40,248,40396,2,0,P|32:305|48:360,1,115,0|0,0:0|0:0,0:0:0:0:
328,368,40620,1,8,0:0:0:0:
184,192,40732,1,8,0:0:0:0:
328,16,40844,6,0,P|384:-8|432:8,1,115,0|0,0:0|0:0,0:0:0:0:
430,6,41012,1,0,0:0:0:0:
430,6,41068,1,8,0:0:0:0:
352,192,41180,1,0,0:0:0:0:
184,112,41292,2,0,P|171:56|183:0,1,115,0|0,0:0|0:0,0:0:0:0:
328,104,41516,1,8,0:0:0:0:
184,280,41628,1,8,0:0:0:0:
368,360,41740,6,0,P|415:374|480:360,1,115,4|0,0:0|0:0,0:0:0:0:
384,32,41963,2,0,P|337:18|272:32,1,115,8|0,0:0|0:0,0:0:0:0:
184,280,42187,2,0,L|333:269,1,115,0|0,0:0|0:0,0:0:0:0:
440,256,42411,1,8,0:0:0:0:
256,384,42523,1,8,0:0:0:0:
104,192,42635,6,0,P|93:139|117:79,1,115,0|0,0:0|0:0,0:0:0:0:
114,83,42803,1,0,0:0:0:0:
114,83,42859,1,8,0:0:0:0:
320,104,42971,1,0,0:0:0:0:
192,280,43083,2,0,L|58:289,1,115,0|0,0:0|0:0,0:0:0:0:
200,112,43307,1,8,0:0:0:0:
312,272,43419,1,8,0:0:0:0:
24,352,43531,6,0,P|2:311|18:231,1,115,0|0,0:0|0:0,0:0:0:0:
336,48,43754,2,0,P|360:100|351:156,1,115,8|0,0:0|0:0,0:0:0:0:
160,155,43978,6,0,P|152:99|176:48,1,115,0|0,0:0|0:0,0:0:0:0:
502,244,44202,2,0,P|511:300|488:352,1,115,8|8,0:0|0:0,0:0:0:0:
127,321,44426,5,8,0:0:0:0:
75,192,44538,1,8,0:0:0:0:
127,62,44650,1,8,0:0:0:0:
256,11,44762,1,8,0:0:0:0:
384,62,44874,1,8,0:0:0:0:
428,192,44986,1,8,0:0:0:0:
384,321,45098,1,8,0:0:0:0:
256,372,45210,1,8,0:0:0:0:
125,324,45322,6,0,P|102:275|124:187,1,115,6|0,0:0|0:0,0:0:0:0:
336,272,45545,2,0,P|350:323|314:406,1,115,10|0,0:0|0:0,0:0:0:0:
176,112,45769,2,0,P|162:59|198:-25,1,115,2|0,0:0|0:0,0:0:0:0:
387,60,45993,2,0,P|410:109|388:197,1,115,10|0,0:0|0:0,0:0:0:0:
397,179,46161,1,0,0:0:0:0:
391,187,46217,6,0,P|447:207|513:198,1,115,2|0,0:0|0:0,0:0:0:0:
320,16,46441,2,0,P|261:0|197:14,1,115,10|0,0:0|0:0,0:0:0:0:
192,368,46665,2,0,P|249:382|313:368,1,115,2|0,0:0|0:0,0:0:0:0:
121,197,46889,2,0,P|65:177|-1:186,1,115,10|0,0:0|0:0,0:0:0:0:
14,194,47057,1,0,0:0:0:0:
17,204,47113,6,0,P|12:259|33:325,1,115
355,105,47337,2,0,P|369:50|350:-2,1,115,8|0,0:0|0:0,0:0:0:0:
161,0,47560,2,0,P|142:50|157:105,1,115
483,315,47784,2,0,P|499:260|495:204,1,115,8|0,0:0|0:0,0:0:0:0:
256,64,48008,5,8,0:0:0:0:
72,312,48120,2,0,P|112:344|176:344,1,115,0|0,0:0|0:0,0:0:0:0:
328,192,48344,1,8,0:0:0:0:
440,312,48456,2,0,P|400:344|336:344,1,115,0|0,0:0|0:0,0:0:0:0:
168,192,48680,1,8,0:0:0:0:
338,40,48792,1,0,0:0:0:0:
338,40,48848,1,0,0:0:0:0:
338,40,48904,6,0,P|383:22|448:32,1,115,6|0,0:0|0:0,0:0:0:0:
488,304,49128,2,0,P|443:322|378:312,1,115,10|0,0:0|0:0,0:0:0:0:
174,40,49351,2,0,P|129:22|64:32,1,115,2|0,0:0|0:0,0:0:0:0:
24,304,49575,2,0,P|69:322|134:312,1,115,10|0,0:0|0:0,0:0:0:0:
144,304,49743,1,0,0:0:0:0:
152,296,49799,6,0,L|144:160,1,115,2|0,0:0|0:0,0:0:0:0:
0,80,50023,2,0,L|6:194,1,115,10|0,0:0|0:0,0:0:0:0:
384,296,50247,2,0,L|392:160,1,115,2|0,0:0|0:0,0:0:0:0:
512,80,50471,2,0,L|505:194,1,115,10|0,0:0|0:0,0:0:0:0:
312,384,50695,5,0,0:0:0:0:
200,288,50807,1,0,0:0:0:0:
312,192,50919,1,8,0:0:0:0:
200,96,51031,1,0,0:0:0:0:
312,96,51143,5,0,0:0:0:0:
200,192,51254,1,0,0:0:0:0:
312,288,51366,1,8,0:0:0:0:
200,384,51478,1,0,0:0:0:0:
200,384,51534,1,0,0:0:0:0:
200,384,51590,6,0,P|144:384|88:352,1,115,8|0,0:0|0:0,0:0:0:0:
48,192,51814,1,0,0:0:0:0:
312,384,51926,2,0,P|368:384|424:352,1,115,8|0,0:0|0:0,0:0:0:0:
464,192,52150,1,0,0:0:0:0:
178,141,52262,2,0,P|161:187|176:256,1,115,8|0,0:0|0:0,0:0:0:0:
340,250,52486,6,0,P|351:195|55:43,1,460,4|0,0:0|0:0,0:0:0:0:
0,184,53045,1,0,0:0:0:0:
0,184,53101,1,0,0:0:0:0:
0,184,53157,2,0,L|120:168,1,115,8|0,0:0|0:0,0:0:0:0:
256,144,53381,5,2,0:0:0:0:
144,256,53493,1,2,0:0:0:0:
184,112,53605,1,10,0:0:0:0:
256,288,53717,1,2,0:0:0:0:
328,112,53829,2,0,P|336:72|304:-8,1,115,2|2,0:0|0:0,0:0:0:0:
144,40,54053,1,10,0:0:0:0:
256,192,54165,1,2,0:0:0:0:
256,192,54221,1,0,0:0:0:0:
256,192,54277,6,0,L|370:184,1,115,0|0,0:0|0:0,0:0:0:0:
512,288,54501,2,0,L|397:295,1,115,8|0,0:0|0:0,0:0:0:0:
184,320,54725,5,0,0:0:0:0:
256,192,54837,1,0,0:0:0:0:
272,367,54948,1,8,0:0:0:0:
176,240,55060,1,0,0:0:0:0:
320,80,55172,6,0,P|424:88|504:184,1,230,0|8,0:0|0:0,0:0:0:0:
360,320,55508,1,0,0:0:0:0:
176,240,55620,2,0,P|130:145|174:28,1,230,0|8,0:0|0:0,0:0:0:0:
328,192,55956,5,0,0:0:0:0:
168,352,56068,1,4,0:0:0:0:
168,352,56292,5,8,0:0:0:0:
344,352,56404,1,0,0:0:0:0:
424,192,56516,2,0,P|430:142|400:80,1,115,0|0,0:0|0:0,0:0:0:0:
88,192,56740,2,0,P|82:242|112:304,1,115,8|0,0:0|0:0,0:0:0:0:
256,368,56963,5,0,0:0:0:0:
256,136,57075,1,0,0:0:0:0:
256,136,57131,1,0,0:0:0:0:
256,136,57187,1,8,0:0:0:0:
384,288,57299,1,0,0:0:0:0:
168,384,57411,2,0,P|88:368|16:240,1,230,0|8,0:0|0:0,0:0:0:0:
56,48,57747,1,0,0:0:0:0:
144,240,57859,5,0,0:0:0:0:
144,240,57915,1,0,3:0:0:0:
144,240,57971,2,0,L|136:312,2,57.5,0|0|8,0:0|3:0|0:0,0:0:0:0:
256,64,58195,1,0,0:0:0:0:
256,64,58251,1,0,3:0:0:0:
256,64,58307,2,0,L|256:-8,2,57.5,0|0|0,0:0|3:0|0:0,0:0:0:0:
368,240,58531,1,8,0:0:0:0:
368,240,58587,1,0,3:0:0:0:
368,240,58643,2,0,L|376:312,2,57.5,0|0|0,0:0|3:0|0:0,0:0:0:0:
352,80,58866,5,0,0:0:0:0:
352,80,58922,1,0,3:0:0:0:
352,80,58978,1,8,0:0:0:0:
160,80,59090,1,0,0:0:0:0:
160,80,59146,1,0,3:0:0:0:
160,80,59202,1,0,0:0:0:0:
256,280,59314,5,0,0:0:0:0:
256,104,59426,1,8,0:0:0:0:
112,192,59538,1,0,0:0:0:0:
112,192,59594,1,0,0:0:0:0:
112,192,59650,6,0,P|96:248|120:312,1,115,4|2,0:0|0:0,0:0:0:0:
400,300,59874,2,0,P|416:246|400:192,1,115,8|0,0:0|0:0,0:0:0:0:
192,232,60098,1,2,0:0:0:0:
304,384,60210,1,0,0:0:0:0:
320,232,60322,1,8,0:0:0:0:
208,384,60434,1,2,0:0:0:0:
400,300,60545,5,0,0:0:0:0:
112,192,60657,1,0,0:0:0:0:
112,192,60713,1,0,0:0:0:0:
112,192,60769,2,0,P|96:248|120:312,1,115,8|0,0:0|0:0,0:0:0:0:
310,268,60993,5,0,0:0:0:0:
332,137,61105,1,2,0:0:0:0:
201,115,61217,1,10,0:0:0:0:
179,246,61329,1,2,0:0:0:0:
352,256,61441,5,10,0:0:0:0:
352,256,61497,1,0,3:0:0:0:
352,256,61553,2,0,L|410:244,2,57.5,0|0|0,0:0|3:0|0:0,0:0:0:0:
256,72,61777,1,10,0:0:0:0:
256,72,61833,1,0,3:0:0:0:
256,72,61889,2,0,L|256:8,2,57.5,0|0|0,0:0|3:0|0:0,0:0:0:0:
160,256,62113,1,10,0:0:0:0:
160,256,62169,1,0,3:0:0:0:
160,256,62225,2,0,L|102:244,2,57.5,0|0|0,0:0|3:0|0:0,0:0:0:0:
376,144,62448,5,10,0:0:0:0:
376,144,62504,1,0,3:0:0:0:
376,144,62560,1,0,0:0:0:0:
136,144,62672,1,0,0:0:0:0:
136,144,62728,1,0,3:0:0:0:
136,144,62784,1,8,0:0:0:0:
336,48,62896,5,8,0:0:0:0:
256,232,63008,1,8,0:0:0:0:
176,48,63120,1,8,0:0:0:0:
336,48,63232,6,0,P|364:96|364:160,1,115,6|0,0:0|0:0,0:0:0:0:
256,344,63456,1,8,0:0:0:0:
141,127,63568,2,0,L|256:120,1,115
464,104,63792,1,0,0:0:0:0:
376,272,63904,5,10,0:0:0:0:
224,32,64016,1,0,0:0:0:0:
224,32,64072,1,0,0:0:0:0:
224,32,64128,1,0,0:0:0:0:
55,275,64239,1,0,0:0:0:0:
55,275,64295,1,0,0:0:0:0:
55,275,64351,2,0,P|43:321|63:387,1,115,8|0,0:0|0:0,0:0:0:0:
312,368,64575,5,2,0:0:0:0:
256,136,64687,1,0,0:0:0:0:
192,352,64799,1,10,0:0:0:0:
192,352,64911,1,0,0:0:0:0:
192,352,65023,6,0,P|264:384|416:336,1,230,6|8,0:0|0:0,0:0:0:0:
496,192,65359,1,0,0:0:0:0:
296,104,65471,5,0,0:0:0:0:
376,240,65583,1,0,0:0:0:0:
416,88,65695,1,10,0:0:0:0:
256,256,65807,1,0,0:0:0:0:
200,24,65919,6,0,P|248:8|320:24,1,115,0|0,0:0|0:0,0:0:0:0:
312,360,66143,2,0,P|264:376|192:360,1,115,8|0,0:0|0:0,0:0:0:0:
0,200,66366,2,0,L|144:192,1,115,2|0,0:0|0:0,0:0:0:0:
352,176,66590,1,10,0:0:0:0:
232,264,66702,1,0,0:0:0:0:
232,264,66758,1,0,0:0:0:0:
232,264,66814,6,0,P|208:232|208:144,1,115,6|0,0:0|0:0,0:0:0:0:
256,8,67038,1,8,0:0:0:0:
448,104,67150,2,0,L|333:97,1,115
128,80,67374,1,0,0:0:0:0:
352,200,67486,5,10,0:0:0:0:
256,8,67598,1,0,0:0:0:0:
256,8,67654,1,0,0:0:0:0:
256,8,67710,1,0,0:0:0:0:
201,338,67822,1,0,0:0:0:0:
201,338,67878,1,0,0:0:0:0:
201,338,67934,2,0,P|253:352|310:338,1,115,8|0,0:0|0:0,0:0:0:0:
256,96,68157,5,2,0:0:0:0:
136,256,68269,1,0,0:0:0:0:
376,256,68381,1,10,0:0:0:0:
310,20,68493,1,0,0:0:0:0:
310,20,68549,1,0,0:0:0:0:
310,20,68605,6,0,P|257:6|200:20,1,115,6|0,0:0|0:0,0:0:0:0:
0,232,68829,2,0,P|25:279|80:312,1,115,8|0,0:0|0:0,0:0:0:0:
256,272,69053,1,0,0:0:0:0:
128,384,69165,1,0,0:0:0:0:
128,384,69221,1,0,0:0:0:0:
128,384,69277,1,10,0:0:0:0:
160,168,69389,1,0,0:0:0:0:
426,152,69501,6,0,P|444:190|425:271,1,115
88,232,69725,2,0,P|68:193|86:111,1,115,8|0,0:0|0:0,0:0:0:0:
328,248,69948,2,0,P|344:312|320:385,1,115,2|0,0:0|0:0,0:0:0:0:
178,359,70172,1,10,0:0:0:0:
256,112,70284,1,0,0:0:0:0:
256,112,70340,1,0,0:0:0:0:
256,112,70396,6,0,P|305:105|368:120,1,115,6|0,0:0|0:0,0:0:0:0:
256,272,70620,2,0,P|207:279|144:264,1,115,8|0,0:0|0:0,0:0:0:0:
0,56,70844,5,0,0:0:0:0:
176,88,70956,1,0,0:0:0:0:
88,192,71068,1,10,0:0:0:0:
128,16,71180,1,0,0:0:0:0:
344,0,71292,6,0,P|367:43|357:105,1,115
168,384,71516,2,0,P|144:340|154:278,1,115,8|0,0:0|0:0,0:0:0:0:
472,128,71740,5,2,0:0:0:0:
470,156,71795,1,0,3:0:0:0:
468,185,71851,1,0,3:0:0:0:
467,214,71907,1,0,3:0:0:0:
465,242,71963,2,0,L|462:309,3,57.5,10|0|0|0,0:0|3:0|3:0|3:0,0:0:0:0:
467,333,72187,6,0,L|348:319,1,115,6|0,0:0|0:0,0:0:0:0:
106,189,72411,2,0,P|96:140|122:77,1,115,8|0,0:0|0:0,0:0:0:0:
360,16,72635,5,0,0:0:0:0:
304,224,72747,1,0,0:0:0:0:
256,48,72859,1,10,0:0:0:0:
408,192,72971,1,0,0:0:0:0:
256,336,73083,6,0,P|192:344|128:320,1,115,0|0,0:0|0:0,0:0:0:0:
256,48,73307,2,0,P|320:40|384:64,1,115,8|0,0:0|0:0,0:0:0:0:
40,256,73531,5,2,0:0:0:0:
41,227,73586,1,0,3:0:0:0:
43,198,73642,1,0,3:0:0:0:
44,169,73698,1,0,3:0:0:0:
46,141,73754,2,0,L|50:75,3,57.5,10|0|0|0,0:0|3:0|3:0|3:0,0:0:0:0:
45,51,73978,6,0,L|160:32,1,115,6|0,0:0|0:0,0:0:0:0:
467,333,74202,2,0,L|352:352,1,115,8|0,0:0|0:0,0:0:0:0:
136,208,74426,5,0,0:0:0:0:
376,176,74538,1,0,0:0:0:0:
200,320,74650,1,10,0:0:0:0:
256,88,74762,1,0,0:0:0:0:
472,192,74874,6,0,P|480:240|464:304,1,115
40,192,75098,2,0,P|32:144|48:80,1,115,8|0,0:0|0:0,0:0:0:0:
256,16,75322,5,2,0:0:0:0:
285,17,75377,1,0,3:0:0:0:
314,19,75433,1,0,3:0:0:0:
343,20,75489,1,0,3:0:0:0:
371,22,75545,2,0,L|437:26,3,57.5,10|0|0|0,0:0|3:0|3:0|3:0,0:0:0:0:
448,16,75769,6,0,P|464:64|456:128,1,115,6|0,0:0|0:0,0:0:0:0:
368,376,75993,2,0,P|317:383|249:354,1,115,8|0,0:0|0:0,0:0:0:0:
144,8,76217,2,0,P|194:0|262:29,1,115
64,368,76441,2,0,P|48:320|56:256,1,115,10|0,0:0|0:0,0:0:0:0:
339,106,76665,5,8,0:0:0:0:
260,307,76777,1,8,0:0:0:0:
176,111,76889,1,8,0:0:0:0:
376,192,77001,1,8,0:0:0:0:
176,269,77113,1,10,0:0:0:0:
260,74,77225,1,8,0:0:0:0:
339,274,77337,1,10,0:0:0:0:
144,192,77449,1,8,0:0:0:0:
339,106,77560,5,4,0:0:0:0:
