osu file format v14

[General]
AudioFilename: audio.mp3
AudioLeadIn: 0
PreviewTime: 16665
Countdown: 0
SampleSet: Normal
StackLeniency: 0.2
Mode: 0
LetterboxInBreaks: 0
EpilepsyWarning: 1
WidescreenStoryboard: 1

[Editor]
Bookmarks: 45322,52487
DistanceSpacing: 1
BeatDivisor: 4
GridSize: 8
TimelineZoom: 2.100001

[Metadata]
Title:Mochio-
TitleUnicode:モチオー
Artist:[Kyoro]
ArtistUnicode:【Kyoro】
Creator:Snow Note
Version:Challenge
Source:スーパーマリオRPG
Tags:7odoa 音MAD oto-mad otomad ニコニコ動画 niconico douga YTPMV Youtube スロウスタート Slow Start 百地たまて Tamate Momochi たまちゃん tamachan 伊藤 彩沙 Itou Ayasa きららファンタジア Kirara Fantasia 芳文社 Houbunsha まんがタイムきらら manga time 対カジオー戦 Fight Against Smithy Kajioh Super Mario Legend of the Seven Stars 下村陽子 Yoko Shimomura 任天堂 nintendo novelty japanese
BeatmapID:3030766
BeatmapSetID:1473006

[Difficulty]
HPDrainRate:4.5
CircleSize:4
OverallDifficulty:9.7
ApproachRate:9.9
SliderMultiplier:2.5
SliderTickRate:2

[Events]
//Background and Video events
0,0,"tamachan.jpg",0,0
Video,0,"video.mp4"
//Break Periods
//Storyboard Layer 0 (Background)
//Storyboard Layer 1 (Fail)
//Storyboard Layer 2 (Pass)
//Storyboard Layer 3 (Foreground)
//Storyboard Layer 4 (Overlay)
//Storyboard Sound Samples

[TimingPoints]
546,223.880597014925,4,1,1,65,1,0
5303,-100,4,1,1,5,0,0
5807,-100,4,1,2,65,0,0
16665,-100,4,1,1,65,0,1
30993,-100,4,1,2,65,0,0
45322,-100,4,1,1,65,0,1
51590,-66.6666666666667,4,1,1,65,0,1
52486,-100,4,1,2,65,0,0
63232,-100,4,1,1,65,0,1
77560,-100,4,1,2,65,0,0

[Colours]
Combo1 : 148,255,176
Combo2 : 150,252,255
Combo3 : 0,128,192
Combo4 : 200,0,200

[HitObjects]
256,192,3905,12,0,5360,0:0:0:0:
336,240,5919,6,0,P|352:304|336:368,1,125,4|0,0:0|0:0,0:0:0:0:
176,144,6143,2,0,P|160:80|176:16,1,125,8|0,0:0|0:0,0:0:0:0:
360,80,6367,1,0,0:0:0:0:
176,240,6479,1,0,0:0:0:0:
176,240,6534,1,0,0:0:0:0:
176,240,6591,1,8,0:0:0:0:
256,40,6703,1,0,0:0:0:0:
408,192,6815,5,2,0:0:0:0:
408,192,6871,1,0,0:0:0:0:
408,192,6927,1,2,0:0:0:0:
256,136,7039,1,10,0:0:0:0:
480,72,7150,1,2,0:0:0:0:
384,280,7262,1,2,0:0:0:0:
360,80,7374,1,2,0:0:0:0:
504,272,7486,1,10,0:0:0:0:
152,304,7599,1,2,0:0:0:0:
152,304,7655,1,0,0:0:0:0:
152,304,7710,6,0,P|136:264|152:184,1,125,0|0,0:0|0:0,0:0:0:0:
360,80,7934,2,0,P|376:120|360:200,1,125,8|0,0:0|0:0,0:0:0:0:
64,144,8157,1,0,0:0:0:0:
256,104,8269,1,0,0:0:0:0:
312,280,8381,1,8,0:0:0:0:
151,185,8493,1,0,0:0:0:0:
360,80,8605,6,0,P|464:104|488:272,1,250,0|8,0:0|0:0,0:0:0:0:
360,344,8941,1,0,0:0:0:0:
152,80,9053,2,0,P|48:104|24:272,1,250,0|8,0:0|0:0,0:0:0:0:
152,344,9390,1,0,0:0:0:0:
256,112,9502,1,4,0:0:0:0:
256,112,9726,5,8,0:0:0:0:
256,272,9838,1,0,0:0:0:0:
144,192,9948,5,0,0:0:0:0:
368,192,10060,1,0,0:0:0:0:
184,48,10172,1,8,0:0:0:0:
160,280,10284,1,0,0:0:0:0:
352,280,10397,5,0,0:0:0:0:
328,48,10509,1,0,0:0:0:0:
328,48,10565,1,0,0:0:0:0:
328,48,10621,1,8,0:0:0:0:
136,144,10733,1,0,0:0:0:0:
352,280,10844,2,0,P|445:222|450:88,1,250,0|8,0:0|0:0,0:0:0:0:
184,48,11181,1,0,0:0:0:0:
256,192,11292,5,0,0:0:0:0:
269,191,11347,1,0,3:0:0:0:
281,189,11403,1,0,0:0:0:0:
294,188,11459,1,0,3:0:0:0:
306,186,11515,1,8,0:0:0:0:
186,138,11628,5,0,0:0:0:0:
173,139,11683,1,0,3:0:0:0:
161,141,11739,1,0,0:0:0:0:
148,142,11795,1,0,3:0:0:0:
136,144,11851,1,0,0:0:0:0:
48,232,11963,5,8,0:0:0:0:
61,231,12018,1,0,3:0:0:0:
73,229,12074,1,0,0:0:0:0:
86,228,12130,1,0,3:0:0:0:
98,226,12186,1,0,0:0:0:0:
256,192,12299,5,0,0:0:0:0:
256,192,12355,1,0,3:0:0:0:
256,192,12411,1,8,0:0:0:0:
320,376,12523,1,0,0:0:0:0:
320,376,12579,1,0,3:0:0:0:
320,376,12635,1,0,0:0:0:0:
152,272,12748,5,0,0:0:0:0:
352,272,12859,1,8,0:0:0:0:
192,376,12972,1,0,0:0:0:0:
192,376,13028,1,0,0:0:0:0:
192,376,13083,6,0,L|56:360,1,125,4|2,0:0|0:0,0:0:0:0:
320,8,13307,2,0,L|444:22,1,125,8|0,0:0|0:0,0:0:0:0:
256,192,13532,5,2,0:0:0:0:
192,8,13644,1,0,0:0:0:0:
320,96,13754,1,8,0:0:0:0:
136,192,13866,1,2,0:0:0:0:
320,8,13978,5,0,0:0:0:0:
376,192,14090,1,0,0:0:0:0:
376,192,14147,1,0,0:0:0:0:
376,192,14202,2,0,P|312:206|256:192,1,125,8|0,0:0|0:0,0:0:0:0:
176,104,14427,5,0,0:0:0:0:
344,112,14538,1,2,0:0:0:0:
336,280,14651,1,10,0:0:0:0:
168,272,14762,1,2,0:0:0:0:
176,104,14874,5,10,0:0:0:0:
189,103,14929,1,0,3:0:0:0:
201,101,14985,1,0,0:0:0:0:
214,100,15041,1,0,3:0:0:0:
226,98,15097,1,0,0:0:0:0:
372,166,15210,5,10,0:0:0:0:
366,178,15265,1,0,3:0:0:0:
362,189,15321,1,0,0:0:0:0:
356,201,15377,1,0,3:0:0:0:
352,213,15433,1,0,0:0:0:0:
219,305,15545,5,10,0:0:0:0:
212,294,15600,1,0,3:0:0:0:
204,285,15656,1,0,0:0:0:0:
197,274,15712,1,0,3:0:0:0:
189,264,15768,1,0,0:0:0:0:
176,104,15881,5,10,0:0:0:0:
189,103,15936,1,0,3:0:0:0:
201,101,15992,1,0,0:0:0:0:
336,280,16105,1,0,0:0:0:0:
323,281,16161,1,0,3:0:0:0:
311,283,16216,1,8,0:0:0:0:
44,211,16330,5,8,0:0:0:0:
256,192,16441,1,8,0:0:0:0:
467,172,16554,1,8,0:0:0:0:
352,19,16666,5,6,0:0:0:0:
380,240,16778,1,0,0:0:0:0:
457,47,16889,1,8,0:0:0:0:
256,192,17001,5,0,0:0:0:0:
467,172,17113,1,0,0:0:0:0:
217,76,17225,1,0,0:0:0:0:
294,307,17337,5,10,0:0:0:0:
323,105,17448,1,0,0:0:0:0:
323,105,17504,1,0,0:0:0:0:
323,105,17560,1,0,0:0:0:0:
188,278,17673,5,0,0:0:0:0:
188,278,17729,1,0,0:0:0:0:
188,278,17785,1,8,0:0:0:0:
364,206,17897,1,0,0:0:0:0:
153,178,18009,5,2,0:0:0:0:
292,383,18120,1,0,0:0:0:0:
364,206,18233,1,10,0:0:0:0:
158,383,18345,1,0,0:0:0:0:
32,208,18456,6,0,B|14:156|14:156|30:84,1,125,6|0,0:0|0:0,0:0:0:0:
480,176,18680,2,0,B|498:228|498:228|482:300,1,125,8|0,0:0|0:0,0:0:0:0:
158,383,18905,5,0,0:0:0:0:
185,164,19017,1,0,0:0:0:0:
311,347,19128,1,10,0:0:0:0:
98,265,19241,1,0,0:0:0:0:
353,0,19351,5,0,0:0:0:0:
326,219,19463,1,0,0:0:0:0:
200,36,19574,1,8,0:0:0:0:
413,118,19687,1,0,0:0:0:0:
217,297,19800,5,2,0:0:0:0:
150,153,19912,1,0,0:0:0:0:
294,86,20024,1,10,0:0:0:0:
370,238,20136,1,0,0:0:0:0:
370,238,20192,1,0,0:0:0:0:
370,238,20247,5,6,0:0:0:0:
256,192,20359,1,0,0:0:0:0:
457,163,20471,1,8,0:0:0:0:
371,336,20582,5,0,0:0:0:0:
352,124,20694,1,0,0:0:0:0:
467,268,20806,1,0,0:0:0:0:
265,307,20919,5,10,0:0:0:0:
246,76,21030,1,0,0:0:0:0:
246,76,21086,1,0,0:0:0:0:
246,76,21142,1,0,0:0:0:0:
370,238,21254,5,0,0:0:0:0:
370,238,21310,1,0,0:0:0:0:
370,238,21366,1,8,0:0:0:0:
169,264,21478,1,0,0:0:0:0:
347,383,21590,5,2,0:0:0:0:
256,192,21702,1,0,0:0:0:0:
164,383,21814,1,10,0:0:0:0:
475,356,21926,1,0,0:0:0:0:
475,356,21982,1,0,0:0:0:0:
475,356,22038,6,0,P|491:300|483:228,1,125,6|0,0:0|0:0,0:0:0:0:
37,28,22262,2,0,P|21:84|29:156,1,125,8|0,0:0|0:0,0:0:0:0:
352,280,22487,5,0,0:0:0:0:
256,64,22599,1,0,0:0:0:0:
256,64,22655,1,0,0:0:0:0:
256,64,22711,1,10,0:0:0:0:
160,280,22823,1,0,0:0:0:0:
371,86,22935,5,0,0:0:0:0:
256,345,23045,1,0,0:0:0:0:
140,86,23157,1,8,0:0:0:0:
409,192,23269,1,0,0:0:0:0:
16,224,23381,6,0,P|3:163|22:104,1,125,2|0,0:0|0:0,0:0:0:0:
496,160,23605,2,0,P|508:220|489:279,1,125,10|0,0:0|0:0,0:0:0:0:
438,336,23774,1,0,0:0:0:0:
370,369,23829,6,0,L|235:362,1,125,6|0,0:0|0:0,0:0:0:0:
142,15,24053,2,0,L|276:21,1,125,8|0,0:0|0:0,0:0:0:0:
488,32,24278,5,0,0:0:0:0:
400,192,24390,1,0,0:0:0:0:
376,24,24502,1,10,0:0:0:0:
512,200,24613,1,0,0:0:0:0:
512,200,24670,1,0,0:0:0:0:
512,200,24726,5,0,0:0:0:0:
304,184,24837,1,0,0:0:0:0:
472,120,24948,1,8,0:0:0:0:
344,272,25060,1,0,0:0:0:0:
272,96,25172,5,2,0:0:0:0:
268,86,25227,1,0,3:0:0:0:
263,78,25283,1,0,3:0:0:0:
259,69,25339,1,0,3:0:0:0:
255,61,25395,1,10,0:0:0:0:
250,52,25451,1,0,3:0:0:0:
246,43,25508,1,0,3:0:0:0:
241,34,25563,1,0,3:0:0:0:
234,20,25620,6,0,B|184:8|184:8|96:40,1,125,6|0,0:0|0:0,0:0:0:0:
262,364,25844,2,0,B|312:376|312:376|400:344,1,125,8|0,0:0|0:0,0:0:0:0:
319,92,26069,5,0,0:0:0:0:
192,291,26181,1,0,0:0:0:0:
400,237,26293,1,10,0:0:0:0:
102,146,26405,1,0,0:0:0:0:
131,383,26517,5,0,0:0:0:0:
256,192,26629,1,0,0:0:0:0:
57,255,26741,1,8,0:0:0:0:
310,309,26852,1,0,0:0:0:0:
168,24,26963,5,2,0:0:0:0:
159,28,27018,1,0,3:0:0:0:
150,31,27074,1,0,3:0:0:0:
141,35,27130,1,0,3:0:0:0:
132,38,27186,1,10,0:0:0:0:
123,41,27242,1,0,3:0:0:0:
113,45,27298,1,0,3:0:0:0:
104,48,27354,1,0,3:0:0:0:
89,54,27411,6,0,P|61:112|65:183,1,125,6|0,0:0|0:0,0:0:0:0:
423,330,27635,2,0,P|452:273|448:202,1,125,8|0,0:0|0:0,0:0:0:0:
388,44,27859,5,0,0:0:0:0:
154,144,27972,1,0,0:0:0:0:
326,247,28084,1,10,0:0:0:0:
256,0,28196,1,0,0:0:0:0:
185,247,28308,5,0,0:0:0:0:
358,144,28420,1,0,0:0:0:0:
124,44,28532,1,8,0:0:0:0:
256,335,28643,1,0,0:0:0:0:
488,120,28754,5,2,0:0:0:0:
484,111,28809,1,0,3:0:0:0:
481,102,28865,1,0,3:0:0:0:
477,93,28921,1,0,3:0:0:0:
474,84,28977,1,10,0:0:0:0:
471,75,29033,1,0,3:0:0:0:
467,65,29089,1,0,3:0:0:0:
464,56,29145,1,0,3:0:0:0:
458,41,29202,6,0,P|403:5|337:6,1,125,6|0,0:0|0:0,0:0:0:0:
56,344,29426,2,0,P|109:378|175:378,1,125,8|0,0:0|0:0,0:0:0:0:
404,328,29650,2,0,P|428:268|413:203,1,125
108,56,29874,2,0,P|84:116|98:180,1,125,10|0,0:0|0:0,0:0:0:0:
190,328,30099,5,8,0:0:0:0:
319,79,30211,1,8,0:0:0:0:
190,328,30323,1,8,0:0:0:0:
319,79,30434,1,8,0:0:0:0:
319,328,30545,5,10,0:0:0:0:
190,79,30657,1,8,0:0:0:0:
319,328,30769,1,10,0:0:0:0:
190,79,30880,1,8,0:0:0:0:
436,17,30993,6,0,P|484:73|500:249,1,250,4|8,0:0|0:0,0:0:0:0:
312,368,31330,1,0,0:0:0:0:
244,96,31441,2,0,P|302:89|361:123,1,125
268,288,31665,2,0,P|211:293|152:259,1,125,8|8,0:0|0:0,0:0:0:0:
200,16,31890,5,0,0:0:0:0:
256,192,32002,1,0,0:0:0:0:
256,192,32058,1,0,0:0:0:0:
256,192,32114,1,8,0:0:0:0:
72,104,32225,1,0,0:0:0:0:
328,56,32337,2,0,P|344:112|312:208,1,125
256,320,32560,1,8,0:0:0:0:
168,120,32672,1,8,0:0:0:0:
400,0,32784,6,0,P|434:114|408:248,1,250,0|8,0:0|0:0,0:0:0:0:
193,360,33121,1,0,0:0:0:0:
88,176,33232,2,0,P|77:114|94:54,1,125
336,240,33456,2,0,P|341:301|320:360,1,125,8|8,0:0|0:0,0:0:0:0:
8,288,33681,5,0,0:0:0:0:
215,240,33793,1,0,0:0:0:0:
215,240,33849,1,0,0:0:0:0:
215,240,33905,1,8,0:0:0:0:
40,176,34017,1,0,0:0:0:0:
88,368,34128,2,0,P|149:373|207:351,1,125
392,192,34351,1,8,0:0:0:0:
120,192,34463,1,8,0:0:0:0:
305,351,34575,6,0,P|425:368|493:250,1,250,4|8,0:0|0:0,0:0:0:0:
376,48,34911,1,0,0:0:0:0:
108,151,35023,2,0,P|101:212|120:272,1,125
392,272,35247,2,0,P|410:213|402:151,1,125,8|8,0:0|0:0,0:0:0:0:
112,40,35471,5,0,0:0:0:0:
256,192,35584,1,0,0:0:0:0:
256,192,35640,1,0,0:0:0:0:
256,192,35696,1,8,0:0:0:0:
304,16,35808,1,0,0:0:0:0:
109,151,35919,2,0,P|85:207|93:276,1,125
248,384,36144,1,8,0:0:0:0:
256,96,36254,6,0,P|336:24|480:56,1,250,8|0,0:0|0:0,0:0:0:0:
256,224,36590,1,8,0:0:0:0:
208,16,36703,1,0,0:0:0:0:
362,139,36814,2,0,P|367:201|344:259,1,125
149,245,37038,2,0,P|143:182|166:125,1,125,8|8,0:0|0:0,0:0:0:0:
344,259,37262,5,8,0:0:0:0:
189,280,37375,1,8,0:0:0:0:
168,125,37486,1,8,0:0:0:0:
323,104,37599,1,8,0:0:0:0:
312,337,37711,5,8,0:0:0:0:
111,248,37822,1,8,0:0:0:0:
200,47,37934,1,8,0:0:0:0:
401,136,38045,1,8,0:0:0:0:
200,337,38157,6,0,P|73:325|18:216,1,250,4|8,0:0|0:0,0:0:0:0:
200,120,38493,1,0,0:0:0:0:
312,264,38605,2,0,P|330:323|313:382,1,125
96,168,38829,2,0,P|79:108|96:49,1,125,8|8,0:0|0:0,0:0:0:0:
408,17,39054,5,0,0:0:0:0:
344,272,39166,1,0,0:0:0:0:
344,272,39222,1,0,0:0:0:0:
344,272,39278,1,8,0:0:0:0:
168,112,39390,1,0,0:0:0:0:
459,110,39501,2,0,P|467:171|451:232,1,125
205,352,39725,1,8,0:0:0:0:
320,64,39837,1,8,0:0:0:0:
448,352,39948,6,0,B|348:352|348:352|325:365|325:365|304:352|304:352|192:352,1,250,0|8,0:0|0:0,0:0:0:0:
256,160,40285,1,0,0:0:0:0:
451,232,40396,2,0,P|465:292|448:352,1,125
64,352,40620,2,0,P|48:292|61:232,1,125,8|8,0:0|0:0,0:0:0:0:
256,88,40845,5,0,0:0:0:0:
160,256,40957,1,0,0:0:0:0:
160,256,41013,1,0,0:0:0:0:
160,256,41069,1,8,0:0:0:0:
352,256,41181,1,0,0:0:0:0:
312,26,41292,2,0,P|256:2|200:26,1,125
256,192,41516,1,8,0:0:0:0:
384,72,41628,1,8,0:0:0:0:
128,72,41740,6,0,B|104:112|104:112|112:200,1,125,4|0,0:0|0:0,0:0:0:0:
464,128,41963,2,0,B|488:88|488:88|480:0,1,125,8|0,0:0|0:0,0:0:0:0:
128,72,42188,5,0,0:0:0:0:
320,160,42300,1,0,0:0:0:0:
256,16,42412,1,8,0:0:0:0:
192,224,42524,1,8,0:0:0:0:
400,192,42636,5,0,0:0:0:0:
208,112,42748,1,0,0:0:0:0:
208,112,42804,1,0,0:0:0:0:
208,112,42860,1,8,0:0:0:0:
256,312,42972,1,0,0:0:0:0:
320,160,43083,6,0,P|328:96|320:24,1,125,0|0,0:0|0:0,0:0:0:0:
112,152,43307,1,8,0:0:0:0:
329,265,43419,1,8,0:0:0:0:
56,368,43531,5,0,0:0:0:0:
183,265,43643,1,0,0:0:0:0:
160,384,43755,1,8,0:0:0:0:
79,249,43866,1,0,0:0:0:0:
433,249,43978,5,0,0:0:0:0:
352,384,44090,1,0,0:0:0:0:
329,265,44202,1,8,0:0:0:0:
456,368,44313,1,8,0:0:0:0:
182,265,44427,5,8,0:0:0:0:
256,87,44539,1,8,0:0:0:0:
256,296,44650,1,8,0:0:0:0:
182,118,44762,1,8,0:0:0:0:
329,265,44874,1,8,0:0:0:0:
151,192,44986,1,8,0:0:0:0:
360,192,45097,1,8,0:0:0:0:
182,265,45209,1,8,0:0:0:0:
329,119,45322,6,0,P|344:74|312:-17,1,125,6|0,0:0|0:0,0:0:0:0:
329,265,45545,2,0,P|373:280|465:248,1,125,10|0,0:0|0:0,0:0:0:0:
183,265,45769,2,0,P|167:309|199:401,1,125,2|0,0:0|0:0,0:0:0:0:
183,119,45993,2,0,P|138:103|46:135,1,125,10|0,0:0|0:0,0:0:0:0:
32,192,46161,5,0,0:0:0:0:
64,262,46217,2,0,P|123:281|183:265,1,125,2|0,0:0|0:0,0:0:0:0:
185,0,46441,2,0,P|166:59|183:119,1,125,10|0,0:0|0:0,0:0:0:0:
447,121,46665,2,0,P|388:102|329:119,1,125,2|0,0:0|0:0,0:0:0:0:
326,383,46889,2,0,P|345:324|329:265,1,125,10|0,0:0|0:0,0:0:0:0:
256,224,47058,1,0,0:0:0:0:
183,264,47114,5,0,0:0:0:0:
328,264,47226,1,0,0:0:0:0:
200,184,47337,1,8,0:0:0:0:
312,184,47449,1,0,0:0:0:0:
216,104,47560,1,0,0:0:0:0:
296,104,47672,1,0,0:0:0:0:
176,24,47783,1,8,0:0:0:0:
336,24,47895,1,0,0:0:0:0:
174,159,48008,6,0,P|135:212|133:280,1,125,8|0,0:0|0:0,0:0:0:0:
256,368,48232,1,0,0:0:0:0:
325,137,48344,2,0,P|298:76|240:41,1,125,8|0,0:0|0:0,0:0:0:0:
64,136,48568,1,0,0:0:0:0:
256,248,48680,1,8,0:0:0:0:
448,136,48793,1,0,0:0:0:0:
448,136,48849,1,0,0:0:0:0:
448,136,48904,6,0,B|459:74|459:74|446:14,1,125,6|0,0:0|0:0,0:0:0:0:
64,248,49128,2,0,B|53:310|53:310|66:370,1,125,10|0,0:0|0:0,0:0:0:0:
336,136,49351,2,0,B|347:74|347:74|334:14,1,125,2|0,0:0|0:0,0:0:0:0:
176,248,49575,2,0,B|165:310|165:310|178:370,1,125,10|0,0:0|0:0,0:0:0:0:
256,368,49744,1,0,0:0:0:0:
334,370,49799,6,0,B|347:310|347:310|336:248,1,125,2|0,0:0|0:0,0:0:0:0:
178,14,50023,2,0,B|165:74|165:74|176:136,1,125,10|0,0:0|0:0,0:0:0:0:
446,370,50247,2,0,B|459:310|459:310|448:248,1,125,2|0,0:0|0:0,0:0:0:0:
66,14,50471,2,0,B|53:74|53:74|64:136,1,125,10|0,0:0|0:0,0:0:0:0:
200,264,50695,5,0,0:0:0:0:
312,120,50808,1,0,0:0:0:0:
144,168,50919,1,8,0:0:0:0:
368,216,51032,1,0,0:0:0:0:
184,64,51143,5,0,0:0:0:0:
328,320,51254,1,0,0:0:0:0:
312,16,51367,1,8,0:0:0:0:
200,368,51478,1,0,0:0:0:0:
200,368,51535,1,0,0:0:0:0:
200,368,51590,6,0,P|136:376|16:320,1,187.500007152558,8|0,0:0|0:0,0:0:0:0:
64,104,51815,1,0,0:0:0:0:
312,368,51926,2,0,P|376:376|496:320,1,187.500007152558,8|0,0:0|0:0,0:0:0:0:
448,104,52151,1,0,0:0:0:0:
112,264,52263,5,8,0:0:0:0:
400,264,52375,1,0,0:0:0:0:
192,48,52486,6,0,B|160:104|160:104|184:192,1,125,4|0,0:0|0:0,0:0:0:0:
337,162,52710,2,0,B|353:104|353:104|321:48,1,125,8|0,0:0|0:0,0:0:0:0:
25,192,52934,1,0,0:0:0:0:
192,360,53046,1,0,0:0:0:0:
192,360,53102,1,0,0:0:0:0:
192,360,53157,2,0,L|336:360,1,125,8|0,0:0|0:0,0:0:0:0:
487,192,53382,5,2,0:0:0:0:
487,192,53438,1,0,0:0:0:0:
487,192,53494,1,2,0:0:0:0:
256,256,53606,1,10,0:0:0:0:
472,304,53718,1,2,0:0:0:0:
328,96,53830,5,2,0:0:0:0:
184,288,53941,1,2,0:0:0:0:
352,264,54054,1,10,0:0:0:0:
160,120,54166,1,2,0:0:0:0:
160,120,54222,1,0,0:0:0:0:
160,120,54277,6,0,P|117:114|44:151,1,125,0|0,0:0|0:0,0:0:0:0:
352,264,54501,2,0,P|394:269|467:232,1,125,8|0,0:0|0:0,0:0:0:0:
256,24,54725,5,0,0:0:0:0:
304,192,54837,1,0,0:0:0:0:
352,24,54948,1,8,0:0:0:0:
208,192,55060,1,0,0:0:0:0:
352,360,55172,6,0,P|432:320|456:160,1,250,0|8,0:0|0:0,0:0:0:0:
256,80,55508,1,0,0:0:0:0:
50,172,55620,2,0,P|59:293|160:360,1,250,0|8,0:0|0:0,0:0:0:0:
384,232,55956,1,0,0:0:0:0:
128,232,56068,1,4,0:0:0:0:
128,232,56293,5,8,0:0:0:0:
304,296,56405,1,0,0:0:0:0:
192,160,56517,5,0,0:0:0:0:
160,360,56629,1,0,0:0:0:0:
352,360,56740,1,8,0:0:0:0:
320,160,56852,1,0,0:0:0:0:
208,296,56963,5,0,0:0:0:0:
384,232,57076,1,0,0:0:0:0:
384,232,57132,1,0,0:0:0:0:
384,232,57188,1,8,0:0:0:0:
256,376,57300,1,0,0:0:0:0:
256,224,57411,2,0,B|232:136|232:136|280:88|280:88|256:0,1,250,0|8,0:0|0:0,0:0:0:0:
136,104,57747,1,0,0:0:0:0:
256,224,57859,5,0,0:0:0:0:
269,223,57914,1,0,3:0:0:0:
281,221,57970,1,0,0:0:0:0:
294,220,58026,1,0,3:0:0:0:
306,218,58082,1,8,0:0:0:0:
456,168,58195,5,0,0:0:0:0:
443,167,58250,1,0,3:0:0:0:
431,165,58306,1,0,0:0:0:0:
418,164,58362,1,0,3:0:0:0:
406,162,58418,1,0,0:0:0:0:
304,304,58531,5,8,0:0:0:0:
317,303,58586,1,0,3:0:0:0:
329,301,58642,1,0,0:0:0:0:
342,300,58698,1,0,3:0:0:0:
354,298,58754,1,0,0:0:0:0:
480,256,58866,5,0,0:0:0:0:
467,255,58921,1,0,3:0:0:0:
455,253,58977,1,8,0:0:0:0:
256,224,59090,1,0,0:0:0:0:
269,223,59145,1,0,3:0:0:0:
281,221,59201,1,0,0:0:0:0:
416,192,59315,5,0,0:0:0:0:
344,328,59426,1,8,0:0:0:0:
312,128,59539,1,0,0:0:0:0:
312,128,59595,1,0,0:0:0:0:
312,128,59650,6,0,B|304:64|304:64|328:0,1,125,4|2,0:0|0:0,0:0:0:0:
480,256,59874,2,0,B|488:320|488:320|464:384,1,125,8|0,0:0|0:0,0:0:0:0:
184,368,60099,5,2,0:0:0:0:
304,216,60210,1,0,0:0:0:0:
328,368,60322,1,8,0:0:0:0:
208,216,60433,1,2,0:0:0:0:
384,296,60546,5,0,0:0:0:0:
128,296,60658,1,0,0:0:0:0:
128,296,60714,1,0,0:0:0:0:
128,296,60769,2,0,P|99:242|101:177,1,125,8|0,0:0|0:0,0:0:0:0:
256,16,60994,1,0,0:0:0:0:
256,280,61106,5,2,0:0:0:0:
179,148,61218,1,10,0:0:0:0:
332,148,61330,1,2,0:0:0:0:
256,280,61441,5,10,0:0:0:0:
243,279,61496,1,0,3:0:0:0:
231,277,61552,1,0,0:0:0:0:
218,276,61608,1,0,3:0:0:0:
206,274,61664,1,0,0:0:0:0:
280,120,61777,5,10,0:0:0:0:
293,121,61832,1,0,3:0:0:0:
305,123,61888,1,0,0:0:0:0:
318,124,61944,1,0,3:0:0:0:
330,126,62000,1,0,0:0:0:0:
400,264,62113,5,10,0:0:0:0:
387,263,62168,1,0,3:0:0:0:
375,261,62224,1,0,0:0:0:0:
362,260,62280,1,0,3:0:0:0:
350,258,62336,1,0,0:0:0:0:
440,96,62448,5,10,0:0:0:0:
453,97,62504,1,0,3:0:0:0:
465,99,62560,1,0,0:0:0:0:
504,240,62672,1,0,0:0:0:0:
491,239,62728,1,0,3:0:0:0:
479,237,62784,1,8,0:0:0:0:
296,192,62897,5,8,0:0:0:0:
504,104,63009,1,8,0:0:0:0:
419,297,63121,1,8,0:0:0:0:
419,297,63177,1,0,0:0:0:0:
419,297,63232,5,6,0:0:0:0:
352,96,63345,1,0,0:0:0:0:
505,192,63457,1,8,0:0:0:0:
208,288,63569,5,0,0:0:0:0:
256,115,63681,1,0,0:0:0:0:
304,288,63792,1,0,0:0:0:0:
140,192,63904,5,10,0:0:0:0:
361,192,64017,1,0,0:0:0:0:
361,192,64072,1,0,0:0:0:0:
361,192,64129,1,0,0:0:0:0:
189,374,64240,5,0,0:0:0:0:
256,192,64352,1,8,0:0:0:0:
323,374,64464,1,0,0:0:0:0:
111,288,64576,5,2,0:0:0:0:
400,288,64688,1,0,0:0:0:0:
256,86,64799,1,10,0:0:0:0:
198,374,64912,1,0,0:0:0:0:
198,374,64968,1,0,0:0:0:0:
198,374,65023,6,0,L|326:374,1,125,6|0,0:0|0:0,0:0:0:0:
314,10,65247,2,0,L|186:10,1,125,8|0,0:0|0:0,0:0:0:0:
6,192,65472,5,0,0:0:0:0:
256,249,65584,1,0,0:0:0:0:
131,115,65696,1,10,0:0:0:0:
102,336,65808,1,0,0:0:0:0:
505,192,65919,5,0,0:0:0:0:
256,134,66031,1,0,0:0:0:0:
380,268,66143,1,8,0:0:0:0:
409,47,66255,1,0,0:0:0:0:
131,115,66367,5,2,0:0:0:0:
179,316,66479,1,0,0:0:0:0:
380,268,66591,1,10,0:0:0:0:
332,67,66703,1,0,0:0:0:0:
83,19,66815,5,6,0:0:0:0:
256,134,66927,1,0,0:0:0:0:
15,153,67039,1,8,0:0:0:0:
227,19,67151,5,0,0:0:0:0:
150,230,67263,1,0,0:0:0:0:
371,172,67375,1,0,0:0:0:0:
131,115,67487,5,10,0:0:0:0:
275,288,67599,1,0,0:0:0:0:
275,288,67655,1,0,0:0:0:0:
275,288,67710,5,0,0:0:0:0:
332,67,67822,1,0,0:0:0:0:
131,115,67934,1,8,0:0:0:0:
179,316,68046,1,0,0:0:0:0:
380,268,68158,5,2,0:0:0:0:
256,0,68270,1,0,0:0:0:0:
92,240,68381,1,10,0:0:0:0:
400,163,68494,1,0,0:0:0:0:
400,163,68550,1,0,0:0:0:0:
400,163,68605,6,0,P|416:107|400:43,1,125,6|0,0:0|0:0,0:0:0:0:
24,192,68829,2,0,P|8:248|24:312,1,125,8|0,0:0|0:0,0:0:0:0:
319,383,69054,5,0,0:0:0:0:
255,191,69166,1,0,0:0:0:0:
191,383,69278,1,10,0:0:0:0:
355,273,69390,1,0,0:0:0:0:
154,273,69502,5,0,0:0:0:0:
410,373,69614,1,0,0:0:0:0:
410,373,69669,1,0,0:0:0:0:
410,373,69726,1,8,0:0:0:0:
99,373,69837,1,0,0:0:0:0:
362,151,69948,6,0,P|371:213|355:273,1,125,2|0,0:0|0:0,0:0:0:0:
155,272,70172,2,0,P|139:212|150:151,1,125,10|0,0:0|0:0,0:0:0:0:
198,81,70341,1,0,0:0:0:0:
272,40,70396,6,0,L|408:32,1,125,6|0,0:0|0:0,0:0:0:0:
240,344,70620,2,0,L|104:352,1,125,8|0,0:0|0:0,0:0:0:0:
0,157,70845,5,0,0:0:0:0:
256,192,70957,1,0,0:0:0:0:
59,285,71068,1,10,0:0:0:0:
85,64,71181,1,0,0:0:0:0:
256,280,71293,5,0,0:0:0:0:
0,336,71404,1,0,0:0:0:0:
200,120,71517,1,8,0:0:0:0:
160,384,71629,1,0,0:0:0:0:
48,104,71740,5,2,0:0:0:0:
52,95,71795,1,0,3:0:0:0:
55,86,71851,1,0,3:0:0:0:
59,77,71907,1,0,3:0:0:0:
62,68,71963,1,10,0:0:0:0:
65,59,72019,1,0,3:0:0:0:
69,49,72075,1,0,3:0:0:0:
72,40,72131,1,0,3:0:0:0:
78,25,72187,6,0,P|140:6|210:21,1,125,6|0,0:0|0:0,0:0:0:0:
434,359,72411,2,0,P|372:378|302:362,1,125,8|0,0:0|0:0,0:0:0:0:
256,128,72635,5,0,0:0:0:0:
510,152,72747,1,0,0:0:0:0:
306,243,72859,1,10,0:0:0:0:
329,22,72971,1,0,0:0:0:0:
434,256,73083,5,0,0:0:0:0:
188,243,73195,1,0,0:0:0:0:
380,137,73307,1,8,0:0:0:0:
362,366,73420,1,0,0:0:0:0:
256,104,73531,5,2,0:0:0:0:
252,95,73586,1,0,3:0:0:0:
249,86,73642,1,0,3:0:0:0:
245,77,73698,1,0,3:0:0:0:
242,68,73754,1,10,0:0:0:0:
239,59,73810,1,0,3:0:0:0:
235,49,73866,1,0,3:0:0:0:
232,40,73922,1,0,3:0:0:0:
226,25,73978,6,0,P|164:6|94:21,1,125,6|0,0:0|0:0,0:0:0:0:
286,359,74202,2,0,P|348:378|418:362,1,125,8|0,0:0|0:0,0:0:0:0:
323,76,74426,5,0,0:0:0:0:
140,124,74538,1,0,0:0:0:0:
188,307,74650,1,10,0:0:0:0:
371,259,74762,1,0,0:0:0:0:
217,49,74874,5,0,0:0:0:0:
293,333,74986,1,0,0:0:0:0:
395,154,75098,1,8,0:0:0:0:
111,230,75210,1,0,0:0:0:0:
406,359,75322,5,2,0:0:0:0:
415,355,75377,1,0,3:0:0:0:
424,352,75433,1,0,3:0:0:0:
433,348,75489,1,0,3:0:0:0:
442,345,75545,1,10,0:0:0:0:
451,342,75601,1,0,3:0:0:0:
461,338,75657,1,0,3:0:0:0:
470,335,75713,1,0,3:0:0:0:
485,329,75769,6,0,P|504:267|488:197,1,125,6|0,0:0|0:0,0:0:0:0:
136,256,75993,2,0,P|125:317|144:376,1,125,8|0,0:0|0:0,0:0:0:0:
376,128,76217,2,0,P|386:66|367:8,1,125
27,55,76441,2,0,P|8:117|24:187,1,125,10|0,0:0|0:0,0:0:0:0:
377,313,76665,5,8,0:0:0:0:
256,19,76777,1,8,0:0:0:0:
133,313,76889,1,8,0:0:0:0:
427,192,77001,1,8,0:0:0:0:
133,69,77113,1,10,0:0:0:0:
256,363,77225,1,8,0:0:0:0:
377,69,77337,1,10,0:0:0:0:
83,192,77448,1,8,0:0:0:0:
377,313,77561,5,4,0:0:0:0:
