osu file format v14

[General]
AudioFilename: audio.mp3
AudioLeadIn: 0
PreviewTime: 138393
Countdown: 0
SampleSet: Soft
StackLeniency: 0.7
Mode: 0
LetterboxInBreaks: 0
WidescreenStoryboard: 0

[Editor]
DistanceSpacing: 1.5
BeatDivisor: 3
GridSize: 4
TimelineZoom: 2.2

[Metadata]
Title:P & Amree)
TitleUnicode:P & Amree)
Artist:[JPz Central] Its Not Like I Like You!! (feat. Emi
ArtistUnicode:[JPz Central] Its Not Like I Like You!! (feat. Emi
Creator:l1mi
Version:l9mi
Source:Youtube
Tags:Tsundere
BeatmapID:1404539
BeatmapSetID:663573

[Difficulty]
HPDrainRate:0
CircleSize:4.2
OverallDifficulty:8.8
ApproachRate:8.8
SliderMultiplier:1.4
SliderTickRate:1

[Events]
//Background and Video events
0,0,"RandomReimuBGx1030432526346.jpg",0,0
//Break Periods
2,76268,88600
2,237298,250792
//Storyboard Layer 0 (Background)
//Storyboard Layer 1 (Fail)
//Storyboard Layer 2 (Pass)
//Storyboard Layer 3 (Foreground)
//Storyboard Sound Samples

[TimingPoints]
2135.49270990897,387.096774193548,4,2,1,50,1,0
11425,-200,4,2,1,50,0,0
12070,-100,4,2,1,50,0,0
14135,-66.6666666666667,4,3,1,50,0,0
14393,96.7741935483871,4,2,1,50,1,0
14909,387.096774193548,4,2,1,50,1,0
15683,-133.333333333333,4,2,1,50,0,0
17618,387.096774193548,4,2,1,50,1,0
17747,-133.333333333333,4,2,1,50,0,0
31166,-200,4,2,1,50,0,0
32714,1548.38709677419,4,2,1,50,1,0
33101,387.096774193548,4,2,1,50,1,0
33682,-66.6666666666667,4,2,1,50,0,0
34455,-100,4,2,1,50,0,0
36973,-100,4,2,1,50,0,0
38907,-200,4,2,1,50,0,0
39270,-66.6666666666667,4,2,1,50,0,0
51681,-50,4,2,1,50,0,0
55552,-100,4,2,1,50,0,0
56197,-133.333333333333,4,2,1,50,0,0
57746,-50,4,2,1,50,0,0
60842,-100,4,2,1,50,0,0
62391,-200,4,2,1,50,0,0
63939,-50,4,2,1,50,0,0
67810,-100,4,2,1,50,0,0
68584,-133.333333333333,4,2,1,50,0,0
70133,-50,4,2,1,50,0,0
73359,-100,4,2,1,45,0,0
73459,-200,4,2,1,50,0,0
73746,-200,4,2,1,45,0,0
74133,-200,4,2,1,40,0,0
74520,-200,4,2,1,35,0,0
74907,1161.29032258065,4,2,1,30,1,0
75294,-100,4,2,1,25,0,0
75681,-100,4,2,1,20,0,0
76068,-100,4,2,1,15,0,0
76455,387.096774193548,4,2,1,50,1,0
102261,-133.333333333333,4,2,1,50,0,0
106648,-66.6666666666667,4,2,1,50,0,0
107422,-133.333333333333,4,2,1,50,0,0
118067,-200,4,2,1,50,0,0
118713,1161.28283043335,4,2,1,50,1,0
119809,387.096774193548,4,2,1,50,1,0
124454,-66.6666666666667,4,2,1,50,0,0
125228,-50,4,2,1,50,0,0
142131,-100,4,2,1,50,0,0
142905,-133.333333333333,4,2,1,50,0,0
144454,-50,4,2,1,50,0,0
147679,-100,4,2,1,50,0,0
149228,-200,4,2,1,50,0,0
150647,-50,4,2,1,50,0,0
154518,-100,4,2,1,50,0,0
155421,-133.333333333333,4,2,1,50,0,0
156841,-50,4,2,1,50,0,0
160067,-100,4,2,1,50,0,0
160454,-100,4,2,1,45,0,0
160841,-200,4,2,1,40,0,0
161228,-200,4,2,1,35,0,0
161615,1161.28283043335,4,2,1,30,1,0
162002,-100,4,2,1,25,0,0
162389,1548.38709677419,4,2,1,20,1,0
162647,-100,4,2,1,25,0,0
162905,-100,4,2,1,30,0,0
163163,387.096774193548,4,2,1,40,1,0
175937,-100,4,2,1,50,0,0
187550,-66.6666666666667,4,2,1,50,0,0
187937,-66.6666666666667,4,2,1,50,0,0
231162,-50,4,2,1,50,0,0
231679,-66.6666666666667,4,2,1,50,0,0
233227,-100,4,2,1,50,0,0
234001,-66.6666666666667,4,2,1,50,0,0
234388,-133.333333333333,4,2,1,50,0,0
235937,-100,4,2,1,50,0,0
251421,-50,4,2,1,50,0,0
255292,-100,4,2,1,50,0,0
256066,-133.333333333333,4,2,1,50,0,0
257614,-50,4,2,1,50,0,0
260711,-100,4,2,1,50,0,0
262259,-200,4,2,1,50,0,0
264195,-50,4,2,1,50,0,0
268453,-133.333333333333,4,2,1,50,0,0
268711,-133.333333333333,4,2,1,35,0,0
268840,-133.333333333333,4,2,1,40,0,0
269227,-133.333333333333,4,2,1,50,0,0
269227,-133.333333333333,4,2,1,45,0,0
269614,-133.333333333333,4,2,1,50,0,0
270388,-50,4,2,1,50,0,0
273485,-50,4,2,1,45,0,0
273872,-50,4,2,1,40,0,0
274259,-50,4,2,1,35,0,0
274646,-50,4,2,1,30,0,0
275033,-50,4,2,1,25,0,0
275421,-50,4,2,1,20,0,0
275808,-50,4,2,1,15,0,0
276195,-50,4,2,1,10,0,0

[Colours]
Combo1 : 255,202,149
Combo2 : 255,187,255
Combo3 : 179,179,217

[HitObjects]
168,320,2135,6,0,B|155:251|155:251|169:183,1,140
296,272,2780,1,0,0:0:0:0:
288,292,2909,2,0,B|275:246|275:246|288:202,1,93.3333333333333,2|0,0:0|0:0,0:0:0:0:
440,196,3296,2,0,B|452:241|452:241|439:285,1,93.3333333333333
440,196,3683,6,0,B|454:128|454:128|442:60,1,140
313,106,4329,1,0,0:0:0:0:
321,86,4458,2,0,B|333:131|333:131|320:175,1,93.3333333333333,8|0,0:0|0:0,0:0:0:0:
113,178,4845,2,0,B|100:132|100:132|113:88,1,93.3333333333333
248,64,5232,6,0,B|260:132|260:132|246:200,1,140
356,340,5877,1,0,0:0:0:0:
348,360,6006,2,0,B|335:314|335:314|348:270,1,93.3333333333333,2|0,0:0|0:0,0:0:0:0:
440,196,6393,2,0,B|452:241|452:241|439:285,1,93.3333333333333
224,168,6780,6,0,B|213:106|213:106|233:82,1,93.3333333333333
344,108,7167,2,0,B|355:170|355:170|335:194,1,93.3333333333333,8|0,0:0|0:0,0:0:0:0:
480,160,7554,2,0,B|456:201|456:201|416:222,1,93.3333333333333
415,222,7941,1,8,0:0:0:0:
128,312,8200,1,0,0:0:0:0:
128,312,8329,6,0,B|124:268|115:243|115:243|128:220|129:175,1,140
240,268,8974,1,0,0:0:0:0:
232,288,9103,2,0,B|228:264|219:242|219:242|228:224|232:198,1,93.3333333333333,2|0,0:0|0:0,0:0:0:0:
439,195,9490,2,0,B|443:219|451:240|451:240|443:259|438:284,1,93.3333333333333
441,59,9877,6,0,B|445:103|453:127|453:127|441:151|439:195,1,140
313,106,10522,1,0,0:0:0:0:
321,86,10651,2,0,B|325:108|333:131|333:131|324:152|320:175,1,93.3333333333333,8|0,0:0|0:0,0:0:0:0:
113,178,11038,2,0,B|112:156|100:132|100:132|108:112|113:88,1,93.3333333333333
80,276,11425,6,0,P|67:250|95:257,1,70
316,368,12070,1,0,0:0:0:0:
316,368,12200,2,0,B|321:344|329:323|329:323|317:300|316:278,1,93.3333333333333,8|0,0:0|0:0,0:0:0:0:
503,121,12587,2,0,B|490:100|481:80|481:80|456:72|440:57,1,93.3333333333333
332,208,12974,6,0,B|352:184|352:184|332:160|339:125,1,93.3333333333333
148,160,13361,2,0,B|148:128|192:104|192:104|156:74,1,93.3333333333333,8|0,0:0|0:0,0:0:0:0:
100,260,13748,2,0,B|124:264|144:272|144:272|167:264|190:260,1,93.3333333333333
416,96,14135,2,0,B|398:124|398:124|367:144,1,70.0000026702882,2|4,0:0|0:0,0:0:0:0:
333,76,14393,6,0,P|440:64|367:144,1,280,0|2,0:0|2:2,0:0:0:0:
244,240,14909,2,0,P|188:280|119:284,1,140
60,160,15554,1,0,0:0:0:0:
60,160,15683,6,0,P|98:125|149:116,2,105.000004005432,8|2|0,0:0|0:0|0:0,0:0:0:0:
84,264,16715,1,0,0:0:0:0:
84,264,16844,2,0,P|92:297|85:332,1,70.0000026702882
160,239,17231,2,0,P|189:219|223:214,1,70.0000026702882
223,214,17618,5,4,0:0:0:0:
340,192,17876,1,0,0:0:0:0:
340,192,18005,2,0,P|321:221|293:241,1,70.0000026702882
436,188,18392,2,0,P|406:207|372:212,1,70.0000026702882
284,140,18779,2,0,P|249:139|217:153,1,70.0000026702882
188,120,19167,6,0,P|151:155|151:206,1,105.000004005432,8|4,0:0|0:0,0:0:0:0:
348,164,19941,1,0,0:0:0:0:
151,206,20328,1,12,0:0:0:0:
344,261,20715,6,0,P|362:212|347:163,2,105.000004005432
149,116,21747,1,0,0:0:0:0:
149,116,21876,6,0,P|98:125|60:160,1,105.000004005432,8|2,0:0|0:0,0:0:0:0:
88,224,22521,2,0,P|89:206|98:191,1,35.0000013351441
116,264,22908,1,0,0:0:0:0:
116,264,23037,2,0,P|124:297|117:332,1,70.0000026702882
188,228,23424,2,0,P|217:208|251:203,1,70.0000026702882,0|4,0:0|0:0,0:0:0:0:
250,202,23811,5,0,0:0:0:0:
368,268,24069,1,0,0:0:0:0:
368,268,24198,2,0,P|396:248|414:218,1,70.0000026702882
196,120,24844,1,0,0:0:0:0:
196,120,24972,2,0,P|228:106|263:107,1,70.0000026702882,0|4,0:0|0:0,0:0:0:0:
134,166,25360,6,0,P|142:116|180:81,1,105.000004005432,8|4,0:0|0:0,0:0:0:0:
488,151,26005,2,0,P|488:134|484:117,1,35.0000013351441,4|8,0:0|0:0,0:0:0:0:
208,232,26392,1,12,0:0:0:0:
394,110,26521,2,0,L|400:75,1,35.0000013351441
296,352,26908,5,12,2:2:0:0:
296,352,27295,1,0,0:0:0:0:
244,296,27488,1,0,0:0:0:0:
244,296,27682,1,0,0:0:0:0:
56,320,27940,1,0,0:0:0:0:
296,352,28263,1,0,0:0:0:0:
260,276,28456,5,8,0:0:0:0:
72,340,28714,1,0,0:0:0:0:
280,264,29037,1,0,0:0:0:0:
312,164,29230,1,0,0:0:0:0:
216,308,29488,1,0,0:0:0:0:
221,323,29617,1,0,0:0:0:0:
128,260,29876,1,0,0:0:0:0:
125,275,30005,5,8,0:0:0:0:
304,264,30392,1,8,0:0:0:0:
336,244,30714,2,0,P|352:239|376:239,2,35.0000013351441
256,320,31166,1,0,0:0:0:0:
256,320,31359,6,0,P|256:285|239:254,1,70,2|0,0:0|0:0,0:0:0:0:
168,208,31940,1,0,0:0:0:0:
112,140,32134,2,0,P|114:105|136:78,1,70,2|0,0:0|0:0,0:0:0:0:
203,221,32714,2,0,P|191:224|180:224,1,23.3333333333333,0|8,0:0|0:0,0:0:0:0:
68,360,33488,5,0,0:0:0:0:
120,80,33682,1,0,0:0:0:0:
96,168,33876,2,0,P|112:119|155:90,2,105.000004005432,4|2|0,0:0|0:0|0:0,0:0:0:0:
244,256,34520,1,0,0:0:0:0:
324,220,34649,6,0,B|340:164|276:140|308:76,1,140
303,85,35423,2,0,P|300:131|274:169,1,93.3333333333333,8|0,0:0|0:0,0:0:0:0:
219,113,35810,2,0,P|238:154|229:199,1,93.3333333333333
243,217,36197,5,0,0:0:0:0:
243,217,36971,2,0,P|239:239|241:263,2,46.6666666666667
287,124,37359,2,0,P|288:78|263:39,1,93.3333333333333
140,68,37746,5,12,0:0:0:0:
260,156,37939,2,0,P|294:154|326:140,1,70
198,8,38326,2,0,L|176:4,1,23.3333333333333
136,28,38520,6,0,P|101:24|69:38,1,70,12|0,0:0|0:0,0:0:0:0:
0,88,38907,2,0,P|18:81|12:99,1,46.6666666666667
0,212,39294,6,0,P|65:235|133:224,1,140.000005340576,6|8,0:0|0:0,0:0:0:0:
164,208,39681,1,2,0:0:0:0:
472,48,40068,2,0,P|408:20|342:38,1,140.000005340576
260,152,40455,2,0,P|191:142|142:94,1,140.000005340576,4|0,0:0|0:0,0:0:0:0:
4,80,40842,6,0,P|103:74|151:161,1,210.000008010865,0|10,0:0|0:0,0:0:0:0:
456,312,41617,2,0,P|491:254|473:188,1,140.000005340576,0|8,0:0|0:0,0:0:0:0:
339,236,42004,2,0,P|305:194|358:203,1,140.000005340576,2|8,0:0|0:0,0:0:0:0:
358,204,42391,6,0,P|266:159|173:201,2,210.000008010865,0|2|0,0:0|0:0|0:0,0:0:0:0:
88,284,43423,1,0,0:0:0:0:
64,260,43552,2,0,P|45:194|81:136,1,140.000005340576,2|8,0:0|0:0,0:0:0:0:
188,120,43939,6,0,P|123:74|150:148,1,210.000008010865,0|2,0:0|0:0,0:0:0:0:
428,188,44584,1,0,0:0:0:0:
428,188,44713,2,0,P|452:252|429:317,1,140.000005340576,0|8,0:0|0:0,0:0:0:0:
308,252,45100,2,0,P|341:192|407:177,1,140.000005340576,2|8,0:0|0:0,0:0:0:0:
360,308,45488,6,0,P|308:352|240:344,1,140.000005340576
228,312,45875,1,2,0:0:0:0:
88,156,46133,1,0,0:0:0:0:
100,124,46262,2,0,P|165:105|223:141,1,140.000005340576
300,216,46649,2,0,P|335:158|317:92,1,140.000005340576,2|0,0:0|0:0,0:0:0:0:
180,64,47037,6,0,P|141:157|197:241,1,210.000008010865,0|2,0:0|0:0,0:0:0:0:
412,104,47810,2,0,P|430:169|394:227,1,140.000005340576
360,236,48197,1,2,0:0:0:0:
224,76,48455,1,8,0:0:0:0:
224,76,48584,6,0,P|151:99|227:110,1,210.000008010865,0|2,0:0|0:0,0:0:0:0:
436,136,49230,1,0,0:0:0:0:
436,136,49359,2,0,P|460:199|432:261,1,140.000005340576
244,244,49746,2,0,P|219:180|247:118,1,140.000005340576
408,136,50133,6,0,P|432:199|404:261,1,140.000005340576,8|0,0:0|0:0,0:0:0:0:
216,244,50520,2,0,P|191:180|219:118,1,140.000005340576,8|0,0:0|0:0,0:0:0:0:
380,136,50907,2,0,P|404:199|376:261,1,140.000005340576,8|0,0:0|0:0,0:0:0:0:
300,92,51294,1,8,0:0:0:0:
240,304,51552,1,8,0:0:0:0:
240,304,51681,6,0,B|288:244|244:200|244:200|164:176|144:88|220:52|284:124,1,280,12|0,0:0|0:0,0:0:0:0:
292,140,52326,1,0,0:0:0:0:
292,140,52455,2,0,P|210:180|122:156,1,186.666666666667
83,187,52842,2,0,P|78:100|157:61,1,186.666666666667
288,285,53230,6,0,P|393:208|344:88,1,280,2|0,0:0|0:0,0:0:0:0:
264,136,53875,1,0,0:0:0:0:
292,172,54004,2,0,P|380:187|448:127,1,186.666666666667
452,80,54391,2,0,P|377:131|372:221,1,186.666666666667
384,268,54778,6,0,P|403:139|284:89,1,280,8|0,0:0|0:0,0:0:0:0:
224,160,55423,1,0,0:0:0:0:
224,159,55552,2,0,P|163:192|95:183,1,140
20,112,56197,1,0,0:0:0:0:
20,112,56326,6,0,P|4:80|2:46,1,70.0000026702882,8|0,0:0|0:0,0:0:0:0:
157,14,56713,2,0,P|172:45|174:79,1,70.0000026702882,8|0,0:0|0:0,0:0:0:0:
20,112,57100,2,0,P|22:77|37:46,1,70.0000026702882,8|0,0:0|0:0,0:0:0:0:
157,14,57488,1,2,0:0:0:0:
160,224,57746,1,0,0:0:0:0:
220,272,57875,6,0,P|351:263|389:137,1,280,12|2,0:0|0:0,0:0:0:0:
264,56,58520,1,0,0:0:0:0:
228,120,58649,2,0,P|138:129|77:63,1,186.666666666667
132,12,59036,2,0,P|149:99|82:158,1,186.666666666667
77,63,59423,6,0,P|202:21|285:124,1,280,12|2,0:0|0:0,0:0:0:0:
210,130,60068,1,0,0:0:0:0:
284,122,60197,2,0,P|343:189|324:277,1,186.666666666667
398,221,60584,2,0,P|311:199|250:264,1,186.666666666667
256,300,60971,2,0,P|400:297|252:120,1,513.333333333333,2|0,0:0|0:0,0:0:0:0:
240,124,62520,2,0,P|150:114|107:35,1,186.666666666667,2|0,0:0|0:0,0:0:0:0:
40,7,63939,1,2,0:0:0:0:
40,7,64068,6,0,B|-58:11|-55:104|-55:104|20:79|51:138,1,280,12|0,0:0|0:0,0:0:0:0:
124,269,64713,1,0,0:0:0:0:
124,269,64842,2,0,P|212:293|294:253,1,186.666666666667
348,177,65229,2,0,P|435:172|473:252,1,186.666666666667
288,265,65617,6,0,P|238:144|343:67,1,280,2|0,0:0|0:0,0:0:0:0:
488,233,66262,1,0,0:0:0:0:
460,197,66391,2,0,P|372:182|304:242,1,186.666666666667
300,289,66778,2,0,P|375:238|380:148,1,186.666666666667
192,113,67165,6,0,P|173:242|292:292,1,280,10|0,0:0|0:0,0:0:0:0:
144,345,67810,1,0,0:0:0:0:
144,345,67939,2,0,P|131:300|152:257,1,93.3333333333333
378,128,68326,2,0,P|346:106|348:145,1,93.3333333333333
492,273,68713,6,0,P|508:305|510:339,1,70.0000026702882,10|0,0:0|0:0,0:0:0:0:
355,371,69100,2,0,P|340:340|338:306,1,70.0000026702882,8|0,0:0|0:0,0:0:0:0:
474,339,69487,2,0,P|490:307|492:273,1,70.0000026702882,10|0,0:0|0:0,0:0:0:0:
355,371,69875,1,2,0:0:0:0:
352,161,70133,1,0,0:0:0:0:
292,113,70262,6,0,P|161:122|123:248,1,280,12|2,0:0|0:0,0:0:0:0:
248,329,70907,1,0,0:0:0:0:
284,265,71036,2,0,P|373:255|434:321,1,186.666666666667
380,373,71423,2,0,P|362:285|429:226,1,186.666666666667
434,321,71810,6,0,P|309:362|226:260,1,280,12|2,0:0|0:0,0:0:0:0:
302,255,72455,1,0,0:0:0:0:
225,259,72584,2,0,P|165:191|184:103,1,186.666666666667
113,163,72971,2,0,P|199:184|261:120,1,186.666666666667
340,176,73359,6,0,P|272:189|229:243,1,140,8|8,0:0|0:0,0:0:0:0:
328,212,74133,2,0,P|293:211|261:226,1,70,8|8,0:0|0:0,0:0:0:0:
320,244,74907,2,0,P|296:242|274:250,1,46.6666666666667,8|8,0:0|0:0,0:0:0:0:
244,320,75552,1,0,0:0:0:0:
244,320,75681,2,0,P|267:321|287:331,1,46.6666666666667,8|8,0:0|0:0,0:0:0:0:
286,330,89229,6,0,P|294:284|282:239,1,93.3333333333333
248,208,89616,1,0,0:0:0:0:
159,239,89874,1,0,0:0:0:0:
159,239,90003,2,0,P|112:241|72:220,1,93.3333333333333,0|2,0:0|0:0,0:0:0:0:
60,176,90390,5,0,0:0:0:0:
143,43,90777,2,0,P|189:42|230:63,1,93.3333333333333
252,104,91164,1,0,0:0:0:0:
244,196,91422,1,0,0:0:0:0:
244,196,91551,2,0,P|289:201|333:184,1,93.3333333333333,0|2,0:0|0:0,0:0:0:0:
356,144,91938,5,0,0:0:0:0:
494,316,92325,2,0,L|472:312,1,23.3333333333333
300,368,92584,2,0,P|277:372|254:368,1,46.6666666666667
96,208,92971,2,0,B|115:193|115:193|129:175,1,46.6666666666667
164,232,93164,2,0,B|164:198|164:198|140:162,1,70
84,228,93487,5,8,0:0:0:0:
140,68,93745,1,0,0:0:0:0:
140,68,93874,2,0,B|176:60|176:60|208:67,2,70,0|0|10,0:0|0:0|0:0,0:0:0:0:
192,232,94454,1,0,0:0:0:0:
12,196,94648,2,0,B|13:242|13:242|38:281,1,93.3333333333333
212,291,95035,6,0,P|235:227|210:164,1,140,12|0,0:0|0:0,0:0:0:0:
120,136,95680,1,0,0:0:0:0:
120,136,95809,2,0,P|95:174|103:220,1,93.3333333333333
209,164,96196,2,0,P|256:163|295:187,1,93.3333333333333,2|0,0:0|0:0,0:0:0:0:
280,288,96584,6,0,P|347:286|390:233,1,140
295,187,97229,1,0,0:0:0:0:
295,187,97358,2,0,P|249:192|207:172,1,93.3333333333333
304,264,97745,2,0,P|330:286|296:279,1,93.3333333333333,2|0,0:0|0:0,0:0:0:0:
172,180,98132,6,0,B|224:120|260:144|360:136|379:166|304:240|288:104,1,280
363,36,99164,2,0,B|397:27|397:27|431:36,2,70
304,180,99680,1,8,0:0:0:0:
304,180,99938,2,0,B|269:180|269:180|239:163,2,70
464,104,100454,1,10,0:0:0:0:
420,252,100713,1,0,0:0:0:0:
420,252,100842,2,0,B|374:248|374:248|333:270,1,93.3333333333333,0|8,0:0|0:0,0:0:0:0:
312,284,101229,1,12,0:0:0:0:
376,176,101616,2,0,P|320:216|251:220,1,140
180,64,102261,1,0,0:0:0:0:
180,64,102390,6,0,P|217:28|269:19,2,105.000004005432,0|2|0,0:0|0:0|0:0,0:0:0:0:
404,120,103422,1,0,0:0:0:0:
404,120,103551,2,0,P|410:85|402:52,1,70.0000026702882
328,145,103938,2,0,P|299:165|265:170,1,70.0000026702882
265,170,104325,5,2,0:0:0:0:
96,248,104583,1,0,0:0:0:0:
96,248,104712,2,0,P|115:219|143:199,1,70.0000026702882
204,52,105099,2,0,P|170:58|141:77,1,70.0000026702882
204,244,105486,2,0,P|239:245|271:231,1,70.0000026702882
388,118,105874,6,0,P|389:169|352:205,1,105.000004005432,2|4,0:0|0:0,0:0:0:0:
232,284,106519,1,8,0:0:0:0:
388,320,106648,2,0,B|364:223|364:223|392:156|392:156|388:116,1,210.000008010865,4|12,0:0|0:0,0:0:0:0:
144,123,107422,6,0,P|126:172|141:221,2,105.000004005432
339,268,108454,1,0,0:0:0:0:
339,268,108583,6,0,P|390:259|428:224,1,105.000004005432,8|2,0:0|0:0,0:0:0:0:
412,124,109228,2,0,P|404:140|402:157,1,35.0000013351441
220,104,109615,1,0,0:0:0:0:
220,104,109744,2,0,P|212:71|219:36,1,70.0000026702882
320,164,110131,2,0,P|291:184|257:189,1,70.0000026702882,0|8,0:0|0:0,0:0:0:0:
224,184,110518,5,0,0:0:0:0:
96,100,110776,1,0,0:0:0:0:
96,100,110905,2,0,P|68:120|50:150,1,70.0000026702882
400,332,111551,1,0,0:0:0:0:
400,332,111679,2,0,P|435:332|467:319,1,70.0000026702882,0|2,0:0|0:0,0:0:0:0:
328,344,112067,6,0,P|366:309|374:258,1,105.000004005432,8|4,0:0|0:0,0:0:0:0:
0,233,112712,2,0,P|0:250|4:267,1,35.0000013351441,4|8,0:0|0:0,0:0:0:0:
280,152,113099,1,12,0:0:0:0:
344,96,113228,2,0,L|350:61,1,35.0000013351441
4,267,113615,5,12,2:2:0:0:
192,32,114002,1,0,0:0:0:0:
304,116,114260,1,0,0:0:0:0:
304,116,114389,1,0,0:0:0:0:
432,64,114647,1,0,0:0:0:0:
192,32,115035,1,0,0:0:0:0:
192,32,115163,5,8,0:0:0:0:
416,44,115421,1,0,0:0:0:0:
208,119,115744,1,0,0:0:0:0:
140,156,115938,2,0,P|131:189|139:223,1,70.0000026702882
320,304,116325,2,0,P|323:269|309:237,1,70.0000026702882
309,237,116712,5,8,0:0:0:0:
152,140,117099,1,8,0:0:0:0:
152,140,117615,2,0,P|136:144|92:144,2,52.5000020027161
164,136,118067,6,0,P|198:131|230:143,1,70,2|0,0:0|0:0,0:0:0:0:
300,224,118713,2,0,P|329:223|352:216,1,46.6666666666667
288,188,119229,2,0,P|268:201|256:220,1,46.6666666666667,2|8,0:0|0:0,0:0:0:0:
255,220,120196,2,0,P|254:174|225:137,1,93.3333333333333,8|0,0:0|0:0,0:0:0:0:
204,132,120584,1,8,0:0:0:0:
360,147,120841,2,0,P|316:199|316:268,1,140
332,284,121357,5,4,0:0:0:0:
472,272,121744,1,0,0:0:0:0:
360,360,122131,1,2,0:0:0:0:
452,380,122389,1,0,0:0:0:0:
492,351,122518,2,0,P|491:305|469:265,1,93.3333333333333
448,260,122905,1,8,0:0:0:0:
448,260,123679,1,8,0:0:0:0:
384,328,123938,1,0,0:0:0:0:
384,328,124067,1,0,0:0:0:0:
384,160,124325,1,0,0:0:0:0:
363,131,124454,6,0,P|357:63|407:18,1,140.000005340576,8|0,0:0|0:0,0:0:0:0:
440,36,124841,1,8,0:0:0:0:
324,56,125099,1,0,0:0:0:0:
324,56,125228,2,0,P|233:38|149:75,1,186.666666666667,8|2,0:0|0:0,0:0:0:0:
184,103,125615,2,0,P|140:45|211:60,1,186.666666666667,8|0,0:0|0:0,0:0:0:0:
244,148,126002,5,10,0:0:0:0:
180,272,126389,1,2,0:0:0:0:
232,140,126776,1,2,0:0:0:0:
404,288,127034,1,2,0:0:0:0:
404,288,127163,2,0,P|469:225|463:134,1,186.666666666667,0|2,0:0|0:0,0:0:0:0:
322,172,127550,6,0,P|351:46|480:52,2,280,2|2|2,0:0|0:0|0:0,0:0:0:0:
440,292,128583,1,2,0:0:0:0:
407,324,128712,2,0,P|316:335|231:299,1,186.666666666667,2|0,0:0|0:0,0:0:0:0:
276,304,129099,6,0,P|275:174|148:147,1,280,2|2,0:0|0:0,0:0:0:0:
0,224,129744,2,0,P|1:177|-19:136,1,93.3333333333333,2|2,0:0|0:0,0:0:0:0:
107,99,130131,2,0,P|86:140|87:186,1,93.3333333333333,2|2,0:0|0:0,0:0:0:0:
407,324,130647,5,10,0:0:0:0:
216,343,131034,1,2,0:0:0:0:
28,292,131292,1,2,0:0:0:0:
28,292,131421,2,0,P|118:294|179:227,1,186.666666666667,0|2,0:0|0:0,0:0:0:0:
180,228,131809,2,0,P|259:249|261:168,1,186.666666666667,0|2,0:0|0:0,0:0:0:0:
264,32,132196,6,0,L|307:16,1,46.6666666666667,8|0,0:0|0:0,0:0:0:0:
147,207,132583,1,2,0:0:0:0:
92,152,132841,1,2,0:0:0:0:
147,207,132970,2,0,B|197:223|197:223|195:207|195:207|252:228|310:204,1,186.666666666667,0|2,0:0|0:0,0:0:0:0:
400,175,133358,2,0,P|402:85|338:20,1,186.666666666667,0|2,0:0|0:0,0:0:0:0:
338,20,133744,5,8,0:0:0:0:
311,207,134131,1,2,0:0:0:0:
200,120,134518,1,2,0:0:0:0:
184,212,134776,1,2,0:0:0:0:
184,212,134905,2,0,P|277:203|354:256,1,186.666666666667,0|2,0:0|0:0,0:0:0:0:
344,248,135292,5,8,0:0:0:0:
196,300,135550,1,2,0:0:0:0:
188,296,135679,1,0,0:0:0:0:
320,328,135938,1,2,0:0:0:0:
328,324,136067,1,0,0:0:0:0:
132,360,136454,1,2,0:0:0:0:
272,224,136712,1,2,0:0:0:0:
280,228,136841,5,8,0:0:0:0:
136,336,137228,1,2,0:0:0:0:
188,184,137486,1,2,0:0:0:0:
180,180,137615,1,8,0:0:0:0:
168,24,137873,1,10,0:0:0:0:
168,24,138002,2,0,P|122:26|91:59,1,93.3333333333333,2|0,0:0|0:0,0:0:0:0:
274,83,138389,6,0,B|226:143|270:187|270:187|350:211|370:299|294:335|230:263,1,280,12|0,0:0|0:0,0:0:0:0:
222,247,139034,1,0,0:0:0:0:
222,247,139163,2,0,P|304:207|392:231,1,186.666666666667
468,200,139550,2,0,P|473:287|394:326,1,186.666666666667
226,102,139938,6,0,P|121:179|170:299,1,280,2|0,0:0|0:0,0:0:0:0:
250,251,140583,1,0,0:0:0:0:
222,215,140712,2,0,P|134:200|66:260,1,186.666666666667
108,320,141099,2,0,P|183:269|188:179,1,186.666666666667
64,184,141486,6,0,P|45:313|164:363,1,280,8|0,0:0|0:0,0:0:0:0:
290,227,142131,1,0,0:0:0:0:
290,228,142260,2,0,P|351:195|419:204,1,140
494,275,142905,1,0,0:0:0:0:
494,275,143034,6,0,P|510:307|512:341,1,70.0000026702882,8|0,0:0|0:0,0:0:0:0:
357,373,143421,2,0,P|342:342|340:308,1,70.0000026702882,8|0,0:0|0:0,0:0:0:0:
494,275,143808,2,0,P|492:310|477:341,1,70.0000026702882,8|0,0:0|0:0,0:0:0:0:
357,373,144196,1,2,0:0:0:0:
354,163,144454,1,0,0:0:0:0:
280,108,144583,6,0,P|149:117|111:243,1,280,12|2,0:0|0:0,0:0:0:0:
250,331,145228,1,0,0:0:0:0:
286,267,145357,2,0,P|376:258|437:324,1,186.666666666667
382,375,145744,2,0,P|365:288|432:229,1,186.666666666667
512,300,146131,6,0,P|387:342|304:239,1,280,12|2,0:0|0:0,0:0:0:0:
191,108,146776,1,0,0:0:0:0:
191,108,146905,2,0,P|171:196|231:264,1,186.666666666667
116,166,147292,2,0,P|203:188|264:123,1,186.666666666667
180,32,147679,6,0,P|36:35|48:148,1,280,2|0,0:0|0:0,0:0:0:0:
156,328,148712,2,0,P|132:327|111:318,1,46.6666666666667
216,240,149034,2,0,L|246:229,1,23.3333333333333
274,263,149228,2,0,P|364:273|404:356,1,186.666666666667,2|0,0:0|0:0,0:0:0:0:
404,352,150389,1,0,0:0:0:0:
480,372,150647,1,2,0:0:0:0:
480,372,150776,6,0,B|578:368|575:275|575:275|500:300|468:239,1,280,12|0,0:0|0:0,0:0:0:0:
390,119,151421,1,0,0:0:0:0:
390,119,151550,2,0,P|302:95|220:135,1,186.666666666667
166,211,151937,2,0,P|79:216|41:136,1,186.666666666667
288,48,152325,6,0,P|338:169|233:246,1,280,2|0,0:0|0:0,0:0:0:0:
26,155,152970,1,0,0:0:0:0:
54,191,153099,2,0,P|142:205|210:145,1,186.666666666667
204,32,153486,2,0,P|129:83|123:173,1,186.666666666667
311,322,153873,6,0,P|330:193|211:143,1,280,10|0,0:0|0:0,0:0:0:0:
432,112,154518,1,0,0:0:0:0:
432,112,154647,2,0,P|445:157|424:200,1,93.3333333333333
136,260,155034,2,0,P|168:282|166:243,1,93.3333333333333
22,115,155421,6,0,P|6:83|4:49,1,70.0000026702882,14|0,0:0|0:0,0:0:0:0:
159,17,155808,2,0,P|174:48|176:82,1,70.0000026702882,8|0,0:0|0:0,0:0:0:0:
40,49,156195,2,0,P|24:81|22:115,1,70.0000026702882,14|0,0:0|0:0,0:0:0:0:
159,17,156583,1,2,0:0:0:0:
162,227,156841,1,0,0:0:0:0:
240,280,156970,6,0,P|371:271|409:145,1,280,12|2,0:0|0:0,0:0:0:0:
266,59,157615,1,0,0:0:0:0:
230,123,157744,2,0,P|141:133|80:67,1,186.666666666667
134,15,158131,2,0,P|152:103|85:162,1,186.666666666667
287,128,158518,6,0,P|204:26|79:67,1,280,12|2,0:0|0:0,0:0:0:0:
396,112,159163,1,0,0:0:0:0:
396,112,159292,2,0,P|421:197|367:269,1,186.666666666667
264,372,159679,2,0,P|325:307|412:328,1,186.666666666667
184,308,160067,6,0,P|252:295|295:241,1,140,8|8,0:0|0:0,0:0:0:0:
196,272,160841,2,0,P|226:269|266:245,1,70,8|8,0:0|0:0,0:0:0:0:
204,240,161615,2,0,P|228:241|254:233,1,46.6666666666667,8|8,0:0|0:0,0:0:0:0:
318,197,162389,2,0,P|329:194|340:194,1,23.3333333333333,8|8,0:0|0:0,0:0:0:0:
406,131,162776,2,0,P|418:130|434:125,1,23.3333333333333,8|8,0:0|0:0,0:0:0:0:
288,12,163163,5,8,0:0:0:0:
288,12,163743,2,0,P|287:27|292:44,1,23.3333333333333,2|0,0:0|0:0,0:0:0:0:
368,203,164324,2,0,P|367:238|362:273,1,70,2|0,0:0|0:0,0:0:0:0:
367,204,165872,6,0,P|369:157|353:114,1,93.3333333333333,2|0,0:0|0:0,0:0:0:0:
367,204,169033,6,0,P|378:201|389:196,1,23.3333333333333,2|0,0:0|0:0,0:0:0:0:
396,196,170195,6,0,P|402:169|413:194,1,70,2|0,0:0|0:0,0:0:0:0:
289,35,170711,1,2,0:0:0:0:
34,270,171421,6,0,P|56:277|80:275,1,46.6666666666667,2|0,0:0|0:0,0:0:0:0:
260,27,172066,2,0,P|294:26|327:38,1,70,2|0,0:0|0:0,0:0:0:0:
356,260,172840,6,0,P|298:256|248:285,1,116.666666666667,2|0,0:0|0:0,0:0:0:0:
288,220,174001,6,0,P|253:213|219:216,1,70,2|8,0:0|0:0,0:0:0:0:
335,295,174388,2,0,P|382:292|420:267,1,93.3333333333333
463,288,174775,2,0,P|468:219|423:168,1,140
488,104,175421,6,0,P|502:85|511:64,1,46.6666666666667
286,330,175937,6,0,P|294:284|282:239,1,93.3333333333333
248,208,176324,1,0,0:0:0:0:
112,248,176711,2,0,P|65:250|25:229,1,93.3333333333333,0|2,0:0|0:0,0:0:0:0:
13,185,177098,5,0,0:0:0:0:
143,43,177485,2,0,P|189:42|230:63,1,93.3333333333333
252,104,177872,1,0,0:0:0:0:
244,196,178259,2,0,P|289:201|333:184,1,93.3333333333333,0|2,0:0|0:0,0:0:0:0:
360,147,178646,6,0,P|424:144|444:206,1,140
300,368,179292,2,0,P|277:372|254:368,1,46.6666666666667
220,152,179679,1,0,0:0:0:0:
220,152,179808,2,0,P|239:194|233:239,1,93.3333333333333
208,276,180195,5,8,0:0:0:0:
140,68,180453,1,0,0:0:0:0:
140,68,180582,2,0,B|176:60|176:60|208:67,2,70,0|0|10,0:0|0:0|0:0,0:0:0:0:
192,232,181162,1,0,0:0:0:0:
12,196,181356,2,0,B|13:242|13:242|38:281,1,93.3333333333333
212,291,181743,6,0,P|235:227|210:164,1,140,12|0,0:0|0:0,0:0:0:0:
120,136,182388,1,0,0:0:0:0:
120,136,182517,2,0,P|95:174|103:220,1,93.3333333333333
209,164,182904,2,0,P|256:163|295:187,1,93.3333333333333,2|0,0:0|0:0,0:0:0:0:
280,288,183292,6,0,P|347:286|390:233,1,140
295,187,183937,1,0,0:0:0:0:
295,186,184066,2,0,P|249:191|207:171,1,93.3333333333333
304,264,184453,2,0,P|330:286|296:279,1,93.3333333333333,2|0,0:0|0:0,0:0:0:0:
172,180,184840,6,0,B|224:120|260:144|360:136|379:166|304:240|288:104,1,280
363,36,185872,2,0,P|397:27|428:36,1,46.6666666666667
432,120,186259,1,0,0:0:0:0:
420,108,186388,1,8,0:0:0:0:
304,180,186646,2,0,P|269:180|240:164,1,46.6666666666667
188,112,187033,1,0,0:0:0:0:
272,256,187162,2,0,P|313:234|359:239,1,93.3333333333333,6|0,0:0|0:0,0:0:0:0:
392,316,187550,2,0,P|460:316|511:267,1,140.000005340576,0|8,0:0|0:0,0:0:0:0:
484,188,187937,5,6,0:0:0:0:
480,208,188324,1,0,0:0:0:0:
476,228,188711,1,0,0:0:0:0:
348,336,188969,1,0,0:0:0:0:
268,308,189098,2,0,P|249:242|285:184,1,140.000005340576
336,252,189485,2,0,P|409:187|363:101,2,210.000008010865,2|0|0,0:0|0:0|0:0,0:0:0:0:
208,144,190517,1,0,0:0:0:0:
140,192,190646,2,0,P|73:210|6:193,1,140.000005340576
8,276,191033,6,0,P|81:211|35:125,1,210.000008010865,2|0,0:0|0:0,0:0:0:0:
56,376,191808,1,0,0:0:0:0:
220,340,192066,1,0,0:0:0:0:
220,340,192195,2,0,P|276:378|342:362,1,140.000005340576
292,296,192582,2,0,P|408:237|278:227,1,350.000013351441,2|0,0:0|0:0,0:0:0:0:
196,240,193356,2,0,B|196:176|244:108|244:108|200:140|196:176|132:208|67:194,1,350.000013351441,2|0,0:0|0:0,0:0:0:0:
67,194,194130,5,2,0:0:0:0:
132,276,194517,1,0,0:0:0:0:
28,292,194904,1,0,0:0:0:0:
188,336,195162,1,0,0:0:0:0:
227,328,195292,2,0,P|252:263|231:198,1,140.000005340576
320,136,195679,2,0,P|228:92|138:140,1,210.000008010865
32,368,196453,1,0,0:0:0:0:
24,128,196711,1,0,0:0:0:0:
44,164,196840,2,0,P|28:230|65:287,1,140.000005340576
140,324,197227,5,2,0:0:0:0:
140,324,197614,2,0,P|237:291|330:333,1,210.000008010865
488,276,198259,1,0,0:0:0:0:
488,276,198388,1,0,0:0:0:0:
488,276,198775,2,0,P|394:233|297:266,1,210.000008010865,2|0,0:0|0:0,0:0:0:0:
152,352,199421,1,0,0:0:0:0:
84,304,199550,2,0,P|67:236|84:169,1,140.000005340576,2|0,0:0|0:0,0:0:0:0:
152,120,199937,1,2,0:0:0:0:
152,120,200324,6,0,P|249:87|342:129,1,210.000008010865,2|0,0:0|0:0,0:0:0:0:
392,292,200969,1,0,0:0:0:0:
332,352,201098,2,0,P|264:369|197:352,1,140.000005340576
156,280,201485,2,0,P|230:209|332:208,1,210.000008010865
428,348,202130,1,0,0:0:0:0:
427,348,202259,2,0,P|445:282|408:224,1,140.000005340576
328,196,202646,1,0,0:0:0:0:
212,316,202904,1,0,0:0:0:0:
132,288,203033,2,0,P|115:220|132:153,1,140.000005340576
176,80,203421,6,0,P|273:47|366:89,1,210.000008010865,2|0,0:0|0:0,0:0:0:0:
436,244,204066,1,0,0:0:0:0:
436,244,204195,2,0,P|400:303|341:339,1,140.000005340576
196,292,204582,1,0,0:0:0:0:
196,292,204840,1,0,0:0:0:0:
236,308,204969,2,0,P|333:275|426:317,1,210.000008010865,2|0,0:0|0:0,0:0:0:0:
484,160,205614,1,0,0:0:0:0:
464,80,205743,2,0,P|406:41|337:34,1,140.000005340576,2|0,0:0|0:0,0:0:0:0:
176,152,206130,1,0,0:0:0:0:
152,132,206388,1,0,0:0:0:0:
256,124,206517,6,0,P|295:182|302:250,1,140.000005340576,2|0,0:0|0:0,0:0:0:0:
244,312,206904,1,0,0:0:0:0:
168,296,207162,1,0,0:0:0:0:
244,312,207292,2,0,P|306:281|346:225,1,140.000005340576
348,140,207679,1,0,0:0:0:0:
280,28,207937,1,0,0:0:0:0:
199,4,208066,2,0,P|140:39|112:102,1,140.000005340576
184,144,208453,2,0,P|201:210|169:270,1,140.000005340576
87,276,208840,2,0,P|106:341|167:372,1,140.000005340576
240,328,209227,1,0,0:0:0:0:
252,352,209485,1,0,0:0:0:0:
324,312,209614,6,0,P|340:244|323:177,1,140.000005340576,2|0,0:0|0:0,0:0:0:0:
252,136,210001,1,0,0:0:0:0:
252,136,210388,2,0,B|208:140|184:153|184:153|156:136|117:133,1,140.000005340576
118,133,210775,1,0,0:0:0:0:
236,36,211162,2,0,P|333:3|426:45,1,210.000008010865,2|0,0:0|0:0,0:0:0:0:
412,212,211808,1,0,0:0:0:0:
340,168,211937,2,0,P|271:181|218:225,1,140.000005340576,2|0,0:0|0:0,0:0:0:0:
236,308,212324,6,0,B|296:312|333:275|333:275|368:308|368:308|448:328,2,210.000008010865,2|4|8,0:0|0:0|0:0,0:0:0:0:
422,321,213485,1,0,0:0:0:0:
236,308,213743,1,0,0:0:0:0:
160,268,213872,2,0,P|143:200|160:133,1,140.000005340576
216,68,214259,6,0,P|313:35|406:77,1,210.000008010865,0|8,0:0|0:0,0:0:0:0:
452,324,215033,1,0,0:0:0:0:
304,244,215292,1,0,0:0:0:0:
232,288,215421,2,0,B|164:305|164:305|97:288,1,140.000005340576,8|0,0:0|0:0,0:0:0:0:
20,256,215808,6,0,P|-27:165|0:66,1,210.000008010865,0|8,0:0|0:0,0:0:0:0:
196,224,216582,2,0,P|212:156|195:89,1,140.000005340576
244,20,216969,2,0,P|312:3|379:20,1,140.000005340576
428,88,217356,5,0,0:0:0:0:
345,216,217614,1,0,0:0:0:0:
306,223,217743,1,8,0:0:0:0:
266,230,217872,1,0,0:0:0:0:
227,237,218001,1,0,0:0:0:0:
184,208,218130,2,0,B|252:191|252:191|385:240,1,210.000008010865,0|8,0:0|0:0,0:0:0:0:
244,332,218775,1,0,0:0:0:0:
244,332,218904,5,0,0:0:0:0:
28,204,219292,1,8,0:0:0:0:
240,72,219679,1,0,0:0:0:0:
28,204,219937,1,0,0:0:0:0:
100,164,220066,2,0,P|167:180|234:163,1,140.000005340576
304,120,220453,6,0,P|401:87|494:129,1,210.000008010865,0|8,0:0|0:0,0:0:0:0:
476,296,221098,1,0,0:0:0:0:
400,264,221227,2,0,P|383:196|400:129,1,140.000005340576
336,184,221614,2,0,P|268:201|201:184,1,140.000005340576
148,120,222001,5,0,0:0:0:0:
52,352,222388,1,8,0:0:0:0:
148,120,222775,2,0,P|216:103|283:120,1,140.000005340576
324,192,223162,1,8,0:0:0:0:
76,64,223550,5,0,0:0:0:0:
324,192,223937,2,0,B|307:124|307:124|324:57,1,140.000005340576,8|0,0:0|0:0,0:0:0:0:
404,32,224324,1,8,0:0:0:0:
160,4,224582,1,0,0:0:0:0:
160,4,224711,1,8,0:0:0:0:
176,332,225098,6,0,B|109:315|109:315|41:332,1,140.000005340576,4|0,0:0|0:0,0:0:0:0:
0,272,225485,1,0,0:0:0:0:
288,100,225872,2,0,B|356:83|356:83|423:100,1,140.000005340576
500,64,226259,1,8,0:0:0:0:
248,252,226517,1,0,0:0:0:0:
172,220,226646,6,0,B|139:123|139:123|185:25,1,210.000008010865
272,172,227292,1,0,0:0:0:0:
224,104,227421,2,0,B|152:88|152:88|87:104,1,140.000005340576
44,176,227808,1,8,0:0:0:0:
352,248,228066,1,0,0:0:0:0:
352,248,228195,6,0,B|364:144|364:144|352:32,1,210.000008010865
188,16,228840,1,0,0:0:0:0:
116,56,228969,2,0,B|116:94|99:123|99:123|112:142|116:191,1,140.000005340576
72,260,229356,2,0,P|139:242|206:259,1,140.000005340576,8|8,0:0|0:0,0:0:0:0:
496,272,230001,1,0,0:0:0:0:
496,272,230130,2,0,P|512:204|495:137,1,140.000005340576
428,88,230517,2,0,B|368:71|333:42|333:42|304:63|236:75,1,210.000008010865,0|8,0:0|0:0,0:0:0:0:
12,92,231162,6,0,B|4:48|4:48|12:-1,1,93.3333333333333,0|4,0:0|0:0,0:0:0:0:
104,132,231550,1,0,0:0:0:0:
164,192,231679,2,0,P|176:260|164:329,1,140.000005340576
104,272,232066,2,0,P|171:259|229:296,1,140.000005340576
300,340,232453,2,0,P|367:348|423:308,1,140.000005340576
372,244,232840,6,0,P|439:231|497:268,1,140.000005340576
423,308,233227,2,0,P|399:243|424:180,1,140
480,40,233872,1,0,0:0:0:0:
404,80,234001,2,0,P|335:91|267:75,1,140.000005340576
240,44,234388,5,0,0:0:0:0:
164,80,234646,1,0,0:0:0:0:
132,104,234775,2,0,B|144:154|144:154|120:204,1,105.000004005432
68,260,235421,1,0,0:0:0:0:
92,292,235550,2,0,P|94:240|63:198,2,105.000004005432
168,176,236582,6,0,L|172:124,1,46.6666666666667,0|2,0:0|0:0,0:0:0:0:
348,16,237098,1,2,0:0:0:0:
240,304,251421,6,0,B|288:244|244:200|244:200|164:176|144:88|220:52|284:124,1,280,12|0,0:0|0:0,0:0:0:0:
292,140,252066,1,0,0:0:0:0:
292,140,252195,2,0,P|210:180|122:156,1,186.666666666667
32,264,252582,2,0,P|27:177|106:138,1,186.666666666667
288,285,252970,6,0,P|393:208|344:88,1,280,2|0,0:0|0:0,0:0:0:0:
292,172,253615,1,0,0:0:0:0:
292,172,253744,2,0,P|380:187|448:127,1,186.666666666667
440,20,254131,2,0,P|365:71|360:161,1,186.666666666667
392,360,254518,6,0,P|411:231|292:181,1,280,8|0,0:0|0:0,0:0:0:0:
220,340,255163,1,0,0:0:0:0:
220,339,255292,2,0,P|159:372|91:363,1,140
20,112,255937,1,0,0:0:0:0:
20,112,256066,6,0,P|4:80|2:46,1,70.0000026702882,8|0,0:0|0:0,0:0:0:0:
157,14,256453,2,0,P|172:45|174:79,1,70.0000026702882,8|0,0:0|0:0,0:0:0:0:
20,112,256840,2,0,P|22:77|37:46,1,70.0000026702882,8|0,0:0|0:0,0:0:0:0:
157,14,257228,1,2,0:0:0:0:
284,236,257486,1,0,0:0:0:0:
344,284,257615,6,0,P|475:275|513:149,1,280,12|2,0:0|0:0,0:0:0:0:
228,120,258260,1,0,0:0:0:0:
228,120,258389,2,0,P|138:129|77:63,1,186.666666666667
180,16,258776,2,0,P|197:103|130:162,1,186.666666666667
328,60,259163,6,0,P|426:147|379:270,1,280,12|2,0:0|0:0,0:0:0:0:
291,171,259808,1,0,0:0:0:0:
291,171,259937,2,0,P|311:83|252:16,1,186.666666666667
398,221,260324,2,0,P|311:199|250:264,1,186.666666666667
256,300,260711,6,0,P|372:224|212:200,1,373.333333333333,2|0,0:0|0:0,0:0:0:0:
196,52,261872,2,0,P|241:52|270:87,1,93.3333333333333
240,124,262260,6,0,P|150:114|107:35,1,186.666666666667,2|0,0:0|0:0,0:0:0:0:
2,106,263421,2,0,P|24:101|48:104,1,46.6666666666667,2|2,0:0|0:0,0:0:0:0:
128,200,263808,6,0,L|139:197,3,11.6666666666667,8|0|0|0,0:0|0:0|0:0|0:0,0:0:0:0:
40,7,264195,6,0,B|-58:11|-55:104|-55:104|20:79|51:138,1,280,12|0,0:0|0:0,0:0:0:0:
124,268,264840,1,0,0:0:0:0:
124,268,264969,2,0,P|212:292|294:252,1,186.666666666667
348,176,265356,6,0,P|435:171|473:251,1,186.666666666667,8|0,0:0|0:0,0:0:0:0:
288,264,265744,2,0,P|238:143|343:66,1,280,10|0,0:0|0:0,0:0:0:0:
488,232,266389,1,0,0:0:0:0:
460,196,266518,2,0,P|372:181|304:241,1,186.666666666667
300,288,266905,6,0,P|375:237|380:147,1,186.666666666667,8|0,0:0|0:0,0:0:0:0:
192,112,267292,2,0,P|173:241|292:291,1,280,10|0,0:0|0:0,0:0:0:0:
144,344,267937,1,0,0:0:0:0:
144,344,268066,2,0,P|139:254|209:197,1,186.666666666667
337,122,268453,6,0,P|360:101|377:127,1,70.0000026702882,0|8,0:0|0:0,0:0:0:0:
492,272,268840,2,0,P|508:304|510:338,1,70.0000026702882,10|0,0:0|0:0,0:0:0:0:
355,370,269227,2,0,P|340:339|338:305,1,70.0000026702882,8|0,0:0|0:0,0:0:0:0:
474,338,269614,2,0,P|490:306|492:272,1,70.0000026702882,10|0,0:0|0:0,0:0:0:0:
355,370,270002,5,10,0:0:0:0:
352,160,270260,1,0,0:0:0:0:
292,112,270389,2,0,P|161:121|123:247,1,280,12|2,0:0|0:0,0:0:0:0:
248,328,271034,1,0,0:0:0:0:
284,264,271163,2,0,P|373:254|434:320,1,186.666666666667
380,372,271550,6,0,P|362:284|429:225,1,186.666666666667,8|0,0:0|0:0,0:0:0:0:
434,320,271937,2,0,P|309:361|226:259,1,280,12|2,0:0|0:0,0:0:0:0:
302,254,272582,1,0,0:0:0:0:
227,259,272711,2,0,P|167:191|186:103,1,186.666666666667
113,162,273098,6,0,P|199:183|261:119,1,186.666666666667,8|0,0:0|0:0,0:0:0:0:
312,220,273485,1,0,0:0:0:0:
444,120,273872,1,8,0:0:0:0:
336,144,274130,1,0,0:0:0:0:
336,144,274259,1,0,0:0:0:0:
252,288,274646,5,8,0:0:0:0:
88,248,275033,1,0,0:0:0:0:
4,324,275292,1,0,0:0:0:0:
4,324,275421,1,8,0:0:0:0:
208,232,275808,1,0,0:0:0:0:
312,100,276195,1,8,0:0:0:0:
