osu file format v14

[General]
AudioFilename: audio.mp3
AudioLeadIn: 0
PreviewTime: -1
Countdown: 1
SampleSet: Soft
StackLeniency: 1
Mode: 0
LetterboxInBreaks: 0
WidescreenStoryboard: 0

[Editor]
DistanceSpacing: 0.9
BeatDivisor: 8
GridSize: 4
TimelineZoom: 1

[Metadata]
Title:NEO JAPONISM - (Yunomi Remix)
TitleUnicode:NEO JAPONISM - 夢際のパラレル (Yunomi Remix)
Artist:[J-Pop]
ArtistUnicode:[J-Pop]
Creator:RamGuyy
Version:Insane
Source:
Tags:
BeatmapID:1607436
BeatmapSetID:764418

[Difficulty]
HPDrainRate:5
CircleSize:4
OverallDifficulty:6
ApproachRate:9
SliderMultiplier:1.8
SliderTickRate:2

[Events]
//Background and Video events
0,0,"174d223ad845b34d1224bf73c74dfe92.jpg",0,0
//Break Periods
//Storyboard Layer 0 (Background)
//Storyboard Layer 1 (Fail)
//Storyboard Layer 2 (Pass)
//Storyboard Layer 3 (Foreground)
//Storyboard Sound Samples

[TimingPoints]
1903.06896551724,689.655172413793,4,1,0,100,1,0
11628,-50,4,2,0,100,0,1
16227,-50,4,2,0,100,0,0
22781,-50,4,1,0,100,0,1
34281,-50,4,1,0,100,0,0
34711,-50,4,1,0,100,0,0
56737,-133.333333333333,4,2,0,100,0,0
62503,-100,4,2,0,100,0,0
78093,-50,4,2,0,100,0,0
79359,-50,4,2,0,100,0,1

[HitObjects]
148,112,408,6,0,L|224:240,1,140
240,264,1213,1,0,0:0:0:0:
304,272,1558,1,0,0:0:0:0:
364,232,1903,1,0,0:0:0:0:
368,216,2592,2,0,L|288:148,1,90
240,96,3109,1,0,0:0:0:0:
192,164,3282,1,0,0:0:0:0:
180,184,4489,1,0,0:0:0:0:
180,184,4575,2,0,P|248:264|248:264,1,90
280,280,5782,1,0,0:0:0:0:
280,280,5868,2,0,P|232:200|232:200,1,90
280,292,6816,2,0,L|236:216,1,60
256,196,7535,2,0,P|300:144|304:136,1,60
312,112,8224,2,0,L|260:24,1,90
144,64,8799,1,0,0:0:0:0:
256,192,9834,5,0,0:0:0:0:
240,236,10178,2,0,B|252:112|252:112|256:104,1,120
212,112,10868,1,0,0:0:0:0:
156,112,10983,1,0,0:0:0:0:
156,148,11098,2,0,L|156:208,1,60
156,232,11443,1,0,0:0:0:0:
212,324,11673,1,0,0:0:0:0:
244,272,11788,2,0,B|304:232|304:232|304:228,1,70
336,200,12018,1,0,0:0:0:0:
336,200,12132,2,0,L|360:116,1,70
360,88,12477,2,0,L|324:40,1,46.6666666666667
276,32,12822,2,0,L|176:28,1,93.3333333333333
208,64,13109,2,0,L|192:164,1,93.3333333333333
164,56,13857,1,0,0:0:0:0:
116,96,13972,1,0,0:0:0:0:
104,116,14316,1,0,0:0:0:0:
104,124,14431,2,0,L|80:272,1,140
116,284,15236,1,0,0:0:0:0:
156,300,15351,1,0,0:0:0:0:
200,300,15466,1,0,0:0:0:0:
232,292,15581,1,0,0:0:0:0:
268,264,15811,2,0,P|272:112|272:112,1,140
176,44,16270,1,0,0:0:0:0:
88,160,16615,1,0,0:0:0:0:
84,288,16960,1,0,0:0:0:0:
268,272,17420,1,0,0:0:0:0:
156,212,17765,1,0,0:0:0:0:
176,96,18109,1,0,0:0:0:0:
84,196,18454,1,0,0:0:0:0:
348,124,18799,1,0,0:0:0:0:
208,144,19144,1,0,0:0:0:0:
156,184,19489,1,0,0:0:0:0:
224,88,19834,2,0,L|132:160,1,93.3333333333333
136,240,20293,1,0,0:0:0:0:
144,264,20408,1,0,0:0:0:0:
156,280,20523,1,0,0:0:0:0:
168,296,20638,1,0,0:0:0:0:
200,312,20753,1,0,0:0:0:0:
232,320,20868,1,0,0:0:0:0:
264,320,20983,1,0,0:0:0:0:
296,300,21098,1,0,0:0:0:0:
320,272,21213,1,0,0:0:0:0:
332,236,21328,1,0,0:0:0:0:
328,208,21443,1,0,0:0:0:0:
320,184,21558,1,0,0:0:0:0:
168,104,21730,1,0,0:0:0:0:
284,24,21816,1,0,0:0:0:0:
244,192,22075,1,0,0:0:0:0:
108,192,22161,1,0,0:0:0:0:
376,108,22362,5,0,0:0:0:0:
288,216,22592,1,0,0:0:0:0:
120,132,22822,1,0,0:0:0:0:
272,236,23052,2,0,P|116:92|116:92,1,186.666666666667
328,60,23512,1,0,0:0:0:0:
400,184,23742,1,0,0:0:0:0:
208,228,23972,1,0,0:0:0:0:
104,132,24201,1,0,0:0:0:0:
216,64,24431,2,0,L|260:188,1,93.3333333333333
276,232,24891,1,0,0:0:0:0:
356,188,25006,1,0,0:0:0:0:
356,188,25121,2,0,L|376:0,1,186.666666666667
292,24,25696,1,0,0:0:0:0:
168,68,25954,1,0,0:0:0:0:
44,112,26213,1,0,0:0:0:0:
132,232,26500,2,0,L|236:208,1,90
300,324,26816,1,0,0:0:0:0:
276,248,27247,2,0,P|300:112|300:108,1,140
248,100,27650,1,0,0:0:0:0:
88,100,27880,1,0,0:0:0:0:
124,216,27995,2,0,L|264:72,1,186.666666666667
288,88,28569,6,0,P|352:152|352:152,1,46.6666666666667
324,168,28684,5,0,0:0:0:0:
324,176,28799,2,0,L|288:264,1,93.3333333333333
264,272,29259,1,0,0:0:0:0:
140,156,29489,1,0,0:0:0:0:
280,140,29719,1,0,0:0:0:0:
156,264,29949,1,0,0:0:0:0:
212,276,30178,2,0,L|212:92,1,140
244,120,30638,2,0,L|436:132,1,186.666666666667
384,48,31213,5,0,0:0:0:0:
432,172,31558,2,0,L|420:256,1,46.6666666666667
356,308,31816,1,0,0:0:0:0:
240,220,32247,1,0,0:0:0:0:
372,168,32477,1,0,0:0:0:0:
240,132,32707,1,0,0:0:0:0:
308,108,32937,1,0,0:0:0:0:
236,96,33167,2,0,L|208:304,2,186.666666666667
236,96,34201,1,0,0:0:0:0:
264,144,34316,2,0,L|304:116,2,46.6666666666667
396,112,34661,6,0,L|268:48,1,120
228,92,35006,2,0,L|364:176,1,120
320,200,35466,2,0,P|168:124|168:124,1,120
48,116,35811,1,0,0:0:0:0:
256,60,36040,1,0,0:0:0:0:
320,204,36155,1,0,0:0:0:0:
120,204,36385,1,0,0:0:0:0:
60,136,36558,2,0,L|188:128,1,120
244,136,37190,2,0,L|336:120,2,60
304,52,37506,2,0,L|308:300,1,240
424,312,38196,1,0,0:0:0:0:
400,176,38282,1,0,0:0:0:0:
280,276,38368,2,0,L|168:216,1,120
264,132,38684,1,0,0:0:0:0:
216,360,38914,1,0,0:0:0:0:
40,196,39259,1,0,0:0:0:0:
292,148,39489,1,0,0:0:0:0:
228,116,39719,2,0,L|232:288,1,120
320,200,40063,1,0,0:0:0:0:
172,176,40293,1,0,0:0:0:0:
296,120,40523,1,0,0:0:0:0:
216,96,40696,2,0,L|240:368,1,240
316,284,41443,2,0,L|368:184,1,60
372,168,41788,2,0,B|316:144|316:144|280:132,2,90
312,200,42075,2,0,B|176:220|176:220|176:232,2,120
256,160,42765,2,0,L|184:160,2,60
336,132,43109,1,0,0:0:0:0:
336,132,43282,1,0,0:0:0:0:
332,296,43454,2,0,L|336:112,1,180
288,108,44086,2,0,L|164:104,1,120
160,148,44431,2,0,L|144:272,1,120
220,280,44776,1,0,0:0:0:0:
332,168,45006,1,0,0:0:0:0:
148,124,45121,1,0,0:0:0:0:
88,264,45437,2,0,P|276:136|276:136,1,180
248,284,45868,1,0,0:0:0:0:
340,184,46040,1,0,0:0:0:0:
248,96,46270,1,0,0:0:0:0:
132,208,46385,1,0,0:0:0:0:
236,284,46615,1,0,0:0:0:0:
340,184,46845,1,0,0:0:0:0:
248,96,46960,1,0,0:0:0:0:
132,208,47190,1,0,0:0:0:0:
244,196,47420,1,0,0:0:0:0:
244,196,47650,1,0,0:0:0:0:
256,108,47851,1,0,0:0:0:0:
252,312,48109,1,0,0:0:0:0:
252,208,48454,2,0,B|248:36|256:84,2,120
240,232,49259,2,0,P|256:88|256:88,1,120
228,228,49949,1,0,0:0:0:0:
248,92,50178,1,0,0:0:0:0:
248,92,50293,2,0,B|396:96|396:96|416:96,2,120
248,92,51213,2,0,L|240:268,1,120
264,300,51558,2,0,L|384:128,1,180
316,128,52075,2,0,L|176:128,1,120
184,164,52592,2,0,L|176:256,1,60
260,256,52822,1,0,0:0:0:0:
348,176,53052,1,0,0:0:0:0:
232,112,53282,1,0,0:0:0:0:
164,152,53454,2,0,L|156:316,1,120
212,304,53742,1,0,0:0:0:0:
212,304,53857,2,0,L|296:96,1,180
156,116,54316,1,0,0:0:0:0:
64,200,54575,6,0,B|440:200|440:200,1,360
452,224,55437,5,0,0:0:0:0:
452,224,55696,1,0,0:0:0:0:
456,228,55954,1,0,0:0:0:0:
456,228,56213,1,0,0:0:0:0:
456,228,56472,1,0,0:0:0:0:
432,192,56816,2,0,L|208:188,1,180
232,152,58224,2,0,L|84:72,1,157.500006008148
68,148,59259,1,0,0:0:0:0:
64,240,59489,1,0,0:0:0:0:
144,252,59604,1,0,0:0:0:0:
144,252,59719,2,0,B|208:192|208:192|256:148,1,151.875005793572
292,44,60782,1,0,0:0:0:0:
352,136,61098,2,0,B|416:224|416:224|416:224,1,90.0000034332277
332,172,62592,2,0,P|180:172|180:172,1,135.000005149842
184,116,63512,1,0,0:0:0:0:
304,48,63972,1,0,0:0:0:0:
304,208,64431,1,0,0:0:0:0:
120,208,64776,1,0,0:0:0:0:
288,68,65121,1,0,0:0:0:0:
180,72,65466,1,0,0:0:0:0:
172,72,65696,2,0,L|208:176,1,90
368,216,66213,1,0,0:0:0:0:
160,280,66385,1,0,0:0:0:0:
316,292,66730,2,0,L|304:48,1,225.000008583069
204,76,68196,1,0,0:0:0:0:
144,168,68339,1,0,0:0:0:0:
228,256,68569,1,0,0:0:0:0:
292,256,68684,2,0,L|280:80,1,157.5
352,52,69575,1,0,0:0:0:0:
452,176,69949,1,0,0:0:0:0:
360,264,70293,1,0,0:0:0:0:
264,288,70696,2,0,L|264:104,1,180
208,52,71558,2,0,L|80:116,1,120
116,168,72132,1,0,0:0:0:0:
116,168,72247,2,0,L|200:272,1,120
264,264,72937,2,0,L|300:68,1,180
164,56,73799,1,0,0:0:0:0:
60,148,74316,1,0,0:0:0:0:
240,220,74489,1,0,0:0:0:0:
264,112,74834,1,0,0:0:0:0:
160,72,75265,1,0,0:0:0:0:
52,160,75696,1,0,0:0:0:0:
276,248,76040,1,0,0:0:0:0:
280,108,76385,1,0,0:0:0:0:
176,72,76730,1,0,0:0:0:0:
328,288,77075,1,0,0:0:0:0:
140,304,77420,1,0,0:0:0:0:
368,140,77765,1,0,0:0:0:0:
176,96,78109,1,0,0:0:0:0:
204,192,78224,2,0,L|264:192,8,60
96,60,79489,6,0,L|160:184,1,120
100,256,79834,1,0,0:0:0:0:
192,176,80092,2,0,L|268:12,1,180
267,12,80609,1,0,0:0:0:0:
364,112,80954,1,0,0:0:0:0:
336,204,81299,1,0,0:0:0:0:
96,184,81644,1,0,0:0:0:0:
264,80,81989,1,0,0:0:0:0:
112,48,82334,1,0,0:0:0:0:
176,188,82765,1,0,0:0:0:0:
292,76,83109,1,0,0:0:0:0:
84,104,83454,1,0,0:0:0:0:
204,44,83627,2,0,L|212:240,1,180
120,276,84058,1,0,0:0:0:0:
232,332,84316,1,0,0:0:0:0:
316,252,84431,1,0,0:0:0:0:
316,252,84546,2,0,L|328:68,1,180
352,44,85178,1,0,0:0:0:0:
260,64,85351,2,0,L|144:68,1,90
148,120,85926,2,0,L|120:248,1,120
200,240,86615,1,0,0:0:0:0:
260,204,86845,1,0,0:0:0:0:
328,108,87305,1,0,0:0:0:0:
312,56,87650,1,0,0:0:0:0:
264,64,87880,2,0,L|112:88,1,150
308,128,88627,1,0,0:0:0:0:
144,256,88972,1,0,0:0:0:0:
112,152,89144,1,0,0:0:0:0:
220,160,89403,1,0,0:0:0:0:
228,300,90092,1,0,0:0:0:0:
340,144,90753,1,0,0:0:0:0:
220,96,90983,2,0,L|256:296,1,180
284,284,91558,2,0,L|280:192,1,60
284,176,91903,2,0,L|192:68,1,120
180,292,92477,2,0,B|184:196|184:196|176:200,1,60
212,184,92822,2,0,L|304:64,1,120
312,100,93167,1,0,0:0:0:0:
312,100,93282,2,0,L|384:164,3,60
236,72,93972,1,0,0:0:0:0:
376,188,94201,1,0,0:0:0:0:
100,208,94316,1,0,0:0:0:0:
244,76,95006,1,0,0:0:0:0:
232,324,95265,1,0,0:0:0:0:
336,212,95782,1,0,0:0:0:0:
252,76,96155,1,0,0:0:0:0:
152,196,96500,1,0,0:0:0:0:
208,276,96615,2,0,P|208:32|208:32,1,240
252,32,97305,2,0,P|336:192|340:192,1,180
344,184,97765,1,0,0:0:0:0:
344,184,97880,2,0,L|324:-16,1,180
240,28,98339,2,0,L|76:116,1,180
88,176,98799,2,0,L|176:288,1,120
228,284,99259,2,0,L|220:196,1,60
228,168,99374,2,0,L|220:100,1,60
224,32,99575,1,0,0:0:0:0:
240,48,99661,1,0,0:0:0:0:
272,72,99747,1,0,0:0:0:0:
280,96,99834,1,0,0:0:0:0:
288,128,99920,1,0,0:0:0:0:
276,164,100006,1,0,0:0:0:0:
264,204,100092,1,0,0:0:0:0:
272,228,100178,1,0,0:0:0:0:
284,268,100265,1,0,0:0:0:0:
304,288,100351,1,0,0:0:0:0:
324,312,100437,1,0,0:0:0:0:
344,320,100523,1,0,0:0:0:0:
372,328,100609,1,0,0:0:0:0:
384,328,100696,1,0,0:0:0:0:
