osu file format v14

[General]
AudioFilename: audio.mp3
AudioLeadIn: 0
PreviewTime: 17679
Countdown: 0
SampleSet: Soft
StackLeniency: 0.7
Mode: 3
LetterboxInBreaks: 0
SpecialStyle: 0
WidescreenStoryboard: 0

[Editor]
DistanceSpacing: 1
BeatDivisor: 4
GridSize: 4
TimelineZoom: 2.2

[Metadata]
Title:Padoru (Extended Mix)
TitleUnicode:Padoru (Extended Mix)
Artist:[Hardcore] AkiraHira
ArtistUnicode:[Hardcore] AkiraHira
Creator:Xyzeria-sama
Version:PADORU
Source:
Tags:Alchemyxia-sama Onta_Bekasi
BeatmapID:1878174
BeatmapSetID:899111

[Difficulty]
HPDrainRate:8
CircleSize:4
OverallDifficulty:8
ApproachRate:5
SliderMultiplier:1.4
SliderTickRate:1

[Events]
//Background and Video events
0,0,"43032894_315386119047117_1182595959283922763_n.jpg",0,0
//Break Periods
//Storyboard Layer 0 (Background)
//Storyboard Layer 1 (Fail)
//Storyboard Layer 2 (Pass)
//Storyboard Layer 3 (Foreground)
//Storyboard Sound Samples

[TimingPoints]
204,291.26213592233,4,2,0,1,1,0
18862,-100,4,2,0,1,0,1
37501,-100,4,2,0,1,0,0
65460,-100,4,2,0,1,0,1
102738,-100,4,2,0,1,0,0

[HitObjects]
448,192,204,5,0,0:0:0:0:
448,192,495,1,0,0:0:0:0:
448,192,786,1,0,0:0:0:0:
448,192,1077,1,0,0:0:0:0:
448,192,1369,1,0,0:0:0:0:
448,192,1660,1,0,0:0:0:0:
448,192,1951,1,0,0:0:0:0:
448,192,2242,1,0,0:0:0:0:
320,192,2388,1,0,0:0:0:0:
192,192,2534,1,0,0:0:0:0:
320,192,2679,1,0,0:0:0:0:
64,192,2825,1,0,0:0:0:0:
64,192,3116,1,0,0:0:0:0:
64,192,3407,1,0,0:0:0:0:
64,192,3699,1,0,0:0:0:0:
64,192,3990,1,0,0:0:0:0:
64,192,4281,1,0,0:0:0:0:
192,192,4427,1,0,0:0:0:0:
320,192,4572,1,0,0:0:0:0:
192,192,4645,1,0,0:0:0:0:
320,192,4718,1,0,0:0:0:0:
320,192,4864,1,0,0:0:0:0:
320,192,5155,1,0,0:0:0:0:
320,192,5446,1,0,0:0:0:0:
320,192,5737,1,0,0:0:0:0:
320,192,6029,1,0,0:0:0:0:
320,192,6320,1,0,0:0:0:0:
320,192,6611,1,0,0:0:0:0:
320,192,6903,1,0,0:0:0:0:
192,192,7048,1,0,0:0:0:0:
64,192,7194,1,0,0:0:0:0:
320,192,7339,1,0,0:0:0:0:
192,192,7485,1,0,0:0:0:0:
192,192,7776,1,0,0:0:0:0:
192,192,8068,1,0,0:0:0:0:
192,192,8359,1,0,0:0:0:0:
192,192,8650,1,0,0:0:0:0:
192,192,8941,1,0,0:0:0:0:
64,192,8941,128,0,9233:0:0:0:0:
320,192,9233,1,0,0:0:0:0:
192,192,9305,1,0,0:0:0:0:
448,192,9378,1,0,0:0:0:0:
320,192,9524,1,0,0:0:0:0:
64,192,9524,1,0,0:0:0:0:
192,192,9670,1,0,0:0:0:0:
320,192,9815,1,0,0:0:0:0:
448,192,9815,1,0,0:0:0:0:
192,192,9961,1,0,0:0:0:0:
320,192,10106,1,0,0:0:0:0:
64,192,10106,1,0,0:0:0:0:
448,192,10252,1,0,0:0:0:0:
192,192,10398,1,0,0:0:0:0:
320,192,10398,1,0,0:0:0:0:
320,192,10543,1,0,0:0:0:0:
64,192,10689,1,0,0:0:0:0:
448,192,10689,1,0,0:0:0:0:
192,192,10835,1,0,0:0:0:0:
320,192,10980,1,0,0:0:0:0:
448,192,10980,1,0,0:0:0:0:
192,192,11126,1,0,0:0:0:0:
192,192,11271,1,0,0:0:0:0:
64,192,11271,1,0,0:0:0:0:
320,192,11417,1,0,0:0:0:0:
64,192,11563,1,0,0:0:0:0:
448,192,11563,1,0,0:0:0:0:
192,192,11708,1,0,0:0:0:0:
448,192,11854,1,0,0:0:0:0:
320,192,11854,1,0,0:0:0:0:
192,192,12000,1,0,0:0:0:0:
320,192,12145,1,0,0:0:0:0:
64,192,12145,1,0,0:0:0:0:
192,192,12291,1,0,0:0:0:0:
64,192,12435,1,0,0:0:0:0:
448,192,12435,1,0,0:0:0:0:
320,192,12582,1,0,0:0:0:0:
192,192,12728,1,0,0:0:0:0:
64,192,12728,1,0,0:0:0:0:
320,192,12873,1,0,0:0:0:0:
192,192,13019,1,0,0:0:0:0:
448,192,13019,1,0,0:0:0:0:
64,192,13165,1,0,0:0:0:0:
320,192,13310,1,0,0:0:0:0:
192,192,13310,1,0,0:0:0:0:
448,192,13456,1,0,0:0:0:0:
448,192,13600,1,0,0:0:0:0:
448,192,13747,1,0,0:0:0:0:
448,192,13891,1,0,0:0:0:0:
448,192,14038,1,0,0:0:0:0:
448,192,14184,1,0,0:0:0:0:
448,192,14328,1,0,0:0:0:0:
448,192,14475,1,0,0:0:0:0:
448,192,14621,1,0,0:0:0:0:
448,192,14765,1,0,0:0:0:0:
448,192,14912,1,0,0:0:0:0:
448,192,15056,1,0,0:0:0:0:
448,192,15202,1,0,0:0:0:0:
448,192,15349,1,0,0:0:0:0:
448,192,15493,1,0,0:0:0:0:
448,192,15640,1,0,0:0:0:0:
448,192,15786,1,0,0:0:0:0:
448,192,15930,1,0,0:0:0:0:
448,192,16077,1,0,0:0:0:0:
448,192,16221,1,0,0:0:0:0:
448,192,16367,1,0,0:0:0:0:
320,192,16514,1,0,0:0:0:0:
192,192,16585,1,0,0:0:0:0:
320,192,16658,1,0,0:0:0:0:
192,192,16731,1,0,0:0:0:0:
320,192,16805,1,0,0:0:0:0:
192,192,16878,1,0,0:0:0:0:
320,192,16949,1,0,0:0:0:0:
192,192,17022,1,0,0:0:0:0:
320,192,17095,1,0,0:0:0:0:
192,192,17168,1,0,0:0:0:0:
320,192,17242,1,0,0:0:0:0:
192,192,17313,1,0,0:0:0:0:
320,192,17386,1,0,0:0:0:0:
192,192,17459,1,0,0:0:0:0:
320,192,17532,1,0,0:0:0:0:
192,192,17606,1,0,0:0:0:0:
320,192,17679,1,0,0:0:0:0:
64,192,17823,1,0,0:0:0:0:
192,192,17823,1,0,0:0:0:0:
320,192,17970,1,0,0:0:0:0:
448,192,17970,1,0,0:0:0:0:
64,192,18114,1,0,0:0:0:0:
192,192,18114,1,0,0:0:0:0:
320,192,18260,1,0,0:0:0:0:
192,192,18260,1,0,0:0:0:0:
448,192,18407,1,0,0:0:0:0:
320,192,18478,1,0,0:0:0:0:
192,192,18551,1,0,0:0:0:0:
64,192,18551,1,0,0:0:0:0:
64,192,18842,5,0,0:0:0:0:
448,192,18842,1,0,0:0:0:0:
320,192,18842,1,0,0:0:0:0:
192,192,18842,1,0,0:0:0:0:
320,192,18988,1,0,0:0:0:0:
64,192,19134,1,0,0:0:0:0:
192,192,19134,1,0,0:0:0:0:
192,192,19279,1,0,0:0:0:0:
448,192,19279,1,0,0:0:0:0:
320,192,19425,1,0,0:0:0:0:
192,192,19425,1,0,0:0:0:0:
64,192,19425,1,0,0:0:0:0:
448,192,19425,1,0,0:0:0:0:
320,192,19572,1,0,0:0:0:0:
64,192,19716,1,0,0:0:0:0:
448,192,19716,1,0,0:0:0:0:
320,192,19862,1,0,0:0:0:0:
192,192,19862,1,0,0:0:0:0:
192,192,20007,1,0,0:0:0:0:
64,192,20007,1,0,0:0:0:0:
448,192,20007,1,0,0:0:0:0:
320,192,20007,1,0,0:0:0:0:
320,192,20153,1,0,0:0:0:0:
64,192,20299,1,0,0:0:0:0:
448,192,20299,1,0,0:0:0:0:
192,192,20444,1,0,0:0:0:0:
64,192,20590,1,0,0:0:0:0:
192,192,20590,1,0,0:0:0:0:
320,192,20590,1,0,0:0:0:0:
448,192,20590,1,0,0:0:0:0:
320,192,20735,1,0,0:0:0:0:
64,192,20881,1,0,0:0:0:0:
448,192,20881,1,0,0:0:0:0:
192,192,21027,1,0,0:0:0:0:
448,192,21027,1,0,0:0:0:0:
64,192,21172,1,0,0:0:0:0:
320,192,21172,1,0,0:0:0:0:
448,192,21172,1,0,0:0:0:0:
192,192,21172,1,0,0:0:0:0:
192,192,21318,1,0,0:0:0:0:
64,192,21318,1,0,0:0:0:0:
320,192,21464,1,0,0:0:0:0:
448,192,21609,1,0,0:0:0:0:
192,192,21609,1,0,0:0:0:0:
64,192,21755,1,0,0:0:0:0:
192,192,21755,1,0,0:0:0:0:
320,192,21755,1,0,0:0:0:0:
448,192,21755,1,0,0:0:0:0:
320,192,21900,1,0,0:0:0:0:
64,192,22046,1,0,0:0:0:0:
192,192,22046,1,0,0:0:0:0:
448,192,22046,1,0,0:0:0:0:
192,192,22192,1,0,0:0:0:0:
64,192,22192,1,0,0:0:0:0:
320,192,22337,1,0,0:0:0:0:
448,192,22337,1,0,0:0:0:0:
64,192,22337,1,0,0:0:0:0:
320,192,22483,1,0,0:0:0:0:
448,192,22483,1,0,0:0:0:0:
64,192,22629,1,0,0:0:0:0:
192,192,22629,1,0,0:0:0:0:
448,192,22631,1,0,0:0:0:0:
192,192,22774,1,0,0:0:0:0:
64,192,22920,1,0,0:0:0:0:
192,192,22920,1,0,0:0:0:0:
320,192,22920,1,0,0:0:0:0:
448,192,22920,1,0,0:0:0:0:
192,192,23065,1,0,0:0:0:0:
448,192,23065,1,0,0:0:0:0:
320,192,23211,1,0,0:0:0:0:
64,192,23357,1,0,0:0:0:0:
192,192,23357,1,0,0:0:0:0:
320,192,23502,1,0,0:0:0:0:
448,192,23502,1,0,0:0:0:0:
192,192,23502,1,0,0:0:0:0:
64,192,23502,1,0,0:0:0:0:
320,192,23648,1,0,0:0:0:0:
448,192,23648,1,0,0:0:0:0:
64,192,23793,1,0,0:0:0:0:
192,192,23793,1,0,0:0:0:0:
64,192,23939,1,0,0:0:0:0:
320,192,23939,1,0,0:0:0:0:
448,192,23939,1,0,0:0:0:0:
64,192,24085,1,0,0:0:0:0:
192,192,24085,1,0,0:0:0:0:
320,192,24085,1,0,0:0:0:0:
448,192,24085,1,0,0:0:0:0:
192,192,24230,1,0,0:0:0:0:
64,192,24376,1,0,0:0:0:0:
320,192,24376,1,0,0:0:0:0:
448,192,24376,1,0,0:0:0:0:
320,192,24522,1,0,0:0:0:0:
192,192,24522,1,0,0:0:0:0:
64,192,24667,1,0,0:0:0:0:
192,192,24667,1,0,0:0:0:0:
320,192,24667,1,0,0:0:0:0:
448,192,24667,1,0,0:0:0:0:
64,192,24813,1,0,0:0:0:0:
448,192,24813,1,0,0:0:0:0:
320,192,24958,1,0,0:0:0:0:
192,192,24958,1,0,0:0:0:0:
64,192,24958,1,0,0:0:0:0:
320,192,25104,1,0,0:0:0:0:
448,192,25104,1,0,0:0:0:0:
64,192,25250,1,0,0:0:0:0:
192,192,25250,1,0,0:0:0:0:
320,192,25250,1,0,0:0:0:0:
448,192,25250,1,0,0:0:0:0:
320,192,25395,1,0,0:0:0:0:
64,192,25541,1,0,0:0:0:0:
192,192,25541,1,0,0:0:0:0:
192,192,25686,1,0,0:0:0:0:
448,192,25686,1,0,0:0:0:0:
320,192,25832,1,0,0:0:0:0:
192,192,25832,1,0,0:0:0:0:
64,192,25832,1,0,0:0:0:0:
448,192,25832,1,0,0:0:0:0:
320,192,25978,1,0,0:0:0:0:
64,192,26123,1,0,0:0:0:0:
448,192,26123,1,0,0:0:0:0:
320,192,26269,1,0,0:0:0:0:
192,192,26269,1,0,0:0:0:0:
192,192,26415,1,0,0:0:0:0:
64,192,26415,1,0,0:0:0:0:
448,192,26415,1,0,0:0:0:0:
320,192,26415,1,0,0:0:0:0:
320,192,26560,1,0,0:0:0:0:
64,192,26706,1,0,0:0:0:0:
448,192,26706,1,0,0:0:0:0:
192,192,26851,1,0,0:0:0:0:
64,192,26997,1,0,0:0:0:0:
192,192,26997,1,0,0:0:0:0:
320,192,26997,1,0,0:0:0:0:
448,192,26997,1,0,0:0:0:0:
320,192,27143,1,0,0:0:0:0:
64,192,27288,1,0,0:0:0:0:
448,192,27288,1,0,0:0:0:0:
192,192,27434,1,0,0:0:0:0:
448,192,27434,1,0,0:0:0:0:
64,192,27579,1,0,0:0:0:0:
320,192,27579,1,0,0:0:0:0:
448,192,27579,1,0,0:0:0:0:
192,192,27579,1,0,0:0:0:0:
192,192,27725,1,0,0:0:0:0:
64,192,27725,1,0,0:0:0:0:
320,192,27871,1,0,0:0:0:0:
448,192,28016,1,0,0:0:0:0:
192,192,28016,1,0,0:0:0:0:
64,192,28162,1,0,0:0:0:0:
192,192,28162,1,0,0:0:0:0:
320,192,28162,1,0,0:0:0:0:
448,192,28162,1,0,0:0:0:0:
320,192,28308,1,0,0:0:0:0:
64,192,28453,1,0,0:0:0:0:
192,192,28453,1,0,0:0:0:0:
448,192,28453,1,0,0:0:0:0:
192,192,28599,1,0,0:0:0:0:
64,192,28599,1,0,0:0:0:0:
320,192,28744,1,0,0:0:0:0:
448,192,28744,1,0,0:0:0:0:
192,192,28744,1,0,0:0:0:0:
64,192,28744,1,0,0:0:0:0:
320,192,28890,1,0,0:0:0:0:
448,192,28890,1,0,0:0:0:0:
64,192,29036,1,0,0:0:0:0:
320,192,29036,1,0,0:0:0:0:
192,192,29036,1,0,0:0:0:0:
192,192,29181,1,0,0:0:0:0:
64,192,29327,1,0,0:0:0:0:
192,192,29327,1,0,0:0:0:0:
320,192,29327,1,0,0:0:0:0:
448,192,29327,1,0,0:0:0:0:
320,192,29475,1,0,0:0:0:0:
64,192,29475,1,0,0:0:0:0:
192,192,29621,1,0,0:0:0:0:
448,192,29767,1,0,0:0:0:0:
64,192,29767,1,0,0:0:0:0:
320,192,29767,1,0,0:0:0:0:
64,192,29912,1,0,0:0:0:0:
192,192,29912,1,0,0:0:0:0:
320,192,29912,1,0,0:0:0:0:
448,192,29912,1,0,0:0:0:0:
320,192,30058,1,0,0:0:0:0:
448,192,30058,1,0,0:0:0:0:
64,192,30203,1,0,0:0:0:0:
192,192,30203,1,0,0:0:0:0:
64,192,30349,1,0,0:0:0:0:
320,192,30349,1,0,0:0:0:0:
448,192,30349,1,0,0:0:0:0:
64,192,30495,1,0,0:0:0:0:
192,192,30495,1,0,0:0:0:0:
320,192,30495,1,0,0:0:0:0:
448,192,30495,1,0,0:0:0:0:
192,192,30640,1,0,0:0:0:0:
64,192,30786,1,0,0:0:0:0:
320,192,30786,1,0,0:0:0:0:
448,192,30786,1,0,0:0:0:0:
320,192,30932,1,0,0:0:0:0:
192,192,30932,1,0,0:0:0:0:
64,192,31077,1,0,0:0:0:0:
192,192,31077,1,0,0:0:0:0:
320,192,31077,1,0,0:0:0:0:
448,192,31077,1,0,0:0:0:0:
64,192,31223,1,0,0:0:0:0:
448,192,31223,1,0,0:0:0:0:
320,192,31369,1,0,0:0:0:0:
192,192,31369,1,0,0:0:0:0:
64,192,31369,1,0,0:0:0:0:
320,192,31514,1,0,0:0:0:0:
448,192,31514,1,0,0:0:0:0:
64,192,31660,1,0,0:0:0:0:
192,192,31660,1,0,0:0:0:0:
320,192,31660,1,0,0:0:0:0:
448,192,31660,1,0,0:0:0:0:
320,192,31805,1,0,0:0:0:0:
64,192,31951,1,0,0:0:0:0:
192,192,31951,1,0,0:0:0:0:
192,192,32097,1,0,0:0:0:0:
448,192,32097,1,0,0:0:0:0:
320,192,32242,1,0,0:0:0:0:
192,192,32242,1,0,0:0:0:0:
64,192,32242,1,0,0:0:0:0:
448,192,32242,1,0,0:0:0:0:
320,192,32388,1,0,0:0:0:0:
448,192,32534,1,0,0:0:0:0:
64,192,32534,1,0,0:0:0:0:
192,192,32679,1,0,0:0:0:0:
320,192,32825,1,0,0:0:0:0:
448,192,32825,1,0,0:0:0:0:
64,192,32825,1,0,0:0:0:0:
192,192,32825,1,0,0:0:0:0:
320,192,32970,1,0,0:0:0:0:
448,192,33116,1,0,0:0:0:0:
64,192,33116,1,0,0:0:0:0:
448,192,33262,1,0,0:0:0:0:
192,192,33262,1,0,0:0:0:0:
448,192,33407,1,0,0:0:0:0:
192,192,33407,1,0,0:0:0:0:
64,192,33407,1,0,0:0:0:0:
320,192,33407,1,0,0:0:0:0:
64,192,33553,1,0,0:0:0:0:
192,192,33553,1,0,0:0:0:0:
320,192,33699,1,0,0:0:0:0:
192,192,33844,1,0,0:0:0:0:
448,192,33844,1,0,0:0:0:0:
320,192,33990,1,0,0:0:0:0:
448,192,33990,1,0,0:0:0:0:
64,192,33990,1,0,0:0:0:0:
192,192,33990,1,0,0:0:0:0:
64,192,34136,1,0,0:0:0:0:
320,192,34136,1,0,0:0:0:0:
192,192,34136,1,0,0:0:0:0:
320,192,34281,1,0,0:0:0:0:
448,192,34281,1,0,0:0:0:0:
192,192,34427,1,0,0:0:0:0:
64,192,34572,1,0,0:0:0:0:
192,192,34572,1,0,0:0:0:0:
448,192,34572,1,0,0:0:0:0:
320,192,34572,1,0,0:0:0:0:
448,192,34718,1,0,0:0:0:0:
64,192,34718,1,0,0:0:0:0:
192,192,34864,1,0,0:0:0:0:
192,192,35009,1,0,0:0:0:0:
320,192,35009,1,0,0:0:0:0:
448,192,35009,1,0,0:0:0:0:
320,192,35155,1,0,0:0:0:0:
448,192,35155,1,0,0:0:0:0:
192,192,35155,1,0,0:0:0:0:
64,192,35155,1,0,0:0:0:0:
448,192,35301,1,0,0:0:0:0:
320,192,35301,1,0,0:0:0:0:
192,192,35446,1,0,0:0:0:0:
320,192,35446,1,0,0:0:0:0:
64,192,35446,1,0,0:0:0:0:
192,192,35592,1,0,0:0:0:0:
320,192,35737,1,0,0:0:0:0:
448,192,35737,1,0,0:0:0:0:
64,192,35737,1,0,0:0:0:0:
192,192,35737,1,0,0:0:0:0:
320,192,35883,1,0,0:0:0:0:
64,192,36029,1,0,0:0:0:0:
192,192,36029,1,0,0:0:0:0:
192,192,36174,1,0,0:0:0:0:
320,192,36320,1,0,0:0:0:0:
448,192,36320,1,0,0:0:0:0:
320,192,36466,1,0,0:0:0:0:
448,192,36466,1,0,0:0:0:0:
320,192,36611,1,0,0:0:0:0:
448,192,36611,1,0,0:0:0:0:
320,192,36757,1,0,0:0:0:0:
448,192,36757,1,0,0:0:0:0:
320,192,36903,1,0,0:0:0:0:
448,192,36903,1,0,0:0:0:0:
192,192,37048,1,0,0:0:0:0:
64,192,37121,1,0,0:0:0:0:
320,192,37194,1,0,0:0:0:0:
448,192,37194,1,0,0:0:0:0:
192,192,37339,1,0,0:0:0:0:
320,192,37485,1,0,0:0:0:0:
448,192,37485,1,0,0:0:0:0:
64,192,37631,1,0,0:0:0:0:
448,192,37922,1,0,0:0:0:0:
320,192,37995,1,0,0:0:0:0:
192,192,38068,1,0,0:0:0:0:
64,192,38068,1,0,0:0:0:0:
320,192,38359,1,0,0:0:0:0:
448,192,38504,1,0,0:0:0:0:
192,192,38650,1,0,0:0:0:0:
64,192,38650,1,0,0:0:0:0:
448,192,38941,1,0,0:0:0:0:
192,192,39087,1,0,0:0:0:0:
320,192,39160,1,0,0:0:0:0:
64,192,39233,1,0,0:0:0:0:
448,192,39233,1,0,0:0:0:0:
320,192,39524,1,0,0:0:0:0:
64,192,39670,1,0,0:0:0:0:
192,192,39815,1,0,0:0:0:0:
320,192,39815,1,0,0:0:0:0:
192,192,40106,1,0,0:0:0:0:
64,192,40106,1,0,0:0:0:0:
320,192,40252,1,0,0:0:0:0:
192,192,40325,1,0,0:0:0:0:
64,192,40398,1,0,0:0:0:0:
448,192,40398,1,0,0:0:0:0:
320,192,40689,1,0,0:0:0:0:
192,192,40835,1,0,0:0:0:0:
64,192,40980,1,0,0:0:0:0:
448,192,40980,1,0,0:0:0:0:
320,192,41271,1,0,0:0:0:0:
64,192,41417,1,0,0:0:0:0:
192,192,41490,1,0,0:0:0:0:
448,192,41563,1,0,0:0:0:0:
320,192,41563,1,0,0:0:0:0:
320,192,41854,1,0,0:0:0:0:
192,192,42000,1,0,0:0:0:0:
448,192,42145,1,0,0:0:0:0:
64,192,42145,1,0,0:0:0:0:
192,192,42437,1,0,0:0:0:0:
320,192,42582,1,0,0:0:0:0:
448,192,42655,1,0,0:0:0:0:
192,192,42728,1,0,0:0:0:0:
64,192,42728,1,0,0:0:0:0:
320,192,43019,1,0,0:0:0:0:
192,192,43165,1,0,0:0:0:0:
448,192,43310,1,0,0:0:0:0:
64,192,43310,1,0,0:0:0:0:
192,192,43602,1,0,0:0:0:0:
320,192,43747,1,0,0:0:0:0:
192,192,43820,1,0,0:0:0:0:
64,192,43893,1,0,0:0:0:0:
448,192,43893,1,0,0:0:0:0:
192,192,44184,1,0,0:0:0:0:
320,192,44330,1,0,0:0:0:0:
64,192,44475,1,0,0:0:0:0:
192,192,44475,1,0,0:0:0:0:
320,192,44767,1,0,0:0:0:0:
448,192,44912,1,0,0:0:0:0:
320,192,44985,1,0,0:0:0:0:
192,192,45058,1,0,0:0:0:0:
64,192,45058,1,0,0:0:0:0:
192,192,45349,1,0,0:0:0:0:
320,192,45495,1,0,0:0:0:0:
64,192,45640,1,0,0:0:0:0:
448,192,45640,1,0,0:0:0:0:
192,192,45932,1,0,0:0:0:0:
192,192,46077,1,0,0:0:0:0:
192,192,46223,1,0,0:0:0:0:
320,192,46223,128,0,46514:0:0:0:0:
448,192,46514,128,0,46805:0:0:0:0:
64,192,46805,1,0,0:0:0:0:
192,192,46805,1,0,0:0:0:0:
320,192,46951,1,0,0:0:0:0:
64,192,47097,1,0,0:0:0:0:
448,192,47097,1,0,0:0:0:0:
192,192,47242,1,0,0:0:0:0:
320,192,47388,1,0,0:0:0:0:
448,192,47388,1,0,0:0:0:0:
192,192,47534,1,0,0:0:0:0:
320,192,47606,1,0,0:0:0:0:
64,192,47679,1,0,0:0:0:0:
192,192,47679,1,0,0:0:0:0:
448,192,47825,1,0,0:0:0:0:
192,192,47970,1,0,0:0:0:0:
320,192,47970,1,0,0:0:0:0:
320,192,48116,1,0,0:0:0:0:
64,192,48262,1,0,0:0:0:0:
448,192,48262,1,0,0:0:0:0:
192,192,48407,1,0,0:0:0:0:
320,192,48553,1,0,0:0:0:0:
448,192,48553,1,0,0:0:0:0:
192,192,48699,1,0,0:0:0:0:
320,192,48771,1,0,0:0:0:0:
192,192,48844,1,0,0:0:0:0:
64,192,48844,1,0,0:0:0:0:
320,192,48990,1,0,0:0:0:0:
64,192,49136,1,0,0:0:0:0:
448,192,49136,1,0,0:0:0:0:
192,192,49281,1,0,0:0:0:0:
448,192,49427,1,0,0:0:0:0:
320,192,49427,1,0,0:0:0:0:
192,192,49572,1,0,0:0:0:0:
320,192,49718,1,0,0:0:0:0:
64,192,49718,1,0,0:0:0:0:
192,192,49864,1,0,0:0:0:0:
320,192,49937,1,0,0:0:0:0:
64,192,50009,1,0,0:0:0:0:
448,192,50009,1,0,0:0:0:0:
320,192,50155,1,0,0:0:0:0:
192,192,50301,1,0,0:0:0:0:
64,192,50301,1,0,0:0:0:0:
320,192,50446,1,0,0:0:0:0:
448,192,50592,1,0,0:0:0:0:
192,192,50592,1,0,0:0:0:0:
64,192,50737,1,0,0:0:0:0:
320,192,50883,1,0,0:0:0:0:
192,192,50883,1,0,0:0:0:0:
448,192,51029,1,0,0:0:0:0:
320,192,51102,1,0,0:0:0:0:
64,192,51174,1,0,0:0:0:0:
192,192,51174,1,0,0:0:0:0:
192,192,51320,1,0,0:0:0:0:
320,192,51466,1,0,0:0:0:0:
448,192,51466,1,0,0:0:0:0:
192,192,51611,1,0,0:0:0:0:
64,192,51757,1,0,0:0:0:0:
448,192,51757,1,0,0:0:0:0:
320,192,51903,1,0,0:0:0:0:
192,192,52048,1,0,0:0:0:0:
448,192,52048,1,0,0:0:0:0:
320,192,52194,1,0,0:0:0:0:
192,192,52267,1,0,0:0:0:0:
64,192,52339,1,0,0:0:0:0:
320,192,52339,1,0,0:0:0:0:
448,192,52485,1,0,0:0:0:0:
192,192,52631,1,0,0:0:0:0:
320,192,52631,1,0,0:0:0:0:
64,192,52776,1,0,0:0:0:0:
320,192,52922,1,0,0:0:0:0:
448,192,52922,1,0,0:0:0:0:
192,192,53068,1,0,0:0:0:0:
64,192,53213,1,0,0:0:0:0:
320,192,53213,1,0,0:0:0:0:
448,192,53359,1,0,0:0:0:0:
320,192,53432,1,0,0:0:0:0:
192,192,53504,1,0,0:0:0:0:
64,192,53504,1,0,0:0:0:0:
320,192,53650,1,0,0:0:0:0:
64,192,53796,1,0,0:0:0:0:
448,192,53796,1,0,0:0:0:0:
192,192,53941,1,0,0:0:0:0:
64,192,54014,1,0,0:0:0:0:
320,192,54087,1,0,0:0:0:0:
448,192,54087,1,0,0:0:0:0:
192,192,54233,1,0,0:0:0:0:
64,192,54378,1,0,0:0:0:0:
320,192,54378,1,0,0:0:0:0:
448,192,54524,1,0,0:0:0:0:
64,192,54597,1,0,0:0:0:0:
320,192,54670,1,0,0:0:0:0:
192,192,54670,1,0,0:0:0:0:
448,192,54815,1,0,0:0:0:0:
64,192,54961,1,0,0:0:0:0:
320,192,54961,1,0,0:0:0:0:
192,192,55106,1,0,0:0:0:0:
64,192,55179,1,0,0:0:0:0:
320,192,55252,1,0,0:0:0:0:
448,192,55252,1,0,0:0:0:0:
64,192,55398,1,0,0:0:0:0:
448,192,55543,1,0,0:0:0:0:
192,192,55543,1,0,0:0:0:0:
64,192,55689,1,0,0:0:0:0:
192,192,55762,1,0,0:0:0:0:
320,192,55835,1,0,0:0:0:0:
448,192,55835,1,0,0:0:0:0:
64,192,55907,1,0,0:0:0:0:
192,192,55980,1,0,0:0:0:0:
64,192,56126,1,0,0:0:0:0:
320,192,56126,1,0,0:0:0:0:
192,192,56271,1,0,0:0:0:0:
448,192,56417,1,0,0:0:0:0:
320,192,56417,1,0,0:0:0:0:
192,192,56563,1,0,0:0:0:0:
64,192,56708,1,0,0:0:0:0:
320,192,56708,1,0,0:0:0:0:
448,192,56854,1,0,0:0:0:0:
320,192,57000,1,0,0:0:0:0:
192,192,57000,1,0,0:0:0:0:
320,192,57145,1,0,0:0:0:0:
448,192,57291,1,0,0:0:0:0:
64,192,57291,1,0,0:0:0:0:
192,192,57437,1,0,0:0:0:0:
448,192,57582,1,0,0:0:0:0:
320,192,57582,1,0,0:0:0:0:
192,192,57728,1,0,0:0:0:0:
64,192,57873,1,0,0:0:0:0:
192,192,57873,1,0,0:0:0:0:
320,192,58019,1,0,0:0:0:0:
448,192,58165,1,0,0:0:0:0:
64,192,58165,1,0,0:0:0:0:
192,192,58310,1,0,0:0:0:0:
320,192,58456,1,0,0:0:0:0:
448,192,58456,1,0,0:0:0:0:
192,192,58602,1,0,0:0:0:0:
64,192,58747,1,0,0:0:0:0:
320,192,58747,1,0,0:0:0:0:
192,192,58893,1,0,0:0:0:0:
448,192,59038,1,0,0:0:0:0:
64,192,59038,1,0,0:0:0:0:
320,192,59184,1,0,0:0:0:0:
64,192,59330,1,0,0:0:0:0:
192,192,59330,1,0,0:0:0:0:
320,192,59475,1,0,0:0:0:0:
448,192,59621,1,0,0:0:0:0:
192,192,59621,1,0,0:0:0:0:
64,192,59767,1,0,0:0:0:0:
192,192,59912,1,0,0:0:0:0:
320,192,59912,1,0,0:0:0:0:
64,192,60058,1,0,0:0:0:0:
448,192,60203,1,0,0:0:0:0:
448,192,60349,1,0,0:0:0:0:
448,192,60493,1,0,0:0:0:0:
448,192,60640,1,0,0:0:0:0:
448,192,60784,1,0,0:0:0:0:
448,192,60932,1,0,0:0:0:0:
448,192,61077,1,0,0:0:0:0:
448,192,61221,1,0,0:0:0:0:
448,192,61369,1,0,0:0:0:0:
448,192,61514,1,0,0:0:0:0:
448,192,61658,1,0,0:0:0:0:
448,192,61805,1,0,0:0:0:0:
448,192,61949,1,0,0:0:0:0:
448,192,62095,1,0,0:0:0:0:
448,192,62242,1,0,0:0:0:0:
448,192,62386,1,0,0:0:0:0:
448,192,62534,1,0,0:0:0:0:
448,192,62679,1,0,0:0:0:0:
448,192,62823,1,0,0:0:0:0:
448,192,62970,1,0,0:0:0:0:
320,192,63116,1,0,0:0:0:0:
192,192,63187,1,0,0:0:0:0:
320,192,63260,1,0,0:0:0:0:
192,192,63333,1,0,0:0:0:0:
320,192,63407,1,0,0:0:0:0:
192,192,63480,1,0,0:0:0:0:
320,192,63551,1,0,0:0:0:0:
192,192,63624,1,0,0:0:0:0:
320,192,63697,1,0,0:0:0:0:
192,192,63771,1,0,0:0:0:0:
320,192,63844,1,0,0:0:0:0:
192,192,63915,1,0,0:0:0:0:
320,192,63988,1,0,0:0:0:0:
192,192,64061,1,0,0:0:0:0:
320,192,64134,1,0,0:0:0:0:
192,192,64208,1,0,0:0:0:0:
320,192,64281,1,0,0:0:0:0:
192,192,64425,1,0,0:0:0:0:
64,192,64425,1,0,0:0:0:0:
448,192,64572,1,0,0:0:0:0:
320,192,64572,1,0,0:0:0:0:
192,192,64716,1,0,0:0:0:0:
64,192,64716,1,0,0:0:0:0:
192,192,64862,1,0,0:0:0:0:
320,192,64862,1,0,0:0:0:0:
448,192,65009,1,0,0:0:0:0:
320,192,65080,1,0,0:0:0:0:
64,192,65153,1,0,0:0:0:0:
192,192,65153,1,0,0:0:0:0:
64,192,65444,5,0,0:0:0:0:
320,192,65444,1,0,0:0:0:0:
192,192,65444,1,0,0:0:0:0:
448,192,65444,1,0,0:0:0:0:
320,192,65590,1,0,0:0:0:0:
192,192,65737,1,0,0:0:0:0:
64,192,65737,1,0,0:0:0:0:
448,192,65881,1,0,0:0:0:0:
192,192,65881,1,0,0:0:0:0:
64,192,66027,1,0,0:0:0:0:
448,192,66027,1,0,0:0:0:0:
320,192,66027,1,0,0:0:0:0:
192,192,66027,1,0,0:0:0:0:
320,192,66174,1,0,0:0:0:0:
448,192,66318,1,0,0:0:0:0:
64,192,66318,1,0,0:0:0:0:
192,192,66464,1,0,0:0:0:0:
320,192,66464,1,0,0:0:0:0:
448,192,66609,1,0,0:0:0:0:
320,192,66609,1,0,0:0:0:0:
192,192,66609,1,0,0:0:0:0:
64,192,66609,1,0,0:0:0:0:
320,192,66755,1,0,0:0:0:0:
448,192,66901,1,0,0:0:0:0:
64,192,66901,1,0,0:0:0:0:
192,192,67046,1,0,0:0:0:0:
320,192,67192,1,0,0:0:0:0:
448,192,67192,1,0,0:0:0:0:
64,192,67192,1,0,0:0:0:0:
192,192,67192,1,0,0:0:0:0:
320,192,67337,1,0,0:0:0:0:
448,192,67483,1,0,0:0:0:0:
64,192,67483,1,0,0:0:0:0:
448,192,67629,1,0,0:0:0:0:
192,192,67629,1,0,0:0:0:0:
448,192,67774,1,0,0:0:0:0:
192,192,67774,1,0,0:0:0:0:
64,192,67774,1,0,0:0:0:0:
320,192,67774,1,0,0:0:0:0:
64,192,67920,1,0,0:0:0:0:
192,192,67920,1,0,0:0:0:0:
320,192,68066,1,0,0:0:0:0:
192,192,68211,1,0,0:0:0:0:
448,192,68211,1,0,0:0:0:0:
320,192,68357,1,0,0:0:0:0:
448,192,68357,1,0,0:0:0:0:
64,192,68357,1,0,0:0:0:0:
192,192,68357,1,0,0:0:0:0:
320,192,68502,1,0,0:0:0:0:
448,192,68648,1,0,0:0:0:0:
192,192,68648,1,0,0:0:0:0:
64,192,68648,1,0,0:0:0:0:
64,192,68794,1,0,0:0:0:0:
192,192,68794,1,0,0:0:0:0:
64,192,68939,1,0,0:0:0:0:
448,192,68939,1,0,0:0:0:0:
320,192,68939,1,0,0:0:0:0:
448,192,69085,1,0,0:0:0:0:
320,192,69085,1,0,0:0:0:0:
192,192,69231,1,0,0:0:0:0:
64,192,69231,1,0,0:0:0:0:
448,192,69233,1,0,0:0:0:0:
192,192,69376,1,0,0:0:0:0:
320,192,69522,1,0,0:0:0:0:
448,192,69522,1,0,0:0:0:0:
64,192,69522,1,0,0:0:0:0:
192,192,69522,1,0,0:0:0:0:
448,192,69667,1,0,0:0:0:0:
192,192,69667,1,0,0:0:0:0:
320,192,69813,1,0,0:0:0:0:
192,192,69959,1,0,0:0:0:0:
64,192,69959,1,0,0:0:0:0:
192,192,70104,1,0,0:0:0:0:
64,192,70104,1,0,0:0:0:0:
320,192,70104,1,0,0:0:0:0:
448,192,70104,1,0,0:0:0:0:
448,192,70250,1,0,0:0:0:0:
320,192,70250,1,0,0:0:0:0:
192,192,70395,1,0,0:0:0:0:
64,192,70395,1,0,0:0:0:0:
448,192,70541,1,0,0:0:0:0:
320,192,70541,1,0,0:0:0:0:
64,192,70541,1,0,0:0:0:0:
320,192,70687,1,0,0:0:0:0:
448,192,70687,1,0,0:0:0:0:
64,192,70687,1,0,0:0:0:0:
192,192,70687,1,0,0:0:0:0:
192,192,70832,1,0,0:0:0:0:
448,192,70978,1,0,0:0:0:0:
320,192,70978,1,0,0:0:0:0:
64,192,70978,1,0,0:0:0:0:
192,192,71124,1,0,0:0:0:0:
320,192,71124,1,0,0:0:0:0:
320,192,71269,1,0,0:0:0:0:
448,192,71269,1,0,0:0:0:0:
64,192,71269,1,0,0:0:0:0:
192,192,71269,1,0,0:0:0:0:
448,192,71415,1,0,0:0:0:0:
64,192,71415,1,0,0:0:0:0:
64,192,71560,1,0,0:0:0:0:
192,192,71560,1,0,0:0:0:0:
320,192,71560,1,0,0:0:0:0:
448,192,71706,1,0,0:0:0:0:
320,192,71706,1,0,0:0:0:0:
320,192,71852,1,0,0:0:0:0:
448,192,71852,1,0,0:0:0:0:
64,192,71852,1,0,0:0:0:0:
192,192,71852,1,0,0:0:0:0:
320,192,71997,1,0,0:0:0:0:
192,192,72143,1,0,0:0:0:0:
64,192,72143,1,0,0:0:0:0:
448,192,72288,1,0,0:0:0:0:
192,192,72288,1,0,0:0:0:0:
64,192,72434,1,0,0:0:0:0:
448,192,72434,1,0,0:0:0:0:
320,192,72434,1,0,0:0:0:0:
192,192,72434,1,0,0:0:0:0:
320,192,72580,1,0,0:0:0:0:
448,192,72725,1,0,0:0:0:0:
64,192,72725,1,0,0:0:0:0:
192,192,72871,1,0,0:0:0:0:
320,192,72871,1,0,0:0:0:0:
448,192,73017,1,0,0:0:0:0:
320,192,73017,1,0,0:0:0:0:
192,192,73017,1,0,0:0:0:0:
64,192,73017,1,0,0:0:0:0:
320,192,73162,1,0,0:0:0:0:
448,192,73308,1,0,0:0:0:0:
64,192,73308,1,0,0:0:0:0:
192,192,73453,1,0,0:0:0:0:
320,192,73599,1,0,0:0:0:0:
448,192,73599,1,0,0:0:0:0:
64,192,73599,1,0,0:0:0:0:
192,192,73599,1,0,0:0:0:0:
320,192,73745,1,0,0:0:0:0:
448,192,73890,1,0,0:0:0:0:
64,192,73890,1,0,0:0:0:0:
448,192,74036,1,0,0:0:0:0:
192,192,74036,1,0,0:0:0:0:
448,192,74181,1,0,0:0:0:0:
192,192,74181,1,0,0:0:0:0:
64,192,74181,1,0,0:0:0:0:
320,192,74181,1,0,0:0:0:0:
64,192,74327,1,0,0:0:0:0:
192,192,74327,1,0,0:0:0:0:
320,192,74473,1,0,0:0:0:0:
192,192,74618,1,0,0:0:0:0:
448,192,74618,1,0,0:0:0:0:
320,192,74764,1,0,0:0:0:0:
448,192,74764,1,0,0:0:0:0:
64,192,74764,1,0,0:0:0:0:
192,192,74764,1,0,0:0:0:0:
320,192,74910,1,0,0:0:0:0:
448,192,75055,1,0,0:0:0:0:
192,192,75055,1,0,0:0:0:0:
64,192,75055,1,0,0:0:0:0:
64,192,75201,1,0,0:0:0:0:
192,192,75201,1,0,0:0:0:0:
192,192,75346,1,0,0:0:0:0:
64,192,75346,1,0,0:0:0:0:
320,192,75346,1,0,0:0:0:0:
448,192,75346,1,0,0:0:0:0:
448,192,75492,1,0,0:0:0:0:
320,192,75492,1,0,0:0:0:0:
192,192,75638,1,0,0:0:0:0:
320,192,75638,1,0,0:0:0:0:
64,192,75638,1,0,0:0:0:0:
192,192,75783,1,0,0:0:0:0:
320,192,75929,1,0,0:0:0:0:
448,192,75929,1,0,0:0:0:0:
64,192,75929,1,0,0:0:0:0:
192,192,75929,1,0,0:0:0:0:
64,192,76077,1,0,0:0:0:0:
320,192,76077,1,0,0:0:0:0:
192,192,76223,1,0,0:0:0:0:
320,192,76369,1,0,0:0:0:0:
64,192,76369,1,0,0:0:0:0:
448,192,76369,1,0,0:0:0:0:
320,192,76514,1,0,0:0:0:0:
448,192,76514,1,0,0:0:0:0:
64,192,76514,1,0,0:0:0:0:
192,192,76514,1,0,0:0:0:0:
448,192,76660,1,0,0:0:0:0:
320,192,76660,1,0,0:0:0:0:
192,192,76805,1,0,0:0:0:0:
64,192,76805,1,0,0:0:0:0:
448,192,76951,1,0,0:0:0:0:
320,192,76951,1,0,0:0:0:0:
64,192,76951,1,0,0:0:0:0:
320,192,77097,1,0,0:0:0:0:
448,192,77097,1,0,0:0:0:0:
64,192,77097,1,0,0:0:0:0:
192,192,77097,1,0,0:0:0:0:
192,192,77242,1,0,0:0:0:0:
448,192,77388,1,0,0:0:0:0:
320,192,77388,1,0,0:0:0:0:
64,192,77388,1,0,0:0:0:0:
192,192,77534,1,0,0:0:0:0:
320,192,77534,1,0,0:0:0:0:
320,192,77679,1,0,0:0:0:0:
448,192,77679,1,0,0:0:0:0:
64,192,77679,1,0,0:0:0:0:
192,192,77679,1,0,0:0:0:0:
448,192,77825,1,0,0:0:0:0:
64,192,77825,1,0,0:0:0:0:
64,192,77970,1,0,0:0:0:0:
192,192,77970,1,0,0:0:0:0:
320,192,77970,1,0,0:0:0:0:
448,192,78116,1,0,0:0:0:0:
320,192,78116,1,0,0:0:0:0:
320,192,78262,1,0,0:0:0:0:
448,192,78262,1,0,0:0:0:0:
64,192,78262,1,0,0:0:0:0:
192,192,78262,1,0,0:0:0:0:
320,192,78407,1,0,0:0:0:0:
192,192,78553,1,0,0:0:0:0:
64,192,78553,1,0,0:0:0:0:
448,192,78699,1,0,0:0:0:0:
192,192,78699,1,0,0:0:0:0:
64,192,78844,1,0,0:0:0:0:
448,192,78844,1,0,0:0:0:0:
320,192,78844,1,0,0:0:0:0:
192,192,78844,1,0,0:0:0:0:
320,192,78990,1,0,0:0:0:0:
64,192,79136,1,0,0:0:0:0:
448,192,79136,1,0,0:0:0:0:
192,192,79281,1,0,0:0:0:0:
64,192,79427,1,0,0:0:0:0:
192,192,79427,1,0,0:0:0:0:
320,192,79427,1,0,0:0:0:0:
448,192,79427,1,0,0:0:0:0:
320,192,79572,1,0,0:0:0:0:
64,192,79718,1,0,0:0:0:0:
448,192,79718,1,0,0:0:0:0:
192,192,79864,1,0,0:0:0:0:
448,192,79864,1,0,0:0:0:0:
64,192,80009,1,0,0:0:0:0:
320,192,80009,1,0,0:0:0:0:
448,192,80009,1,0,0:0:0:0:
192,192,80009,1,0,0:0:0:0:
192,192,80155,1,0,0:0:0:0:
64,192,80155,1,0,0:0:0:0:
320,192,80301,1,0,0:0:0:0:
448,192,80446,1,0,0:0:0:0:
192,192,80446,1,0,0:0:0:0:
64,192,80592,1,0,0:0:0:0:
192,192,80592,1,0,0:0:0:0:
320,192,80592,1,0,0:0:0:0:
448,192,80592,1,0,0:0:0:0:
192,192,80737,1,0,0:0:0:0:
320,192,80737,1,0,0:0:0:0:
64,192,80737,1,0,0:0:0:0:
448,192,80883,1,0,0:0:0:0:
320,192,80883,1,0,0:0:0:0:
192,192,81029,1,0,0:0:0:0:
448,192,81174,1,0,0:0:0:0:
320,192,81174,1,0,0:0:0:0:
64,192,81174,1,0,0:0:0:0:
192,192,81174,1,0,0:0:0:0:
64,192,81320,1,0,0:0:0:0:
448,192,81320,1,0,0:0:0:0:
192,192,81466,1,0,0:0:0:0:
448,192,81611,1,0,0:0:0:0:
320,192,81611,1,0,0:0:0:0:
192,192,81611,1,0,0:0:0:0:
192,192,81757,1,0,0:0:0:0:
64,192,81757,1,0,0:0:0:0:
320,192,81757,1,0,0:0:0:0:
448,192,81757,1,0,0:0:0:0:
320,192,81903,1,0,0:0:0:0:
448,192,81903,1,0,0:0:0:0:
64,192,82048,1,0,0:0:0:0:
320,192,82048,1,0,0:0:0:0:
192,192,82048,1,0,0:0:0:0:
192,192,82194,1,0,0:0:0:0:
64,192,82339,1,0,0:0:0:0:
192,192,82339,1,0,0:0:0:0:
320,192,82339,1,0,0:0:0:0:
448,192,82339,1,0,0:0:0:0:
320,192,82485,1,0,0:0:0:0:
192,192,82631,1,0,0:0:0:0:
64,192,82631,1,0,0:0:0:0:
192,192,82776,1,0,0:0:0:0:
448,192,82776,1,0,0:0:0:0:
448,192,82922,1,0,0:0:0:0:
320,192,82922,1,0,0:0:0:0:
192,192,82922,1,0,0:0:0:0:
64,192,82922,1,0,0:0:0:0:
64,192,83068,1,0,0:0:0:0:
192,192,83068,1,0,0:0:0:0:
320,192,83213,1,0,0:0:0:0:
192,192,83359,1,0,0:0:0:0:
448,192,83359,1,0,0:0:0:0:
320,192,83504,1,0,0:0:0:0:
448,192,83504,1,0,0:0:0:0:
64,192,83504,1,0,0:0:0:0:
192,192,83504,1,0,0:0:0:0:
320,192,83650,1,0,0:0:0:0:
448,192,83796,1,0,0:0:0:0:
192,192,83796,1,0,0:0:0:0:
64,192,83796,1,0,0:0:0:0:
64,192,83941,1,0,0:0:0:0:
192,192,83941,1,0,0:0:0:0:
64,192,84087,1,0,0:0:0:0:
448,192,84087,1,0,0:0:0:0:
320,192,84087,1,0,0:0:0:0:
448,192,84233,1,0,0:0:0:0:
320,192,84233,1,0,0:0:0:0:
192,192,84378,1,0,0:0:0:0:
64,192,84378,1,0,0:0:0:0:
448,192,84381,1,0,0:0:0:0:
192,192,84524,1,0,0:0:0:0:
320,192,84670,1,0,0:0:0:0:
448,192,84670,1,0,0:0:0:0:
64,192,84670,1,0,0:0:0:0:
192,192,84670,1,0,0:0:0:0:
448,192,84815,1,0,0:0:0:0:
192,192,84815,1,0,0:0:0:0:
320,192,84961,1,0,0:0:0:0:
192,192,85106,1,0,0:0:0:0:
64,192,85106,1,0,0:0:0:0:
192,192,85252,1,0,0:0:0:0:
64,192,85252,1,0,0:0:0:0:
320,192,85252,1,0,0:0:0:0:
448,192,85252,1,0,0:0:0:0:
448,192,85398,1,0,0:0:0:0:
320,192,85398,1,0,0:0:0:0:
192,192,85543,1,0,0:0:0:0:
64,192,85543,1,0,0:0:0:0:
448,192,85689,1,0,0:0:0:0:
320,192,85689,1,0,0:0:0:0:
64,192,85689,1,0,0:0:0:0:
320,192,85835,1,0,0:0:0:0:
448,192,85835,1,0,0:0:0:0:
64,192,85835,1,0,0:0:0:0:
192,192,85835,1,0,0:0:0:0:
192,192,85980,1,0,0:0:0:0:
448,192,86126,1,0,0:0:0:0:
320,192,86126,1,0,0:0:0:0:
64,192,86126,1,0,0:0:0:0:
192,192,86271,1,0,0:0:0:0:
320,192,86271,1,0,0:0:0:0:
320,192,86417,1,0,0:0:0:0:
448,192,86417,1,0,0:0:0:0:
64,192,86417,1,0,0:0:0:0:
192,192,86417,1,0,0:0:0:0:
320,192,86563,1,0,0:0:0:0:
64,192,86710,1,0,0:0:0:0:
192,192,86710,1,0,0:0:0:0:
192,192,86854,1,0,0:0:0:0:
448,192,86854,1,0,0:0:0:0:
320,192,87000,1,0,0:0:0:0:
192,192,87000,1,0,0:0:0:0:
64,192,87000,1,0,0:0:0:0:
448,192,87000,1,0,0:0:0:0:
320,192,87147,1,0,0:0:0:0:
64,192,87291,1,0,0:0:0:0:
448,192,87291,1,0,0:0:0:0:
320,192,87437,1,0,0:0:0:0:
192,192,87437,1,0,0:0:0:0:
192,192,87582,1,0,0:0:0:0:
64,192,87582,1,0,0:0:0:0:
448,192,87582,1,0,0:0:0:0:
320,192,87582,1,0,0:0:0:0:
320,192,87728,1,0,0:0:0:0:
64,192,87873,1,0,0:0:0:0:
448,192,87873,1,0,0:0:0:0:
192,192,88019,1,0,0:0:0:0:
64,192,88165,1,0,0:0:0:0:
192,192,88165,1,0,0:0:0:0:
320,192,88165,1,0,0:0:0:0:
448,192,88165,1,0,0:0:0:0:
320,192,88310,1,0,0:0:0:0:
64,192,88456,1,0,0:0:0:0:
448,192,88456,1,0,0:0:0:0:
192,192,88602,1,0,0:0:0:0:
448,192,88602,1,0,0:0:0:0:
64,192,88747,1,0,0:0:0:0:
320,192,88747,1,0,0:0:0:0:
448,192,88747,1,0,0:0:0:0:
192,192,88747,1,0,0:0:0:0:
192,192,88893,1,0,0:0:0:0:
64,192,88893,1,0,0:0:0:0:
320,192,89038,1,0,0:0:0:0:
448,192,89184,1,0,0:0:0:0:
192,192,89184,1,0,0:0:0:0:
64,192,89330,1,0,0:0:0:0:
192,192,89330,1,0,0:0:0:0:
320,192,89330,1,0,0:0:0:0:
448,192,89330,1,0,0:0:0:0:
320,192,89475,1,0,0:0:0:0:
64,192,89621,1,0,0:0:0:0:
192,192,89621,1,0,0:0:0:0:
448,192,89621,1,0,0:0:0:0:
192,192,89767,1,0,0:0:0:0:
64,192,89767,1,0,0:0:0:0:
320,192,89912,1,0,0:0:0:0:
448,192,89912,1,0,0:0:0:0:
64,192,89912,1,0,0:0:0:0:
320,192,90058,1,0,0:0:0:0:
448,192,90058,1,0,0:0:0:0:
64,192,90203,1,0,0:0:0:0:
192,192,90203,1,0,0:0:0:0:
448,192,90206,1,0,0:0:0:0:
192,192,90349,1,0,0:0:0:0:
64,192,90495,1,0,0:0:0:0:
192,192,90495,1,0,0:0:0:0:
320,192,90495,1,0,0:0:0:0:
448,192,90495,1,0,0:0:0:0:
192,192,90640,1,0,0:0:0:0:
448,192,90640,1,0,0:0:0:0:
320,192,90786,1,0,0:0:0:0:
64,192,90932,1,0,0:0:0:0:
192,192,90932,1,0,0:0:0:0:
320,192,91077,1,0,0:0:0:0:
448,192,91077,1,0,0:0:0:0:
192,192,91077,1,0,0:0:0:0:
64,192,91077,1,0,0:0:0:0:
320,192,91223,1,0,0:0:0:0:
448,192,91223,1,0,0:0:0:0:
64,192,91369,1,0,0:0:0:0:
192,192,91369,1,0,0:0:0:0:
64,192,91514,1,0,0:0:0:0:
320,192,91514,1,0,0:0:0:0:
448,192,91514,1,0,0:0:0:0:
64,192,91660,1,0,0:0:0:0:
192,192,91660,1,0,0:0:0:0:
320,192,91660,1,0,0:0:0:0:
448,192,91660,1,0,0:0:0:0:
192,192,91805,1,0,0:0:0:0:
64,192,91951,1,0,0:0:0:0:
320,192,91951,1,0,0:0:0:0:
448,192,91951,1,0,0:0:0:0:
320,192,92097,1,0,0:0:0:0:
192,192,92097,1,0,0:0:0:0:
64,192,92242,1,0,0:0:0:0:
192,192,92242,1,0,0:0:0:0:
320,192,92242,1,0,0:0:0:0:
448,192,92242,1,0,0:0:0:0:
64,192,92388,1,0,0:0:0:0:
448,192,92388,1,0,0:0:0:0:
320,192,92534,1,0,0:0:0:0:
192,192,92534,1,0,0:0:0:0:
64,192,92534,1,0,0:0:0:0:
320,192,92679,1,0,0:0:0:0:
448,192,92679,1,0,0:0:0:0:
64,192,92825,1,0,0:0:0:0:
192,192,92825,1,0,0:0:0:0:
320,192,92825,1,0,0:0:0:0:
448,192,92825,1,0,0:0:0:0:
320,192,92970,1,0,0:0:0:0:
64,192,93116,1,0,0:0:0:0:
192,192,93116,1,0,0:0:0:0:
192,192,93262,1,0,0:0:0:0:
448,192,93262,1,0,0:0:0:0:
320,192,93407,1,0,0:0:0:0:
192,192,93407,1,0,0:0:0:0:
64,192,93407,1,0,0:0:0:0:
448,192,93407,1,0,0:0:0:0:
320,192,93553,1,0,0:0:0:0:
64,192,93699,1,0,0:0:0:0:
448,192,93699,1,0,0:0:0:0:
320,192,93844,1,0,0:0:0:0:
192,192,93844,1,0,0:0:0:0:
192,192,93990,1,0,0:0:0:0:
64,192,93990,1,0,0:0:0:0:
448,192,93990,1,0,0:0:0:0:
320,192,93990,1,0,0:0:0:0:
320,192,94136,1,0,0:0:0:0:
448,192,94136,1,0,0:0:0:0:
64,192,94281,1,0,0:0:0:0:
192,192,94281,1,0,0:0:0:0:
64,192,94427,1,0,0:0:0:0:
320,192,94427,1,0,0:0:0:0:
448,192,94427,1,0,0:0:0:0:
64,192,94572,1,0,0:0:0:0:
192,192,94572,1,0,0:0:0:0:
320,192,94572,1,0,0:0:0:0:
448,192,94572,1,0,0:0:0:0:
192,192,94718,1,0,0:0:0:0:
64,192,94864,1,0,0:0:0:0:
320,192,94864,1,0,0:0:0:0:
448,192,94864,1,0,0:0:0:0:
320,192,95009,1,0,0:0:0:0:
192,192,95009,1,0,0:0:0:0:
64,192,95155,1,0,0:0:0:0:
192,192,95155,1,0,0:0:0:0:
320,192,95155,1,0,0:0:0:0:
448,192,95155,1,0,0:0:0:0:
64,192,95301,1,0,0:0:0:0:
448,192,95301,1,0,0:0:0:0:
320,192,95446,1,0,0:0:0:0:
192,192,95446,1,0,0:0:0:0:
64,192,95446,1,0,0:0:0:0:
320,192,95592,1,0,0:0:0:0:
448,192,95592,1,0,0:0:0:0:
64,192,95737,1,0,0:0:0:0:
192,192,95737,1,0,0:0:0:0:
320,192,95737,1,0,0:0:0:0:
448,192,95737,1,0,0:0:0:0:
320,192,95883,1,0,0:0:0:0:
64,192,96029,1,0,0:0:0:0:
192,192,96029,1,0,0:0:0:0:
192,192,96174,1,0,0:0:0:0:
448,192,96174,1,0,0:0:0:0:
320,192,96320,1,0,0:0:0:0:
192,192,96320,1,0,0:0:0:0:
64,192,96320,1,0,0:0:0:0:
448,192,96320,1,0,0:0:0:0:
320,192,96466,1,0,0:0:0:0:
448,192,96611,1,0,0:0:0:0:
64,192,96611,1,0,0:0:0:0:
192,192,96757,1,0,0:0:0:0:
320,192,96903,1,0,0:0:0:0:
448,192,96903,1,0,0:0:0:0:
64,192,96903,1,0,0:0:0:0:
192,192,96903,1,0,0:0:0:0:
320,192,97048,1,0,0:0:0:0:
448,192,97194,1,0,0:0:0:0:
64,192,97194,1,0,0:0:0:0:
448,192,97339,1,0,0:0:0:0:
192,192,97339,1,0,0:0:0:0:
448,192,97485,1,0,0:0:0:0:
192,192,97485,1,0,0:0:0:0:
64,192,97485,1,0,0:0:0:0:
320,192,97485,1,0,0:0:0:0:
64,192,97631,1,0,0:0:0:0:
192,192,97631,1,0,0:0:0:0:
320,192,97776,1,0,0:0:0:0:
192,192,97922,1,0,0:0:0:0:
448,192,97922,1,0,0:0:0:0:
320,192,98068,1,0,0:0:0:0:
448,192,98068,1,0,0:0:0:0:
64,192,98068,1,0,0:0:0:0:
192,192,98068,1,0,0:0:0:0:
64,192,98213,1,0,0:0:0:0:
320,192,98213,1,0,0:0:0:0:
192,192,98213,1,0,0:0:0:0:
320,192,98359,1,0,0:0:0:0:
448,192,98359,1,0,0:0:0:0:
192,192,98504,1,0,0:0:0:0:
64,192,98650,1,0,0:0:0:0:
192,192,98650,1,0,0:0:0:0:
448,192,98650,1,0,0:0:0:0:
320,192,98650,1,0,0:0:0:0:
448,192,98796,1,0,0:0:0:0:
64,192,98796,1,0,0:0:0:0:
192,192,98941,1,0,0:0:0:0:
192,192,99087,1,0,0:0:0:0:
320,192,99087,1,0,0:0:0:0:
448,192,99087,1,0,0:0:0:0:
320,192,99233,1,0,0:0:0:0:
448,192,99233,1,0,0:0:0:0:
192,192,99233,1,0,0:0:0:0:
64,192,99233,1,0,0:0:0:0:
448,192,99378,1,0,0:0:0:0:
320,192,99378,1,0,0:0:0:0:
192,192,99524,1,0,0:0:0:0:
320,192,99524,1,0,0:0:0:0:
64,192,99524,1,0,0:0:0:0:
192,192,99670,1,0,0:0:0:0:
320,192,99815,1,0,0:0:0:0:
448,192,99815,1,0,0:0:0:0:
64,192,99815,1,0,0:0:0:0:
192,192,99815,1,0,0:0:0:0:
320,192,99961,1,0,0:0:0:0:
64,192,100106,1,0,0:0:0:0:
192,192,100106,1,0,0:0:0:0:
448,192,100252,1,0,0:0:0:0:
192,192,100252,1,0,0:0:0:0:
192,192,100398,1,0,0:0:0:0:
64,192,100398,1,0,0:0:0:0:
448,192,100398,1,0,0:0:0:0:
320,192,100398,1,0,0:0:0:0:
192,192,100543,1,0,0:0:0:0:
64,192,100543,1,0,0:0:0:0:
320,192,100689,1,0,0:0:0:0:
448,192,100835,1,0,0:0:0:0:
192,192,100835,1,0,0:0:0:0:
64,192,100980,1,0,0:0:0:0:
192,192,100980,1,0,0:0:0:0:
320,192,100980,1,0,0:0:0:0:
448,192,100980,1,0,0:0:0:0:
320,192,101126,1,0,0:0:0:0:
64,192,101271,1,0,0:0:0:0:
192,192,101271,1,0,0:0:0:0:
448,192,101271,1,0,0:0:0:0:
192,192,101417,1,0,0:0:0:0:
64,192,101417,1,0,0:0:0:0:
320,192,101563,1,0,0:0:0:0:
448,192,101563,1,0,0:0:0:0:
64,192,101563,1,0,0:0:0:0:
320,192,101708,1,0,0:0:0:0:
448,192,101708,1,0,0:0:0:0:
320,192,101854,1,0,0:0:0:0:
448,192,101854,1,0,0:0:0:0:
320,192,102000,1,0,0:0:0:0:
448,192,102000,1,0,0:0:0:0:
320,192,102145,1,0,0:0:0:0:
448,192,102145,1,0,0:0:0:0:
192,192,102291,1,0,0:0:0:0:
64,192,102364,1,0,0:0:0:0:
320,192,102437,1,0,0:0:0:0:
448,192,102437,1,0,0:0:0:0:
192,192,102582,1,0,0:0:0:0:
64,192,102728,1,0,0:0:0:0:
320,192,102873,1,0,0:0:0:0:
192,192,103019,1,0,0:0:0:0:
320,192,103310,1,0,0:0:0:0:
320,192,103602,1,0,0:0:0:0:
192,192,103747,1,0,0:0:0:0:
64,192,103893,1,0,0:0:0:0:
192,192,104184,1,0,0:0:0:0:
192,192,104475,1,0,0:0:0:0:
320,192,105058,1,0,0:0:0:0:
192,192,105203,1,0,0:0:0:0:
64,192,105349,1,0,0:0:0:0:
448,192,105640,1,0,0:0:0:0:
448,192,105932,1,0,0:0:0:0:
192,192,106077,1,0,0:0:0:0:
320,192,106223,1,0,0:0:0:0:
320,192,106514,1,0,0:0:0:0:
320,192,106805,1,0,0:0:0:0:
64,192,107388,1,0,0:0:0:0:
320,192,107534,1,0,0:0:0:0:
192,192,107679,1,0,0:0:0:0:
192,192,107970,1,0,0:0:0:0:
320,192,108262,1,0,0:0:0:0:
448,192,108407,1,0,0:0:0:0:
64,192,108553,1,0,0:0:0:0:
64,192,108844,1,0,0:0:0:0:
64,192,109136,1,0,0:0:0:0:
320,192,109718,1,0,0:0:0:0:
192,192,109864,1,0,0:0:0:0:
320,192,110009,1,0,0:0:0:0:
320,192,110301,1,0,0:0:0:0:
448,192,110592,1,0,0:0:0:0:
64,192,110737,1,0,0:0:0:0:
192,192,110883,1,0,0:0:0:0:
448,192,111174,1,0,0:0:0:0:
448,192,111320,1,0,0:0:0:0:
320,192,111466,128,0,111757:0:0:0:0:
64,192,111757,128,0,112048:0:0:0:0:
192,192,112048,1,0,0:0:0:0:
320,192,112048,1,0,0:0:0:0:
448,192,112048,1,0,0:0:0:0:
320,192,112194,1,0,0:0:0:0:
192,192,112339,1,0,0:0:0:0:
64,192,112339,1,0,0:0:0:0:
448,192,112485,1,0,0:0:0:0:
192,192,112485,1,0,0:0:0:0:
64,192,112631,1,0,0:0:0:0:
448,192,112631,1,0,0:0:0:0:
320,192,112631,1,0,0:0:0:0:
192,192,112631,1,0,0:0:0:0:
320,192,112778,1,0,0:0:0:0:
448,192,112922,1,0,0:0:0:0:
64,192,112922,1,0,0:0:0:0:
192,192,113068,1,0,0:0:0:0:
320,192,113068,1,0,0:0:0:0:
448,192,113213,1,0,0:0:0:0:
320,192,113213,1,0,0:0:0:0:
192,192,113213,1,0,0:0:0:0:
64,192,113213,1,0,0:0:0:0:
320,192,113359,1,0,0:0:0:0:
448,192,113504,1,0,0:0:0:0:
64,192,113504,1,0,0:0:0:0:
192,192,113650,1,0,0:0:0:0:
320,192,113796,1,0,0:0:0:0:
448,192,113796,1,0,0:0:0:0:
64,192,113796,1,0,0:0:0:0:
192,192,113796,1,0,0:0:0:0:
320,192,113941,1,0,0:0:0:0:
448,192,114087,1,0,0:0:0:0:
64,192,114087,1,0,0:0:0:0:
448,192,114233,1,0,0:0:0:0:
192,192,114233,1,0,0:0:0:0:
448,192,114378,1,0,0:0:0:0:
192,192,114378,1,0,0:0:0:0:
64,192,114378,1,0,0:0:0:0:
320,192,114378,1,0,0:0:0:0:
64,192,114524,1,0,0:0:0:0:
192,192,114524,1,0,0:0:0:0:
320,192,114670,1,0,0:0:0:0:
192,192,114815,1,0,0:0:0:0:
448,192,114815,1,0,0:0:0:0:
320,192,114961,1,0,0:0:0:0:
448,192,114961,1,0,0:0:0:0:
64,192,114961,1,0,0:0:0:0:
192,192,114961,1,0,0:0:0:0:
320,192,115106,1,0,0:0:0:0:
448,192,115252,1,0,0:0:0:0:
192,192,115252,1,0,0:0:0:0:
64,192,115252,1,0,0:0:0:0:
64,192,115398,1,0,0:0:0:0:
192,192,115398,1,0,0:0:0:0:
64,192,115543,1,0,0:0:0:0:
448,192,115543,1,0,0:0:0:0:
320,192,115543,1,0,0:0:0:0:
448,192,115689,1,0,0:0:0:0:
320,192,115689,1,0,0:0:0:0:
192,192,115835,1,0,0:0:0:0:
64,192,115835,1,0,0:0:0:0:
448,192,115837,1,0,0:0:0:0:
192,192,115980,1,0,0:0:0:0:
320,192,116126,1,0,0:0:0:0:
448,192,116126,1,0,0:0:0:0:
64,192,116126,1,0,0:0:0:0:
192,192,116126,1,0,0:0:0:0:
448,192,116271,1,0,0:0:0:0:
192,192,116271,1,0,0:0:0:0:
320,192,116417,1,0,0:0:0:0:
192,192,116563,1,0,0:0:0:0:
64,192,116563,1,0,0:0:0:0:
192,192,116708,1,0,0:0:0:0:
64,192,116708,1,0,0:0:0:0:
320,192,116708,1,0,0:0:0:0:
448,192,116708,1,0,0:0:0:0:
448,192,116854,1,0,0:0:0:0:
320,192,116854,1,0,0:0:0:0:
192,192,117000,1,0,0:0:0:0:
64,192,117000,1,0,0:0:0:0:
448,192,117145,1,0,0:0:0:0:
320,192,117145,1,0,0:0:0:0:
64,192,117145,1,0,0:0:0:0:
320,192,117291,1,0,0:0:0:0:
448,192,117291,1,0,0:0:0:0:
64,192,117291,1,0,0:0:0:0:
192,192,117291,1,0,0:0:0:0:
192,192,117437,1,0,0:0:0:0:
448,192,117582,1,0,0:0:0:0:
320,192,117582,1,0,0:0:0:0:
64,192,117582,1,0,0:0:0:0:
192,192,117728,1,0,0:0:0:0:
320,192,117728,1,0,0:0:0:0:
320,192,117873,1,0,0:0:0:0:
448,192,117873,1,0,0:0:0:0:
64,192,117873,1,0,0:0:0:0:
192,192,117873,1,0,0:0:0:0:
448,192,118019,1,0,0:0:0:0:
64,192,118019,1,0,0:0:0:0:
64,192,118165,1,0,0:0:0:0:
192,192,118165,1,0,0:0:0:0:
320,192,118165,1,0,0:0:0:0:
448,192,118310,1,0,0:0:0:0:
320,192,118310,1,0,0:0:0:0:
320,192,118456,1,0,0:0:0:0:
448,192,118456,1,0,0:0:0:0:
64,192,118456,1,0,0:0:0:0:
192,192,118456,1,0,0:0:0:0:
320,192,118602,1,0,0:0:0:0:
192,192,118747,1,0,0:0:0:0:
64,192,118747,1,0,0:0:0:0:
448,192,118893,1,0,0:0:0:0:
192,192,118893,1,0,0:0:0:0:
64,192,119038,1,0,0:0:0:0:
448,192,119038,1,0,0:0:0:0:
320,192,119038,1,0,0:0:0:0:
192,192,119038,1,0,0:0:0:0:
320,192,119184,1,0,0:0:0:0:
448,192,119330,1,0,0:0:0:0:
64,192,119330,1,0,0:0:0:0:
192,192,119475,1,0,0:0:0:0:
320,192,119475,1,0,0:0:0:0:
448,192,119621,1,0,0:0:0:0:
320,192,119621,1,0,0:0:0:0:
192,192,119621,1,0,0:0:0:0:
64,192,119621,1,0,0:0:0:0:
320,192,119767,1,0,0:0:0:0:
448,192,119912,1,0,0:0:0:0:
64,192,119912,1,0,0:0:0:0:
192,192,120058,1,0,0:0:0:0:
320,192,120203,1,0,0:0:0:0:
448,192,120203,1,0,0:0:0:0:
64,192,120203,1,0,0:0:0:0:
192,192,120203,1,0,0:0:0:0:
192,192,120349,1,0,0:0:0:0:
448,192,120349,1,0,0:0:0:0:
448,192,120495,1,0,0:0:0:0:
320,192,120495,1,0,0:0:0:0:
192,192,120495,1,0,0:0:0:0:
64,192,120495,1,0,0:0:0:0:
64,192,120640,1,0,0:0:0:0:
192,192,120640,1,0,0:0:0:0:
320,192,120786,1,0,0:0:0:0:
192,192,120932,1,0,0:0:0:0:
448,192,120932,1,0,0:0:0:0:
64,192,120932,1,0,0:0:0:0:
192,192,121077,1,0,0:0:0:0:
320,192,121077,1,0,0:0:0:0:
448,192,121369,1,0,0:0:0:0:
192,192,121369,1,0,0:0:0:0:
64,192,121369,1,0,0:0:0:0:
64,192,121514,1,0,0:0:0:0:
192,192,121514,1,0,0:0:0:0:
64,192,121660,1,0,0:0:0:0:
448,192,121660,1,0,0:0:0:0:
320,192,121660,1,0,0:0:0:0:
448,192,121805,1,0,0:0:0:0:
320,192,121805,1,0,0:0:0:0:
192,192,121951,1,0,0:0:0:0:
64,192,121951,1,0,0:0:0:0:
448,192,121954,1,0,0:0:0:0:
192,192,122097,1,0,0:0:0:0:
320,192,122242,1,0,0:0:0:0:
448,192,122242,1,0,0:0:0:0:
64,192,122242,1,0,0:0:0:0:
192,192,122242,1,0,0:0:0:0:
448,192,122388,1,0,0:0:0:0:
192,192,122388,1,0,0:0:0:0:
320,192,122534,1,0,0:0:0:0:
192,192,122679,1,0,0:0:0:0:
64,192,122679,1,0,0:0:0:0:
192,192,122825,1,0,0:0:0:0:
64,192,122825,1,0,0:0:0:0:
320,192,122825,1,0,0:0:0:0:
448,192,122825,1,0,0:0:0:0:
448,192,122970,1,0,0:0:0:0:
320,192,122970,1,0,0:0:0:0:
192,192,123116,1,0,0:0:0:0:
64,192,123116,1,0,0:0:0:0:
448,192,123262,1,0,0:0:0:0:
320,192,123262,1,0,0:0:0:0:
64,192,123262,1,0,0:0:0:0:
320,192,123407,1,0,0:0:0:0:
448,192,123407,1,0,0:0:0:0:
64,192,123407,1,0,0:0:0:0:
192,192,123407,1,0,0:0:0:0:
192,192,123553,1,0,0:0:0:0:
448,192,123699,1,0,0:0:0:0:
320,192,123699,1,0,0:0:0:0:
64,192,123699,1,0,0:0:0:0:
192,192,123844,1,0,0:0:0:0:
320,192,123844,1,0,0:0:0:0:
320,192,123990,1,0,0:0:0:0:
448,192,123990,1,0,0:0:0:0:
64,192,123990,1,0,0:0:0:0:
192,192,123990,1,0,0:0:0:0:
320,192,124136,1,0,0:0:0:0:
64,192,124283,1,0,0:0:0:0:
192,192,124283,1,0,0:0:0:0:
192,192,124427,1,0,0:0:0:0:
448,192,124427,1,0,0:0:0:0:
320,192,124572,1,0,0:0:0:0:
192,192,124572,1,0,0:0:0:0:
64,192,124572,1,0,0:0:0:0:
448,192,124572,1,0,0:0:0:0:
320,192,124720,1,0,0:0:0:0:
64,192,124864,1,0,0:0:0:0:
448,192,124864,1,0,0:0:0:0:
320,192,125009,1,0,0:0:0:0:
192,192,125009,1,0,0:0:0:0:
192,192,125155,1,0,0:0:0:0:
64,192,125155,1,0,0:0:0:0:
448,192,125155,1,0,0:0:0:0:
320,192,125155,1,0,0:0:0:0:
320,192,125301,1,0,0:0:0:0:
64,192,125446,1,0,0:0:0:0:
448,192,125446,1,0,0:0:0:0:
192,192,125592,1,0,0:0:0:0:
64,192,125737,1,0,0:0:0:0:
192,192,125737,1,0,0:0:0:0:
320,192,125737,1,0,0:0:0:0:
448,192,125737,1,0,0:0:0:0:
320,192,125883,1,0,0:0:0:0:
448,192,126029,1,0,0:0:0:0:
64,192,126029,1,0,0:0:0:0:
448,192,126174,1,0,0:0:0:0:
192,192,126174,1,0,0:0:0:0:
448,192,126320,1,0,0:0:0:0:
192,192,126320,1,0,0:0:0:0:
64,192,126320,1,0,0:0:0:0:
320,192,126320,1,0,0:0:0:0:
64,192,126466,1,0,0:0:0:0:
192,192,126466,1,0,0:0:0:0:
320,192,126611,1,0,0:0:0:0:
192,192,126757,1,0,0:0:0:0:
448,192,126757,1,0,0:0:0:0:
320,192,126903,1,0,0:0:0:0:
448,192,126903,1,0,0:0:0:0:
64,192,126903,1,0,0:0:0:0:
192,192,126903,1,0,0:0:0:0:
64,192,127048,1,0,0:0:0:0:
320,192,127048,1,0,0:0:0:0:
192,192,127048,1,0,0:0:0:0:
320,192,127194,1,0,0:0:0:0:
448,192,127194,1,0,0:0:0:0:
192,192,127339,1,0,0:0:0:0:
64,192,127485,1,0,0:0:0:0:
192,192,127485,1,0,0:0:0:0:
448,192,127485,1,0,0:0:0:0:
320,192,127485,1,0,0:0:0:0:
448,192,127631,1,0,0:0:0:0:
64,192,127631,1,0,0:0:0:0:
192,192,127776,1,0,0:0:0:0:
320,192,127922,1,0,0:0:0:0:
448,192,127922,1,0,0:0:0:0:
320,192,128068,1,0,0:0:0:0:
448,192,128068,1,0,0:0:0:0:
192,192,128068,1,0,0:0:0:0:
64,192,128068,1,0,0:0:0:0:
64,192,128213,1,0,0:0:0:0:
448,192,128213,1,0,0:0:0:0:
320,192,128359,1,0,0:0:0:0:
192,192,128359,1,0,0:0:0:0:
64,192,128504,1,0,0:0:0:0:
320,192,128504,1,0,0:0:0:0:
448,192,128650,1,0,0:0:0:0:
320,192,128650,1,0,0:0:0:0:
192,192,128650,1,0,0:0:0:0:
64,192,128650,1,0,0:0:0:0:
320,192,128796,1,0,0:0:0:0:
192,192,128941,1,0,0:0:0:0:
64,192,128941,1,0,0:0:0:0:
448,192,129087,1,0,0:0:0:0:
192,192,129087,1,0,0:0:0:0:
64,192,129233,1,0,0:0:0:0:
448,192,129233,1,0,0:0:0:0:
320,192,129233,1,0,0:0:0:0:
192,192,129233,1,0,0:0:0:0:
192,192,129378,1,0,0:0:0:0:
448,192,129524,1,0,0:0:0:0:
320,192,129524,1,0,0:0:0:0:
448,192,129670,1,0,0:0:0:0:
320,192,129670,1,0,0:0:0:0:
320,192,129815,1,0,0:0:0:0:
448,192,129815,1,0,0:0:0:0:
320,192,129961,1,0,0:0:0:0:
448,192,129961,1,0,0:0:0:0:
320,192,130106,1,0,0:0:0:0:
448,192,130106,1,0,0:0:0:0:
192,192,130252,1,0,0:0:0:0:
64,192,130325,1,0,0:0:0:0:
320,192,130398,1,0,0:0:0:0:
448,192,130398,1,0,0:0:0:0:
