osu file format v14

[General]
AudioFilename: audio.mp3
AudioLeadIn: 0
PreviewTime: 35139
Countdown: 1
SampleSet: Normal
StackLeniency: 0.2
Mode: 0
LetterboxInBreaks: 0
WidescreenStoryboard: 0

[Editor]
Bookmarks: 8473,13806,35139,51139,61806,67139,72473,83139,93806,104473,109806,115139
DistanceSpacing: 2
BeatDivisor: 4
GridSize: 4
TimelineZoom: 2.4

[Metadata]
Title:Maxi
TitleUnicode:Maxi
Artist:[FRENZ2016]
ArtistUnicode:[FRENZ2016]
Creator:_zee
Version:Disco Disco
Source:
Tags:Electronic, _zee
BeatmapID:1468104
BeatmapSetID:693834

[Difficulty]
HPDrainRate:5
CircleSize:3.8
OverallDifficulty:8
ApproachRate:9.4
SliderMultiplier:2.1
SliderTickRate:1

[Events]
//Background and Video events
0,0,"fsdsdfsdffswerwerwer.jpg",0,0
//Break Periods
//Storyboard Layer 0 (Background)
//Storyboard Layer 1 (Fail)
//Storyboard Layer 2 (Pass)
//Storyboard Layer 3 (Foreground)
//Storyboard Sound Samples

[TimingPoints]
3140,333.333333333333,4,1,0,70,1,0
16639,-100,4,1,0,5,0,0
16806,-100,4,1,0,70,0,0
19139,-83.3333333333333,4,1,0,80,0,0
19639,-100,4,1,0,80,0,0
21973,-100,4,1,0,5,0,0
22139,-100,4,1,0,80,0,0
25473,-90.9090909090909,4,1,0,80,0,0
28473,-90.9090909090909,4,1,0,50,0,0
29306,-90.9090909090909,4,1,0,80,0,0
29389,-90.9090909090909,4,1,0,5,0,0
29473,-90.9090909090909,4,1,0,80,0,0
29556,-90.9090909090909,4,1,0,5,0,0
29639,-90.9090909090909,4,1,0,80,0,0
29723,-90.9090909090909,4,1,0,5,0,0
29806,-90.9090909090909,4,1,0,80,0,0
35139,-90.9090909090909,4,1,0,90,0,1
45806,-90.9090909090909,4,2,0,70,0,0
51139,-100,4,1,0,70,0,0
61806,-100,4,1,0,40,0,0
63139,-100,4,1,0,50,0,0
64473,-100,4,1,0,60,0,0
65806,-100,4,1,0,70,0,0
83139,-100,4,1,0,70,0,1
88723,-100,4,1,0,5,0,1
88806,-100,4,1,0,70,0,1
93473,-100,4,1,0,70,0,0
93723,-100,4,1,0,5,0,0
93806,-83.3333333333333,4,1,0,70,0,1
104473,-100,4,1,0,70,0,0

[HitObjects]
256,192,473,12,0,2806,0:0:0:0:
252,208,3139,6,0,B|276:120|276:120|168:232,1,210
193,205,3639,2,0,L|192:92,1,105
332,260,3973,1,0,0:0:0:0:
336,52,4139,1,0,0:0:0:0:
180,192,4306,1,0,0:0:0:0:
180,192,4389,1,0,0:0:0:0:
180,192,4473,6,0,B|300:192|300:192|208:152,1,210
217,156,4973,2,0,L|336:156,1,105
444,156,5306,1,0,0:0:0:0:
328,332,5473,1,0,0:0:0:0:
328,152,5806,6,0,B|420:140|420:140|424:84|424:84|316:88,1,210
362,86,6306,2,0,B|316:80|316:80|288:96|288:96|240:96,1,105
52,100,6639,1,0,0:0:0:0:
244,188,6806,1,0,0:0:0:0:
32,192,6973,1,0,0:0:0:0:
64,192,7056,1,0,0:0:0:0:
104,192,7139,6,0,B|152:204|152:204|204:176|204:176|232:208|232:208|320:192,1,210
384,176,7639,2,0,L|360:248,1,52.5
356,260,7806,5,0,0:0:0:0:
336,288,7889,1,0,0:0:0:0:
304,300,7973,1,0,0:0:0:0:
272,284,8056,1,0,0:0:0:0:
248,256,8139,5,0,0:0:0:0:
252,224,8223,1,0,0:0:0:0:
248,192,8306,1,0,0:0:0:0:
228,164,8389,1,0,0:0:0:0:
196,148,8473,5,0,0:0:0:0:
48,148,8639,1,0,0:0:0:0:
48,148,8723,2,0,L|120:148,1,52.5
312,148,8973,1,0,0:0:0:0:
124,240,9139,1,0,0:0:0:0:
128,244,9223,2,0,L|196:240,1,52.5
248,320,9389,1,0,0:0:0:0:
248,320,9473,2,0,L|288:268,1,52.5
356,176,9639,2,0,B|320:176|320:176|296:184|296:184|264:176|264:176|216:176,1,105
60,176,9973,5,0,0:0:0:0:
80,176,10056,1,0,0:0:0:0:
100,176,10139,2,0,L|168:176,1,52.5
200,84,10306,1,0,0:0:0:0:
200,84,10473,1,0,0:0:0:0:
380,80,10639,1,0,0:0:0:0:
360,80,10723,1,0,0:0:0:0:
344,84,10806,2,0,P|296:108|260:152,1,105
236,280,11139,5,0,0:0:0:0:
236,260,11223,1,0,0:0:0:0:
232,240,11306,2,0,P|228:216|208:192,1,52.5
120,140,11473,6,0,P|132:116|168:92,1,52.5
244,84,11639,1,0,0:0:0:0:
236,108,11723,1,0,0:0:0:0:
232,132,11806,6,0,P|232:160|248:192,1,52.5
320,252,11973,2,0,P|328:228|324:172,1,52.5
292,100,12139,5,0,0:0:0:0:
276,80,12223,1,0,0:0:0:0:
256,64,12306,2,0,P|220:52|192:60,2,52.5
352,248,12639,5,0,0:0:0:0:
116,136,12806,1,0,0:0:0:0:
380,132,12973,1,0,0:0:0:0:
148,252,13139,2,0,L|148:196,2,52.5
348,320,13473,2,0,L|308:176,1,105
172,88,13806,6,0,L|212:240,1,157.5
312,276,14139,2,0,L|276:148,1,105
104,64,14473,1,0,0:0:0:0:
104,64,14556,2,0,L|164:84,1,52.5
108,176,14723,1,0,0:0:0:0:
108,176,14806,2,0,L|196:176,1,52.5
204,272,14973,2,0,L|304:176,2,105
60,268,15473,5,0,0:0:0:0:
60,268,15556,2,0,L|112:220,1,52.5
252,88,15806,1,0,0:0:0:0:
252,88,15889,2,0,L|252:168,1,52.5
160,188,16056,1,0,0:0:0:0:
160,188,16139,1,0,0:0:0:0:
328,312,16306,1,0,0:0:0:0:
328,284,16389,1,0,0:0:0:0:
328,256,16473,2,0,L|328:152,1,105
140,248,16806,6,0,L|140:188,2,52.5
336,320,17139,1,0,0:0:0:0:
336,320,17223,2,0,L|284:264,1,52.5
196,284,17389,2,0,L|196:208,2,52.5
104,336,17639,2,0,L|52:200,2,105
104,336,18139,6,0,L|104:212,1,105
104,56,18473,1,0,0:0:0:0:
312,56,18639,1,0,0:0:0:0:
320,260,18806,1,0,0:0:0:0:
320,260,18889,1,0,0:0:0:0:
320,260,18973,1,0,0:0:0:0:
104,264,19139,6,0,P|64:304|116:264,1,251.999992309571
332,184,19639,1,0,0:0:0:0:
120,188,19806,1,0,0:0:0:0:
120,188,19889,2,0,L|164:232,1,52.5
236,296,20056,1,0,0:0:0:0:
236,296,20139,1,0,0:0:0:0:
236,84,20306,1,0,0:0:0:0:
416,196,20473,6,0,L|368:196,2,26.25
460,196,20639,1,0,0:0:0:0:
276,92,20806,1,0,0:0:0:0:
280,304,20973,1,0,0:0:0:0:
104,188,21139,1,0,0:0:0:0:
316,188,21306,5,0,0:0:0:0:
292,188,21389,1,0,0:0:0:0:
268,188,21473,2,0,L|188:188,1,52.5
212,292,21639,1,0,0:0:0:0:
188,268,21723,1,0,0:0:0:0:
164,244,21806,2,0,L|72:140,1,105
260,36,22139,5,0,0:0:0:0:
88,160,22306,2,0,L|200:160,1,105
360,288,22639,1,0,0:0:0:0:
356,256,22723,1,0,0:0:0:0:
352,224,22806,1,0,0:0:0:0:
244,44,22973,2,0,L|244:152,1,105
344,184,23223,5,0,0:0:0:0:
376,208,23306,1,0,0:0:0:0:
408,232,23389,1,0,0:0:0:0:
408,284,23473,5,0,0:0:0:0:
356,284,23556,1,0,0:0:0:0:
304,284,23639,1,0,0:0:0:0:
252,284,23723,1,0,0:0:0:0:
252,180,23806,5,0,0:0:0:0:
200,180,23889,1,0,0:0:0:0:
148,180,23973,1,0,0:0:0:0:
96,180,24056,1,0,0:0:0:0:
92,128,24139,5,0,0:0:0:0:
104,120,24223,1,0,0:0:0:0:
120,120,24306,1,0,0:0:0:0:
136,128,24389,1,0,0:0:0:0:
148,136,24473,6,0,P|168:164|104:216,1,105
32,224,24806,2,0,L|184:224,1,105
192,316,25139,2,0,L|272:240,1,105
348,172,25389,1,0,0:0:0:0:
348,172,25473,2,0,L|216:172,1,115.50000352478
80,100,25973,5,0,0:0:0:0:
368,92,26139,1,0,0:0:0:0:
368,92,26223,2,0,L|312:132,1,57.7500017623902
120,244,26473,2,0,L|248:244,1,115.50000352478
364,316,26723,5,0,0:0:0:0:
364,316,26806,2,0,L|360:200,1,115.50000352478
256,96,27056,1,0,0:0:0:0:
256,96,27139,2,0,L|256:224,1,115.50000352478
68,76,27473,2,0,L|124:184,1,115.50000352478
20,236,27723,1,0,0:0:0:0:
20,236,27806,2,0,L|92:236,1,57.7500017623902
112,348,27973,2,0,L|176:284,1,57.7500017623902
296,308,28139,2,0,L|236:200,1,115.50000352478
296,308,28473,6,0,B|296:192|296:192|328:304,1,231.000007049561
327,302,28973,2,0,L|380:188,1,115.50000352478
172,92,29306,2,0,L|216:40,1,57.7500017623902
204,164,29473,2,0,L|248:112,1,57.7500017623902
236,236,29639,2,0,L|280:184,1,57.7500017623902
344,100,29806,2,0,L|344:200,2,57.7500017623902
440,48,30139,5,0,0:0:0:0:
440,48,30306,1,0,0:0:0:0:
444,280,30473,2,0,L|380:184,1,115.50000352478
264,188,30723,1,0,0:0:0:0:
264,188,30806,1,0,0:0:0:0:
444,44,30973,1,0,0:0:0:0:
212,48,31139,5,0,0:0:0:0:
212,76,31223,1,0,0:0:0:0:
212,108,31306,1,0,0:0:0:0:
216,340,31473,1,0,0:0:0:0:
308,128,31639,1,0,0:0:0:0:
120,264,31806,1,0,0:0:0:0:
352,260,31973,1,0,0:0:0:0:
312,260,32056,1,0,0:0:0:0:
276,260,32139,1,0,0:0:0:0:
56,188,32306,1,0,0:0:0:0:
312,180,32473,6,0,B|312:116|312:116,2,57.7500017623902
60,324,32806,1,0,0:0:0:0:
332,228,32973,1,0,0:0:0:0:
332,228,33056,1,0,0:0:0:0:
332,228,33139,2,0,L|256:228,1,57.7500017623902
144,168,33306,1,0,0:0:0:0:
144,168,33389,1,0,0:0:0:0:
144,168,33473,2,0,L|224:168,2,57.7500017623902
432,156,33806,5,0,0:0:0:0:
180,296,33973,1,0,0:0:0:0:
180,296,34056,2,0,L|256:296,1,57.7500017623902
360,220,34223,1,0,0:0:0:0:
360,220,34306,2,0,L|272:220,1,57.7500017623902
156,224,34473,2,0,L|240:132,1,115.50000352478
380,132,34723,1,0,0:0:0:0:
380,132,34806,2,0,L|320:200,1,57.7500017623902
244,284,34973,2,0,B|244:248|244:248|244:220|244:220|244:192|244:192,1,57.7500017623902
248,84,35139,5,0,0:0:0:0:
248,84,35223,2,0,L|192:140,1,57.7500017623902
444,156,35473,1,0,0:0:0:0:
444,156,35556,2,0,L|376:156,1,57.7500017623902
96,156,35806,1,0,0:0:0:0:
112,156,35889,1,0,0:0:0:0:
128,156,35973,2,0,L|212:156,1,57.7500017623902
308,84,36139,1,0,0:0:0:0:
308,84,36223,2,0,L|308:160,1,57.7500017623902
68,304,36473,5,0,0:0:0:0:
248,80,36639,1,0,0:0:0:0:
248,312,36806,1,0,0:0:0:0:
104,132,36973,1,0,0:0:0:0:
104,132,37056,2,0,L|196:132,1,57.7500017623902
400,296,37306,1,0,0:0:0:0:
400,296,37389,2,0,L|308:296,1,57.7500017623902
112,304,37639,1,0,0:0:0:0:
136,288,37723,2,0,L|192:244,1,57.7500017623902
364,108,37973,5,0,0:0:0:0:
364,144,38056,1,0,0:0:0:0:
364,176,38139,1,0,0:0:0:0:
188,324,38306,1,0,0:0:0:0:
404,248,38473,1,0,0:0:0:0:
172,248,38639,1,0,0:0:0:0:
172,220,38723,1,0,0:0:0:0:
172,184,38806,1,0,0:0:0:0:
360,48,38973,5,0,0:0:0:0:
276,324,39139,1,0,0:0:0:0:
212,40,39306,1,0,0:0:0:0:
396,264,39473,1,0,0:0:0:0:
176,192,39639,1,0,0:0:0:0:
176,192,39723,1,0,0:0:0:0:
396,144,39973,1,0,0:0:0:0:
208,276,40139,1,0,0:0:0:0:
364,104,40306,5,0,0:0:0:0:
364,104,40389,2,0,P|340:136|298:169,1,57.7500017623902
116,240,40639,1,0,0:0:0:0:
116,240,40722,2,0,P|140:208|181:174,1,57.7500017623902
364,104,40973,1,0,0:0:0:0:
212,280,41139,1,0,0:0:0:0:
128,64,41306,1,0,0:0:0:0:
132,76,41389,2,0,P|148:104|176:128,1,57.7500017623902
372,224,41639,5,0,0:0:0:0:
140,236,41806,1,0,0:0:0:0:
296,68,41973,1,0,0:0:0:0:
284,80,42056,1,0,0:0:0:0:
272,92,42139,1,0,0:0:0:0:
88,272,42306,1,0,0:0:0:0:
300,180,42473,1,0,0:0:0:0:
68,180,42639,1,0,0:0:0:0:
92,180,42723,1,0,0:0:0:0:
112,180,42806,1,0,0:0:0:0:
308,304,42973,1,0,0:0:0:0:
288,276,43056,1,0,0:0:0:0:
272,256,43139,1,0,0:0:0:0:
144,64,43306,5,0,0:0:0:0:
188,292,43473,1,0,0:0:0:0:
244,68,43639,1,0,0:0:0:0:
44,184,43806,1,0,0:0:0:0:
276,184,43973,1,0,0:0:0:0:
276,184,44056,1,0,0:0:0:0:
148,72,44306,1,0,0:0:0:0:
148,72,44389,1,0,0:0:0:0:
148,72,44473,6,0,L|212:200,1,115.50000352478
256,276,44723,2,0,L|288:152,1,115.50000352478
312,52,44973,1,0,0:0:0:0:
136,196,45139,1,0,0:0:0:0:
128,192,45223,1,0,0:0:0:0:
132,184,45306,1,0,0:0:0:0:
140,180,45389,1,0,0:0:0:0:
144,192,45473,5,0,0:0:0:0:
136,204,45556,1,0,0:0:0:0:
124,196,45639,1,0,0:0:0:0:
132,184,45723,1,0,0:0:0:0:
196,212,45806,5,8,0:0:0:0:
216,240,45889,1,0,0:0:0:0:
200,268,45973,1,0,0:0:0:0:
160,268,46056,1,0,0:0:0:0:
128,256,46139,6,0,P|112:236|104:192,1,57.7500017623902
148,100,46306,2,0,P|148:128|168:160,1,57.7500017623902
228,176,46473,5,8,0:0:0:0:
252,168,46556,1,0,0:0:0:0:
276,144,46639,1,0,0:0:0:0:
292,112,46723,1,0,0:0:0:0:
208,52,46806,5,8,0:0:0:0:
200,84,46889,1,0,0:0:0:0:
196,120,46973,1,0,0:0:0:0:
200,156,47056,1,0,0:0:0:0:
292,200,47139,5,0,0:0:0:0:
276,224,47223,1,0,0:0:0:0:
256,244,47306,2,0,L|200:280,1,57.7500017623902,8|0,0:0|0:0,0:0:0:0:
92,280,47473,6,0,L|144:208,1,57.7500017623902
48,156,47639,2,0,L|120:156,1,57.7500017623902,8|0,0:0|0:0,0:0:0:0:
184,180,47806,5,8,0:0:0:0:
216,180,47889,1,0,0:0:0:0:
256,180,47973,1,0,0:0:0:0:
292,180,48056,1,0,0:0:0:0:
360,132,48139,5,8,0:0:0:0:
380,124,48223,1,0,0:0:0:0:
388,140,48306,1,0,0:0:0:0:
368,148,48389,1,0,0:0:0:0:
280,72,48473,6,0,L|280:144,1,57.7500017623902
208,228,48639,2,0,L|208:156,1,57.7500017623902
208,60,48806,5,0,0:0:0:0:
184,76,48889,1,0,0:0:0:0:
160,100,48973,2,0,L|112:140,1,57.7500017623902,8|0,0:0|0:0,0:0:0:0:
40,216,49139,5,8,0:0:0:0:
72,216,49223,1,0,0:0:0:0:
104,216,49306,1,0,0:0:0:0:
140,216,49389,1,0,0:0:0:0:
188,288,49473,5,8,0:0:0:0:
220,264,49556,1,0,0:0:0:0:
240,228,49639,1,0,0:0:0:0:
240,192,49723,1,0,0:0:0:0:
180,148,49806,5,8,0:0:0:0:
176,120,49889,1,0,0:0:0:0:
192,96,49973,1,0,0:0:0:0:
224,84,50056,1,0,0:0:0:0:
324,112,50139,6,0,L|268:152,1,57.7500017623902
184,212,50306,2,0,L|280:212,1,57.7500017623902
360,208,50473,1,0,0:0:0:0:
132,216,50639,1,0,0:0:0:0:
336,112,50806,1,0,0:0:0:0:
104,116,50973,1,0,0:0:0:0:
104,116,51139,6,0,P|160:116|208:140,1,105
356,284,51473,2,0,P|300:272|268:232,1,105
188,44,51806,1,0,0:0:0:0:
196,252,51973,2,0,L|192:128,1,105
380,44,52306,2,0,L|383:148,1,105
200,48,52639,1,0,0:0:0:0:
216,256,52806,2,0,L|208:152,1,105
28,40,53139,2,0,L|96:156,1,105
288,96,53473,1,0,0:0:0:0:
280,128,53556,1,0,0:0:0:0:
260,152,53639,1,0,0:0:0:0:
232,168,53723,1,0,0:0:0:0:
200,168,53806,5,0,0:0:0:0:
172,156,53889,1,0,0:0:0:0:
148,136,53973,2,0,P|136:108|132:76,1,52.5
228,40,54139,5,0,0:0:0:0:
216,64,54223,1,0,0:0:0:0:
212,96,54306,2,0,P|212:128|240:168,1,52.5
296,220,54473,5,0,0:0:0:0:
320,208,54556,1,0,0:0:0:0:
340,188,54639,2,0,P|356:160|356:128,1,52.5
288,60,54806,6,0,P|252:88|244:104,1,52.5
192,184,54973,2,0,P|212:232|232:248,1,52.5
292,300,55139,5,0,0:0:0:0:
452,164,55306,1,0,0:0:0:0:
240,168,55473,1,0,0:0:0:0:
432,252,55639,1,0,0:0:0:0:
284,100,55806,1,0,0:0:0:0:
348,300,55973,1,0,0:0:0:0:
396,44,56139,2,0,L|336:164,1,105
104,268,56473,6,0,P|160:268|208:244,1,105
356,100,56807,2,0,P|300:112|268:152,1,105
188,340,57140,1,0,0:0:0:0:
196,132,57307,2,0,L|192:256,1,105
380,340,57640,2,0,L|383:235,1,105
200,336,57973,1,0,0:0:0:0:
216,128,58140,2,0,L|208:232,1,105
28,344,58473,2,0,L|96:228,1,105
192,72,58806,2,0,L|204:204,1,105
372,300,59139,6,0,L|360:228,2,52.5
164,328,59473,1,0,0:0:0:0:
132,120,59639,1,0,0:0:0:0:
132,120,59723,2,0,L|152:172,1,52.5
220,352,59973,1,0,0:0:0:0:
216,144,60139,1,0,0:0:0:0:
372,284,60306,1,0,0:0:0:0:
372,284,60389,1,0,0:0:0:0:
372,284,60473,6,0,P|368:200|344:180,1,105
160,56,60806,2,0,P|204:116|248:128,1,105
440,92,61139,2,0,P|432:160|400:188,1,105
208,248,61473,1,0,0:0:0:0:
208,248,61806,5,0,0:0:0:0:
208,92,62139,1,0,0:0:0:0:
320,208,62473,1,0,0:0:0:0:
320,48,62806,1,0,0:0:0:0:
192,156,63139,6,0,L|180:268,1,105
336,324,63473,2,0,L|308:200,1,105
448,108,63806,2,0,L|343:101,1,105
204,192,64139,2,0,L|308:198,1,105
468,268,64473,6,0,L|352:172,1,105
220,72,64806,1,0,0:0:0:0:
76,228,64973,1,0,0:0:0:0:
100,208,65056,1,0,0:0:0:0:
124,188,65139,1,0,0:0:0:0:
336,188,65306,1,0,0:0:0:0:
156,296,65473,1,0,0:0:0:0:
328,176,65639,1,0,0:0:0:0:
64,176,65806,5,0,0:0:0:0:
328,176,65973,2,0,L|328:252,2,52.5
176,168,66306,1,0,0:0:0:0:
320,320,66473,1,0,0:0:0:0:
128,236,66639,1,0,0:0:0:0:
340,232,66806,1,0,0:0:0:0:
357,205,66889,1,0,0:0:0:0:
374,178,66973,1,0,0:0:0:0:
164,180,67139,5,0,0:0:0:0:
280,76,67306,1,0,0:0:0:0:
280,76,67389,1,0,0:0:0:0:
280,76,67473,2,0,P|272:128|292:180,1,105
396,292,67806,2,0,P|320:284|268:240,1,105
204,216,68056,1,0,0:0:0:0:
204,216,68139,2,0,P|240:204|264:204,1,52.5
360,216,68306,2,0,P|332:152|292:132,1,105
100,184,68639,5,0,0:0:0:0:
112,204,68723,1,0,0:0:0:0:
124,224,68806,2,0,B|140:254|140:254|144:272|161:288|161:288|176:316,2,105
216,172,69223,1,0,0:0:0:0:
216,172,69306,2,0,L|256:240,1,52.5
304,304,69473,2,0,P|340:248|328:192,1,105
280,124,69723,5,0,0:0:0:0:
280,124,69806,2,0,L|192:56,1,105
172,164,70056,1,0,0:0:0:0:
172,164,70139,2,0,L|84:92,1,105
88,204,70389,1,0,0:0:0:0:
88,204,70473,2,0,L|88:260,1,52.5
168,324,70639,1,0,0:0:0:0:
168,300,70723,1,0,0:0:0:0:
168,272,70806,2,0,P|180:232|244:216,1,105
428,304,71139,5,0,0:0:0:0:
236,124,71306,1,0,0:0:0:0:
448,120,71473,1,0,0:0:0:0:
416,120,71556,1,0,0:0:0:0:
388,120,71639,2,0,L|320:120,1,52.5
340,224,71806,2,0,L|236:144,1,105
152,160,72056,1,0,0:0:0:0:
152,160,72139,2,0,L|152:280,1,105
256,80,72473,5,0,0:0:0:0:
72,176,72639,1,0,0:0:0:0:
284,172,72806,1,0,0:0:0:0:
104,64,72973,1,0,0:0:0:0:
192,256,73139,1,0,0:0:0:0:
284,68,73306,1,0,0:0:0:0:
296,280,73473,2,0,P|364:312|412:280,1,105
408,96,73806,6,0,P|360:164|324:184,1,105
132,200,74139,1,0,0:0:0:0:
300,72,74306,1,0,0:0:0:0:
328,84,74389,1,0,0:0:0:0:
356,104,74473,5,0,0:0:0:0:
380,128,74556,1,0,0:0:0:0:
400,160,74639,1,0,0:0:0:0:
408,196,74723,1,0,0:0:0:0:
400,228,74806,6,0,P|372:268|300:272,1,105
116,220,75139,6,0,L|216:176,1,105
168,80,75389,1,0,0:0:0:0:
168,80,75473,2,0,L|276:80,1,105
484,76,75806,1,0,0:0:0:0:
288,156,75973,1,0,0:0:0:0:
496,152,76139,1,0,0:0:0:0:
496,152,76306,2,0,L|384:212,1,105
404,96,76556,5,0,0:0:0:0:
404,96,76639,2,0,L|288:96,1,105
88,100,76973,1,0,0:0:0:0:
88,100,77056,1,0,0:0:0:0:
88,100,77139,2,0,L|224:100,1,105
404,100,77473,1,0,0:0:0:0:
160,192,77639,2,0,L|300:188,1,105
256,108,78056,5,0,0:0:0:0:
256,108,78139,1,0,0:0:0:0:
452,284,78306,1,0,0:0:0:0:
208,188,78473,1,0,0:0:0:0:
416,184,78639,1,0,0:0:0:0:
416,184,78723,1,0,0:0:0:0:
416,184,78806,1,0,0:0:0:0:
232,80,78973,1,0,0:0:0:0:
344,256,79139,5,0,0:0:0:0:
148,176,79306,1,0,0:0:0:0:
148,176,79389,2,0,L|220:176,1,52.5
412,180,79639,1,0,0:0:0:0:
236,64,79806,1,0,0:0:0:0:
60,324,80056,1,0,0:0:0:0:
60,324,80139,1,0,0:0:0:0:
64,112,80306,1,0,0:0:0:0:
172,292,80473,6,0,P|184:224|200:208,1,52.5
272,204,80639,2,0,P|244:160|200:148,1,52.5
140,160,80806,2,0,P|168:100|232:80,1,105
304,88,81056,2,0,L|272:148,1,52.5
384,160,81223,2,0,L|304:204,1,52.5
152,280,81473,1,0,0:0:0:0:
152,72,81639,2,0,L|220:200,1,105
256,256,81889,5,0,0:0:0:0:
280,304,81973,1,0,0:0:0:0:
304,348,82056,1,0,0:0:0:0:
312,296,82139,5,0,0:0:0:0:
310,242,82223,1,0,0:0:0:0:
313,187,82307,1,0,0:0:0:0:
315,136,82390,1,0,0:0:0:0:
316,84,82473,5,0,0:0:0:0:
196,256,82639,1,0,0:0:0:0:
120,120,82806,2,0,P|112:88|132:124,2,105
220,244,83306,1,0,0:0:0:0:
220,272,83389,1,0,0:0:0:0:
220,300,83473,1,0,0:0:0:0:
56,168,83639,5,0,0:0:0:0:
268,168,83806,1,0,0:0:0:0:
284,180,83889,1,0,0:0:0:0:
300,192,83973,1,0,0:0:0:0:
316,204,84056,1,0,0:0:0:0:
332,216,84139,1,0,0:0:0:0:
124,220,84306,1,0,0:0:0:0:
336,64,84473,6,0,L|212:152,1,105
32,272,84806,1,0,0:0:0:0:
296,268,84973,1,0,0:0:0:0:
296,268,85056,2,0,L|244:212,1,52.5
172,132,85223,1,0,0:0:0:0:
172,132,85306,2,0,L|248:132,1,52.5
356,132,85473,1,0,0:0:0:0:
356,132,85556,2,0,L|308:196,1,52.5
436,244,85723,5,0,0:0:0:0:
436,244,85806,2,0,L|308:248,1,105
324,116,86056,1,0,0:0:0:0:
324,116,86139,2,0,L|240:192,1,105
40,352,86473,1,0,0:0:0:0:
156,120,86639,1,0,0:0:0:0:
156,148,86723,1,0,0:0:0:0:
156,180,86806,1,0,0:0:0:0:
348,264,86973,1,0,0:0:0:0:
276,124,87139,5,0,0:0:0:0:
152,224,87306,1,0,0:0:0:0:
260,340,87473,1,0,0:0:0:0:
380,240,87639,1,0,0:0:0:0:
380,240,87723,1,0,0:0:0:0:
144,248,87973,1,0,0:0:0:0:
284,92,88139,1,0,0:0:0:0:
284,92,88223,1,0,0:0:0:0:
284,92,88306,1,0,0:0:0:0:
284,304,88473,6,0,P|280:348|296:300,1,157.5
298,300,88806,2,0,L|298:160,1,105
96,132,89139,1,0,0:0:0:0:
100,344,89306,1,0,0:0:0:0:
120,328,89389,1,0,0:0:0:0:
140,312,89473,1,0,0:0:0:0:
304,180,89639,1,0,0:0:0:0:
92,180,89806,6,0,L|92:60,2,105
272,288,90306,1,0,0:0:0:0:
272,288,90389,2,0,L|272:224,1,52.5
184,176,90556,1,0,0:0:0:0:
188,176,90639,2,0,L|240:136,1,52.5
312,76,90806,6,0,B|271:75|271:75|252:64|212:72|212:72|192:72,1,105
104,76,91056,1,0,0:0:0:0:
104,76,91139,2,0,L|152:136,1,52.5
52,184,91306,1,0,0:0:0:0:
68,196,91389,1,0,0:0:0:0:
88,212,91473,2,0,B|120:240|120:240|188:240,1,105
392,236,91806,1,0,0:0:0:0:
212,128,91973,1,0,0:0:0:0:
212,128,92056,1,0,0:0:0:0:
212,320,92306,1,0,0:0:0:0:
104,140,92473,5,0,0:0:0:0:
312,136,92639,1,0,0:0:0:0:
312,136,92723,1,0,0:0:0:0:
148,264,92889,1,0,0:0:0:0:
148,264,92973,1,0,0:0:0:0:
356,264,93139,1,0,0:0:0:0:
356,264,93223,1,0,0:0:0:0:
356,264,93306,2,0,L|360:184,1,52.5
364,104,93473,2,0,P|300:136|356:136,1,157.5
320,147,93806,6,0,P|261:148|180:108,1,125.999996154785
32,32,94139,2,0,P|68:92|132:128,1,125.999996154785
364,160,94473,1,0,0:0:0:0:
408,188,94556,1,0,0:0:0:0:
436,228,94639,1,0,0:0:0:0:
440,280,94723,1,0,0:0:0:0:
428,328,94806,1,0,0:0:0:0:
248,148,94973,1,0,0:0:0:0:
80,336,95139,6,0,P|96:248|136:208,1,125.999996154785
332,84,95473,2,0,P|304:156|264:200,1,125.999996154785
160,248,95723,1,0,0:0:0:0:
160,248,95806,2,0,P|168:176|212:128,1,125.999996154785
312,80,96056,1,0,0:0:0:0:
312,80,96139,2,0,L|272:232,1,125.999996154785
184,288,96389,5,0,0:0:0:0:
184,288,96473,2,0,L|184:144,1,125.999996154785
188,36,96723,1,0,0:0:0:0:
188,36,96806,1,0,0:0:0:0:
312,256,96973,2,0,L|248:128,1,125.999996154785
24,40,97306,1,0,0:0:0:0:
72,288,97473,1,0,0:0:0:0:
152,48,97639,1,0,0:0:0:0:
412,296,97889,5,0,0:0:0:0:
260,120,98056,1,0,0:0:0:0:
260,120,98139,1,0,0:0:0:0:
96,312,98306,1,0,0:0:0:0:
96,280,98389,1,0,0:0:0:0:
96,252,98473,1,0,0:0:0:0:
248,140,98639,1,0,0:0:0:0:
368,288,98806,1,0,0:0:0:0:
368,288,98889,1,0,0:0:0:0:
368,288,98973,1,0,0:0:0:0:
372,100,99139,5,0,0:0:0:0:
256,248,99306,1,0,0:0:0:0:
252,60,99473,1,0,0:0:0:0:
176,232,99639,2,0,L|124:100,1,125.999996154785
308,44,99973,1,0,0:0:0:0:
308,44,100056,1,0,0:0:0:0:
308,44,100139,2,0,L|380:196,1,125.999996154785
440,332,100473,5,0,0:0:0:0:
288,224,100639,1,0,0:0:0:0:
476,224,100806,1,0,0:0:0:0:
308,136,100973,2,0,L|144:136,1,125.999996154785
68,76,101306,1,0,0:0:0:0:
68,96,101389,1,0,0:0:0:0:
68,116,101473,1,0,0:0:0:0:
232,304,101639,1,0,0:0:0:0:
232,280,101723,1,0,0:0:0:0:
232,256,101806,1,0,0:0:0:0:
404,72,101973,5,0,0:0:0:0:
408,324,102139,2,0,L|340:212,1,125.999996154785
392,100,102389,2,0,L|312:100,1,62.9999980773926
216,44,102556,1,0,0:0:0:0:
216,44,102639,2,0,L|168:100,1,62.9999980773926
48,92,102806,2,0,L|148:180,1,125.999996154785
348,324,103139,5,0,0:0:0:0:
340,72,103306,1,0,0:0:0:0:
340,72,103389,1,0,0:0:0:0:
60,328,103639,1,0,0:0:0:0:
252,164,103806,1,0,0:0:0:0:
252,164,103889,1,0,0:0:0:0:
252,164,103973,1,0,0:0:0:0:
252,164,104056,1,0,0:0:0:0:
252,164,104139,5,0,0:0:0:0:
252,164,104223,1,0,0:0:0:0:
252,164,104306,1,0,0:0:0:0:
252,164,104389,1,0,0:0:0:0:
252,164,104473,6,0,B|276:252|276:252|168:140,1,210
193,167,104973,2,0,L|192:280,1,105
332,112,105307,1,0,0:0:0:0:
336,320,105473,1,0,0:0:0:0:
180,180,105640,1,0,0:0:0:0:
180,180,105723,1,0,0:0:0:0:
180,180,105807,6,0,B|300:180|300:180|208:220,1,210
217,216,106307,2,0,L|336:216,1,105
444,216,106640,1,0,0:0:0:0:
328,40,106807,1,0,0:0:0:0:
328,220,107140,6,0,B|420:232|420:232|424:288|424:288|316:284,1,210
362,286,107640,2,0,B|316:292|316:292|288:276|288:276|240:276,1,105
52,272,107973,1,0,0:0:0:0:
244,184,108140,1,0,0:0:0:0:
32,180,108307,1,0,0:0:0:0:
64,180,108390,1,0,0:0:0:0:
104,180,108473,6,0,B|152:168|152:168|204:196|204:196|232:164|232:164|320:180,1,210
384,196,108973,2,0,L|360:124,1,52.5
356,112,109140,5,0,0:0:0:0:
336,84,109223,1,0,0:0:0:0:
304,72,109307,1,0,0:0:0:0:
272,88,109390,1,0,0:0:0:0:
248,116,109473,5,0,0:0:0:0:
252,148,109557,1,0,0:0:0:0:
248,180,109640,1,0,0:0:0:0:
228,208,109723,1,0,0:0:0:0:
196,224,109807,5,0,0:0:0:0:
48,224,109973,1,0,0:0:0:0:
48,224,110057,2,0,L|120:224,1,52.5
312,224,110307,1,0,0:0:0:0:
124,132,110473,1,0,0:0:0:0:
128,128,110557,2,0,L|196:132,1,52.5
248,52,110723,1,0,0:0:0:0:
248,52,110807,2,0,L|288:104,1,52.5
356,196,110973,2,0,B|320:196|320:196|296:188|296:188|264:196|264:196|216:196,1,105
60,196,111307,5,0,0:0:0:0:
80,196,111390,1,0,0:0:0:0:
100,196,111473,2,0,L|168:196,1,52.5
200,288,111640,1,0,0:0:0:0:
200,288,111807,1,0,0:0:0:0:
380,292,111973,1,0,0:0:0:0:
360,292,112057,1,0,0:0:0:0:
344,288,112140,2,0,P|296:264|260:220,1,105
236,88,112473,5,0,0:0:0:0:
236,112,112557,1,0,0:0:0:0:
232,132,112640,2,0,P|228:156|208:180,1,52.5
120,232,112807,6,0,P|132:256|168:280,1,52.5
252,296,112973,1,0,0:0:0:0:
240,280,113057,1,0,0:0:0:0:
232,260,113140,6,0,P|232:232|248:200,1,52.5
320,120,113307,2,0,P|328:144|324:200,1,52.5
292,268,113473,5,0,0:0:0:0:
276,292,113557,1,0,0:0:0:0:
256,312,113640,2,0,P|236:320|204:316,2,52.5
348,124,113973,5,0,0:0:0:0:
140,132,114139,2,0,L|264:208,1,105
424,276,114473,2,0,L|416:144,1,105
417,171,114806,2,0,P|416:120|396:184,1,210
