osu file format v14

[General]
AudioFilename: audio.mp3
AudioLeadIn: 0
PreviewTime: -1
Countdown: 1
SampleSet: None
StackLeniency: 0.6
Mode: 0
LetterboxInBreaks: 0
WidescreenStoryboard: 1

[Editor]
DistanceSpacing: 1.6
BeatDivisor: 8
GridSize: 16
TimelineZoom: 2.5

[Metadata]
Title:DARK THUNDER
TitleUnicode:DARK THUNDER
Artist:[Camellia]
ArtistUnicode:かめりあ [Camellia]
Creator:CsF Ashelia
Version:Do not even try
Source:
Tags:
BeatmapID:1463129
BeatmapSetID:684414

[Difficulty]
HPDrainRate:6
CircleSize:4.4
OverallDifficulty:8
ApproachRate:9.3
SliderMultiplier:2.39999990463257
SliderTickRate:3

[Events]
//Background and Video events
0,0,"thunder.jpg",0,0
//Break Periods
//Storyboard Layer 0 (Background)
//Storyboard Layer 1 (Fail)
//Storyboard Layer 2 (Pass)
//Storyboard Layer 3 (Foreground)
//Storyboard Sound Samples

[TimingPoints]
412.753644591508,342.856663622874,4,1,1,40,1,0
11384,-100,4,1,1,50,0,0
20984,-100,4,1,1,100,0,0
22355,-100,4,1,1,60,0,0
44298,-100,4,1,1,40,0,0
63241,-100,4,1,1,50,0,0
64269,-100,4,1,1,60,0,0
64955,-100,4,1,1,70,0,0
66198,-100,4,1,1,90,0,0
66498,-100,4,1,1,50,0,0
71641,-100,4,1,1,90,0,0
71984,-100,4,1,1,40,0,0
74384,-100,4,1,1,45,0,0
76826,-100,4,1,1,50,0,0
82098,-100,4,1,1,55,0,0
85012,-100,4,1,1,60,0,0
86845,-100,4,1,1,70,0,0
86888,342.856663622874,4,1,1,70,1,0
87830,-100,4,1,1,40,0,0
87916,342.857142857143,4,1,1,40,1,1
109944,-100,4,1,1,50,0,1
127387,-100,4,1,1,40,0,1
130687,342.857142857143,4,1,1,50,1,0
142515,-100,4,1,1,30,0,0
143672,-100,4,1,1,50,0,0
153487,-100,4,1,1,30,0,0
154129,-100,4,1,1,40,0,0
165058,-100,4,1,1,45,0,0
167801,-100,4,1,1,50,0,0
172601,-100,4,1,1,55,0,0
174615,-100,4,1,1,60,0,0
176072,-100,4,1,1,50,0,0
186529,-100,4,1,1,30,0,0
187001,-100,4,1,1,40,0,0
193472,-100,4,1,1,30,0,0
196558,-100,4,1,1,70,0,0
197887,342.857142857143,4,1,1,40,1,1
202987,-100,4,1,1,45,0,1
206072,-100,4,1,1,50,0,1
208901,-100,4,1,1,40,0,1
216829,-100,4,1,1,30,0,1
219787,-100,4,1,1,40,0,1
228015,-100,4,1,1,45,0,1
230072,-100,4,1,1,30,0,1
236244,-100,4,1,1,40,0,1
237272,-100,4,1,1,30,0,1
237701,-100,4,1,1,40,0,1
238729,-100,4,1,1,30,0,1
239072,-100,4,1,1,50,0,1
240358,-100,4,1,1,70,0,1
241687,-100,4,1,1,40,0,0
259687,-100,4,1,1,35,0,0
263801,-100,4,1,1,30,0,0
274601,-100,4,1,1,25,0,0
280215,-100,4,1,1,20,0,0
285572,-100,4,1,1,15,0,0
291229,-100,4,1,1,10,0,0

[HitObjects]
160,128,412,6,2,L|352:80,1,179.999992847443
384,64,755,1,2,0:0:0:0:
432,128,927,1,0,0:0:0:0:
384,144,1012,1,2,0:0:0:0:
112,240,1098,1,0,0:0:0:0:
160,256,1269,5,0,0:0:0:0:
208,272,1355,1,2,0:0:0:0:
256,288,1441,1,0,0:0:0:0:
64,160,1612,6,8,L|192:112,1,119.999995231629
432,64,1869,1,2,0:0:0:0:
384,80,1955,1,0,0:0:0:0:
336,96,2127,1,0,0:0:0:0:
112,288,2298,5,0,0:0:0:0:
160,304,2384,1,2,0:0:0:0:
208,288,2469,1,0,0:0:0:0:
368,256,2641,1,2,0:0:0:0:
288,176,2812,1,0,0:0:0:0:
208,96,2984,1,4,0:0:0:0:
400,176,3155,5,8,0:0:0:0:
32,304,3327,2,0,L|160:304,1,119.999995231629
256,304,3584,1,2,0:0:0:0:
128,192,3712,1,0,0:0:0:0:
384,192,3884,6,2,L|544:48,1,209.99999165535
512,224,4355,2,8,L|416:304,1,119.999995231629
80,288,4698,2,4,L|144:288,1,59.9999976158143
192,256,4869,1,0,0:0:0:0:
256,208,5041,1,4,0:0:0:0:
320,160,5212,1,4,0:0:0:0:
432,320,5384,5,2,0:0:0:0:
320,288,5555,1,0,0:0:0:0:
368,240,5641,1,4,0:0:0:0:
320,192,5727,1,0,0:0:0:0:
368,144,5898,5,14,0:0:0:0:
32,288,6069,2,0,L|160:288,1,119.999995231629
256,208,6412,2,2,L|112:208,1,119.999995231629
64,208,6669,2,2,L|16:160,1,59.9999976158143
96,96,6927,1,0,0:0:0:0:
160,96,7012,1,2,0:0:0:0:
224,96,7098,1,0,0:0:0:0:
96,96,7269,1,8,0:0:0:0:
464,192,7441,6,0,L|320:192,1,119.999995231629
272,256,7784,1,0,0:0:0:0:
192,320,7955,2,2,L|64:320,1,119.999995231629
192,192,8298,1,0,0:0:0:0:
240,144,8384,1,2,0:0:0:0:
192,96,8469,1,0,0:0:0:0:
80,96,8641,5,10,0:0:0:0:
464,288,8812,2,0,L|320:288,1,119.999995231629
400,208,9069,1,2,0:0:0:0:
352,112,9155,2,0,L|480:112,1,119.999995231629
400,16,9498,1,2,0:0:0:0:
288,16,9669,1,0,0:0:0:0:
240,112,9841,1,2,0:0:0:0:
288,208,10012,1,8,0:0:0:0:
80,208,10184,6,0,L|208:208,1,119.999995231629
80,128,10441,1,2,0:0:0:0:
80,48,10527,2,0,L|224:48,1,119.999995231629
272,128,10784,2,2,L|144:128,1,119.999995231629
240,192,11041,1,0,0:0:0:0:
144,240,11212,1,4,0:0:0:0:
48,288,11384,5,6,0:0:0:0:
400,192,11555,2,0,L|480:192,1,59.9999976158143
496,192,11727,1,0,0:0:0:0:
128,96,11898,6,2,L|208:96,1,59.9999976158143
224,96,12069,1,0,0:0:0:0:
288,96,12241,5,2,0:0:0:0:
96,192,12412,1,0,0:0:0:0:
128,224,12498,1,2,0:0:0:0:
160,256,12584,1,0,0:0:0:0:
128,288,12669,1,2,0:0:0:0:
160,320,12755,1,0,0:0:0:0:
448,80,12841,6,0,L|304:80,1,119.999995231629
288,112,13098,1,0,0:0:0:0:
384,176,13184,1,2,0:0:0:0:
352,192,13269,1,0,0:0:0:0:
320,208,13355,1,2,0:0:0:0:
416,256,13441,1,0,0:0:0:0:
160,256,13612,6,0,L|80:256,1,59.9999976158143
64,256,13784,1,4,0:0:0:0:
432,112,13955,6,0,L|352:112,1,59.9999976158143
400,48,14127,1,2,0:0:0:0:
112,80,14212,6,0,L|176:80,1,59.9999976158143
160,144,14384,2,2,L|224:144,1,59.9999976158143
336,208,14555,6,0,L|272:208,1,59.9999976158143
288,272,14727,2,2,L|224:272,1,59.9999976158143
48,272,14898,6,0,L|112:272,1,59.9999976158143
96,208,15069,2,2,L|160:208,1,59.9999976158143
368,144,15241,6,4,L|288:144,1,59.9999976158143
320,80,15412,2,6,L|240:80,1,59.9999976158143
16,16,15584,6,0,L|80:16,1,59.9999976158143
64,80,15755,2,2,L|128:80,1,59.9999976158143
208,160,15927,2,0,L|288:160,1,59.9999976158143
256,224,16098,2,2,L|336:224,1,59.9999976158143
400,288,16269,2,0,L|464:288,1,59.9999976158143
448,352,16441,2,6,L|528:352,1,59.9999976158143
96,96,16698,6,0,L|176:96,1,59.9999976158143
96,176,16869,1,2,0:0:0:0:
416,256,17041,6,4,L|352:256,1,59.9999976158143
416,176,17212,1,2,0:0:0:0:
96,256,17384,6,0,L|160:256,1,59.9999976158143
96,176,17555,1,2,0:0:0:0:
416,96,17727,6,0,L|336:96,1,59.9999976158143
416,176,17898,1,2,0:0:0:0:
96,96,18069,6,0,L|192:192,1,119.999995231629
416,256,18412,2,0,L|320:160,1,119.999995231629
96,256,18755,2,0,L|192:160,1,119.999995231629
416,96,19098,2,0,L|304:192,1,119.999995231629
96,176,19441,6,0,L|48:112,1,59.9999976158143
0,64,19612,1,2,0:0:0:0:
128,64,19784,2,0,L|256:64,1,119.999995231629
352,64,20084,1,2,0:0:0:0:
480,64,20298,1,0,0:0:0:0:
128,192,20469,2,2,L|192:192,1,59.9999976158143
192,272,20641,1,0,0:0:0:0:
320,272,20812,2,0,L|400:272,1,59.9999976158143
512,272,20984,1,12,0:0:0:0:
0,192,21327,5,12,0:0:0:0:
512,112,21669,1,12,0:0:0:0:
0,32,22012,1,12,0:0:0:0:
512,128,22355,5,4,0:0:0:0:
112,192,22527,2,0,L|176:192,1,59.9999976158143
256,192,22698,1,2,0:0:0:0:
400,192,22869,2,0,L|336:192,1,59.9999976158143
256,192,23041,1,12,0:0:0:0:
16,112,23212,5,6,0:0:0:0:
96,176,23298,2,0,L|16:176,1,59.9999976158143
64,240,23469,2,0,L|128:240,1,59.9999976158143
96,304,23641,2,4,L|160:304,1,59.9999976158143
512,144,23898,5,6,0:0:0:0:
480,208,23984,2,0,L|416:208,1,59.9999976158143
448,272,24155,2,0,L|384:272,1,59.9999976158143
416,336,24327,2,12,L|352:336,1,59.9999976158143
96,336,24584,5,6,0:0:0:0:
128,272,24669,2,0,L|192:272,1,59.9999976158143
160,208,24841,2,0,L|224:208,1,59.9999976158143
192,144,25012,2,4,L|256:144,1,59.9999976158143
480,336,25269,5,6,0:0:0:0:
448,272,25355,2,0,L|384:272,1,59.9999976158143
416,208,25527,2,0,L|352:208,1,59.9999976158143
384,144,25698,2,12,L|320:144,1,59.9999976158143
32,160,25955,5,6,0:0:0:0:
48,224,26041,2,0,L|112:224,1,59.9999976158143
80,288,26212,2,0,L|160:288,1,59.9999976158143
112,352,26384,2,4,L|176:352,1,59.9999976158143
416,144,26641,6,4,L|320:48,1,119.999995231629
96,240,26984,2,12,L|192:336,1,119.999995231629
416,240,27327,2,6,L|320:336,1,119.999995231629,2|2,0:0|0:0,0:0:0:0:
96,144,27669,2,4,L|192:48,1,119.999995231629
464,144,28012,6,2,L|384:144,1,59.9999976158143
464,64,28184,1,4,0:0:0:0:
288,64,28355,1,0,0:0:0:0:
288,144,28441,2,12,L|368:144,1,59.9999976158143
48,240,28698,6,2,L|128:240,1,59.9999976158143
48,320,28869,1,4,0:0:0:0:
224,320,29041,1,0,0:0:0:0:
224,240,29126,2,4,L|160:240,1,59.9999976158143
464,240,29384,6,2,L|400:240,1,59.9999976158143
464,320,29555,1,4,0:0:0:0:
288,320,29726,1,0,0:0:0:0:
288,240,29812,2,12,L|352:240,1,59.9999976158143
48,144,30069,6,2,L|128:144,1,59.9999976158143
48,64,30241,1,4,0:0:0:0:
224,64,30412,1,0,0:0:0:0:
224,144,30498,2,4,L|160:144,1,59.9999976158143
464,144,30755,6,2,L|400:144,1,59.9999976158143
464,64,30926,1,4,0:0:0:0:
288,64,31098,1,0,0:0:0:0:
288,144,31184,2,12,L|352:144,1,59.9999976158143
288,224,31441,6,2,L|352:224,1,59.9999976158143
448,224,31612,1,4,0:0:0:0:
224,224,31784,6,0,L|160:224,1,59.9999976158143
64,224,31955,1,4,0:0:0:0:
288,160,32126,6,2,L|368:160,1,59.9999976158143
448,160,32298,1,4,0:0:0:0:
224,160,32469,6,0,L|160:160,1,59.9999976158143
64,160,32641,1,12,0:0:0:0:
256,224,32812,6,0,L|256:352,1,119.999995231629
304,144,33069,2,2,L|352:96,1,59.9999976158143
208,144,33241,2,4,L|160:96,1,59.9999976158143
480,80,33498,6,2,L|400:80,1,59.9999976158143
480,160,33669,1,4,0:0:0:0:
288,160,33841,1,0,0:0:0:0:
288,80,33926,2,12,L|352:80,1,59.9999976158143
32,304,34184,6,2,L|96:304,1,59.9999976158143
32,224,34355,1,4,0:0:0:0:
224,224,34526,1,0,0:0:0:0:
224,304,34612,2,4,L|160:304,1,59.9999976158143
480,304,34869,6,2,L|416:304,1,59.9999976158143
480,224,35041,1,4,0:0:0:0:
288,224,35212,1,0,0:0:0:0:
288,304,35298,2,12,L|352:304,1,59.9999976158143
32,80,35555,6,2,L|96:80,1,59.9999976158143
32,160,35726,1,4,0:0:0:0:
224,160,35898,1,0,0:0:0:0:
224,80,35984,2,4,L|144:80,1,59.9999976158143
464,80,36241,6,2,L|416:32,1,59.9999976158143
464,160,36412,1,4,0:0:0:0:
352,48,36584,1,0,0:0:0:0:
384,160,36669,2,12,L|336:112,1,59.9999976158143
48,304,36926,6,2,L|96:352,1,59.9999976158143
48,224,37097,1,4,0:0:0:0:
160,336,37269,1,0,0:0:0:0:
128,224,37355,2,4,L|176:272,1,59.9999976158143
464,304,37612,6,2,L|416:352,1,59.9999976158143
464,224,37783,1,4,0:0:0:0:
352,336,37955,1,0,0:0:0:0:
384,224,38040,2,12,L|336:272,1,59.9999976158143
48,80,38298,6,2,L|96:32,1,59.9999976158143
48,160,38469,1,4,0:0:0:0:
160,48,38641,1,0,0:0:0:0:
128,160,38726,2,4,L|176:112,1,59.9999976158143
480,128,38984,6,2,L|400:128,1,59.9999976158143
304,128,39155,1,4,0:0:0:0:
208,128,39326,1,0,0:0:0:0:
96,128,39412,2,12,L|32:128,1,59.9999976158143
32,256,39669,6,2,L|112:256,1,59.9999976158143
208,256,39841,1,4,0:0:0:0:
304,256,40012,1,0,0:0:0:0:
416,256,40098,2,4,L|480:256,1,59.9999976158143
480,128,40355,6,0,L|416:128,1,59.9999976158143
416,64,40526,2,4,L|352:64,1,59.9999976158143
352,128,40698,2,0,L|288:128,1,59.9999976158143
288,192,40869,2,12,L|208:192,1,59.9999976158143
224,256,41041,2,0,L|160:256,1,59.9999976158143
160,320,41212,2,6,L|96:320,1,59.9999976158143
96,256,41384,2,0,L|16:256,1,59.9999976158143
96,176,41555,5,4,0:0:0:0:
384,32,41726,2,2,L|464:32,1,59.9999976158143
384,112,41898,1,4,0:0:0:0:
320,192,42069,2,0,L|384:192,1,59.9999976158143
448,192,42241,1,12,0:0:0:0:
128,352,42412,6,2,L|48:352,1,59.9999976158143
128,272,42584,1,4,0:0:0:0:
192,192,42755,2,0,L|128:192,1,59.9999976158143
64,192,42926,1,12,0:0:0:0:
384,352,43098,6,2,L|464:352,1,59.9999976158143
384,272,43270,1,4,0:0:0:0:
320,192,43441,2,0,L|384:192,1,59.9999976158143
448,192,43612,1,12,0:0:0:0:
128,32,43784,6,2,L|48:32,1,59.9999976158143
128,112,43956,1,8,0:0:0:0:
192,192,44127,2,0,L|128:192,1,59.9999976158143
64,192,44299,1,6,0:0:0:0:
464,80,44469,6,2,L|368:176,1,119.999995231629
320,224,44812,2,0,L|224:320,1,119.999995231629
176,368,45155,2,2,L|80:272,1,119.999995231629
32,224,45498,2,0,L|128:128,1,119.999995231629
176,80,45841,2,2,L|272:-16,1,119.999995231629
336,32,46184,2,0,L|432:128,1,119.999995231629
480,176,46526,2,2,L|384:272,1,119.999995231629
336,320,46869,2,0,L|224:224,1,119.999995231629
160,160,47212,6,2,L|416:160,1,239.999990463257
496,160,47726,1,4,0:0:0:0:
448,96,47898,2,2,L|192:96,1,239.999990463257
112,96,48412,1,4,0:0:0:0:
48,32,48584,2,2,L|304:32,1,239.999990463257
0,96,49269,6,2,L|96:192,1,119.999995231629
144,240,49612,2,0,L|240:336,1,119.999995231629
288,384,49955,2,2,L|384:288,1,119.999995231629
432,240,50298,2,0,L|336:144,1,119.999995231629
288,96,50641,2,2,L|192:192,1,119.999995231629
144,240,50984,2,0,L|240:336,1,119.999995231629
288,384,51326,2,2,L|384:288,1,119.999995231629
432,240,51669,2,0,L|336:144,1,119.999995231629
288,96,52012,5,0,0:0:0:0:
352,32,52098,2,2,L|416:32,1,59.9999976158143
464,96,52355,1,0,0:0:0:0:
416,160,52441,2,2,L|464:208,1,59.9999976158143
224,304,52698,6,0,L|128:208,1,119.999995231629
80,160,52955,1,2,0:0:0:0:
144,96,53126,2,4,L|192:144,1,59.9999976158143
256,208,53384,2,0,L|304:160,1,59.9999976158143
368,96,53555,1,2,0:0:0:0:
256,208,53726,2,0,L|208:256,1,59.9999976158143
144,320,53898,1,2,0:0:0:0:
432,176,54069,6,2,L|336:272,1,119.999995231629
288,320,54412,2,0,L|192:224,1,119.999995231629
144,176,54755,2,2,L|240:80,1,119.999995231629
304,32,55098,2,0,L|400:128,1,119.999995231629
448,176,55441,2,2,L|352:272,1,119.999995231629
304,320,55784,2,0,L|208:240,1,119.999995231629
144,192,56126,2,2,L|240:96,1,119.999995231629
288,48,56469,2,0,L|384:144,1,119.999995231629
432,208,56812,2,2,L|336:304,1,119.999995231629
288,352,57155,2,0,L|192:256,1,119.999995231629
144,208,57498,2,2,L|240:112,1,119.999995231629
288,64,57841,2,0,L|384:160,1,119.999995231629
512,304,58184,6,2,L|256:304,1,239.999990463257
160,304,58698,1,4,0:0:0:0:
96,192,58869,2,2,L|352:192,1,239.999990463257
448,192,59426,1,4,0:0:0:0:
400,80,59555,2,2,L|144:80,1,239.999990463257
48,80,60069,1,4,0:0:0:0:
400,192,60241,6,2,L|304:288,1,119.999995231629
240,336,60584,2,0,L|144:240,1,119.999995231629
96,192,60926,2,2,L|192:96,1,119.999995231629
240,48,61269,2,0,L|352:144,1,119.999995231629
400,192,61612,2,2,L|304:288,1,119.999995231629
256,336,61955,2,0,L|144:240,1,119.999995231629
96,192,62298,2,2,L|192:96,1,119.999995231629
256,48,62641,2,0,L|352:144,1,119.999995231629
400,208,62984,2,2,L|304:304,1,119.999995231629
80,304,63326,5,8,0:0:0:0:
80,224,63412,2,0,L|160:224,1,59.9999976158143
80,144,63584,1,2,0:0:0:0:
80,64,63669,2,0,L|144:64,1,59.9999976158143
288,64,63841,2,2,L|208:64,1,59.9999976158143
288,144,64012,1,0,0:0:0:0:
288,224,64098,2,2,L|208:224,1,59.9999976158143
144,224,64355,2,0,L|80:224,1,59.9999976158143
416,224,64526,5,2,0:0:0:0:
384,256,64612,1,0,0:0:0:0:
352,224,64698,1,2,0:0:0:0:
320,256,64784,1,0,0:0:0:0:
288,224,64869,1,2,0:0:0:0:
48,64,65041,5,0,0:0:0:0:
80,96,65126,1,2,0:0:0:0:
112,64,65212,1,0,0:0:0:0:
144,96,65298,1,2,0:0:0:0:
176,128,65384,1,0,0:0:0:0:
208,160,65469,1,2,0:0:0:0:
240,192,65555,5,0,0:0:0:0:
208,224,65641,1,2,0:0:0:0:
176,256,65726,1,0,0:0:0:0:
144,288,65812,1,2,0:0:0:0:
112,256,65898,1,0,0:0:0:0:
80,288,65984,1,2,0:0:0:0:
48,256,66069,1,0,0:0:0:0:
16,192,66155,5,2,0:0:0:0:
16,96,66241,5,4,0:0:0:0:
480,192,66326,2,2,L|416:192,1,59.9999976158143
288,112,66584,2,0,L|416:112,1,119.999995231629
416,272,66926,2,8,L|160:272,1,239.999990463257
96,272,67355,2,0,L|32:272,1,59.9999976158143
160,336,67612,5,2,0:0:0:0:
304,336,67698,2,0,L|240:336,1,59.9999976158143
304,256,67955,2,2,L|208:160,1,119.999995231629
128,80,68298,2,0,L|224:176,1,119.999995231629
288,112,68641,2,2,L|384:208,1,119.999995231629
448,144,68984,5,4,0:0:0:0:
80,272,69069,2,0,L|128:224,1,59.9999976158143
192,160,69326,2,2,L|368:160,1,149.999994039536
432,256,69669,2,0,L|176:256,1,239.999990463257
112,256,70098,2,0,L|64:208,1,59.9999976158143
16,160,70355,5,2,0:0:0:0:
16,80,70441,2,0,L|80:80,1,59.9999976158143
160,80,70698,2,2,L|256:176,1,119.999995231629
192,224,71041,2,0,L|288:320,1,119.999995231629
336,256,71384,2,2,L|432:352,1,119.999995231629
480,288,71726,5,4,0:0:0:0:
80,192,71812,2,2,L|128:240,1,59.9999976158143
192,288,72069,2,0,L|320:288,1,119.999995231629
400,192,72412,2,8,L|160:192,1,239.999990463257
80,192,72841,2,0,L|16:192,1,59.9999976158143
16,112,73098,5,2,0:0:0:0:
16,32,73184,2,0,L|96:32,1,59.9999976158143
160,32,73441,2,2,L|256:128,1,119.999995231629
192,160,73784,2,0,L|288:256,1,119.999995231629
336,208,74126,2,2,L|432:304,1,119.999995231629
480,240,74469,5,4,0:0:0:0:
128,320,74555,2,2,L|192:320,1,59.9999976158143
320,240,74812,2,0,L|256:240,1,59.9999976158143
176,240,74984,1,2,0:0:0:0:
32,240,75155,6,2,L|112:240,1,59.9999976158143
176,176,75326,2,0,L|96:176,1,59.9999976158143
48,112,75498,2,2,L|112:112,1,59.9999976158143
192,48,75669,2,0,L|112:48,1,59.9999976158143
272,48,75841,1,2,0:0:0:0:
448,48,76012,6,2,L|384:48,1,59.9999976158143
304,112,76184,2,0,L|384:112,1,59.9999976158143
464,176,76355,2,2,L|400:176,1,59.9999976158143
320,240,76526,2,0,L|400:240,1,59.9999976158143
480,304,76698,2,2,L|400:304,1,59.9999976158143
304,368,76869,5,6,0:0:0:0:
48,272,76955,2,2,L|128:272,1,59.9999976158143
32,64,77212,5,4,0:0:0:0:
448,112,77298,2,2,L|368:112,1,59.9999976158143
416,192,77469,1,0,0:0:0:0:
464,272,77555,1,4,0:0:0:0:
208,336,77726,6,2,L|288:336,1,59.9999976158143
368,336,77898,1,4,0:0:0:0:
112,112,78069,2,2,L|192:112,1,59.9999976158143
256,112,78241,1,4,0:0:0:0:
0,192,78326,5,2,0:0:0:0:
16,240,78412,1,4,0:0:0:0:
32,288,78498,1,2,0:0:0:0:
16,336,78584,5,4,0:0:0:0:
400,240,78669,1,2,0:0:0:0:
336,160,78755,6,0,L|400:160,1,59.9999976158143
336,80,78926,1,4,0:0:0:0:
48,176,79098,6,2,L|112:224,1,59.9999976158143
48,272,79269,1,4,0:0:0:0:
352,336,79355,5,0,0:0:0:0:
368,304,79441,1,4,0:0:0:0:
384,272,79526,1,2,0:0:0:0:
368,240,79612,5,4,0:0:0:0:
128,80,79698,1,0,0:0:0:0:
64,160,79784,6,4,L|128:160,1,59.9999976158143
64,240,79955,1,4,0:0:0:0:
400,96,80126,6,2,L|352:144,1,59.9999976158143
400,192,80298,1,4,0:0:0:0:
128,48,80384,5,0,0:0:0:0:
112,80,80469,1,2,0:0:0:0:
96,112,80555,1,0,0:0:0:0:
112,144,80641,5,4,0:0:0:0:
368,272,80726,1,0,0:0:0:0:
368,192,80812,6,2,L|304:192,1,59.9999976158143
368,112,80984,1,4,0:0:0:0:
48,208,81155,6,4,L|96:256,1,59.9999976158143
48,304,81326,1,4,0:0:0:0:
320,64,81412,5,0,0:0:0:0:
336,96,81498,1,2,0:0:0:0:
352,128,81584,1,0,0:0:0:0:
336,160,81669,5,4,0:0:0:0:
80,96,81755,1,0,0:0:0:0:
80,176,81841,6,2,L|160:176,1,59.9999976158143
80,256,82012,1,4,0:0:0:0:
80,336,82184,2,4,L|160:336,1,59.9999976158143
224,336,82355,1,4,0:0:0:0:
256,304,82441,1,6,0:0:0:0:
288,272,82526,1,4,0:0:0:0:
320,240,82612,1,6,0:0:0:0:
64,144,82698,5,4,0:0:0:0:
416,112,82784,1,2,0:0:0:0:
368,160,82869,1,4,0:0:0:0:
416,272,83041,5,4,0:0:0:0:
48,272,83126,1,0,0:0:0:0:
80,208,83212,1,4,0:0:0:0:
32,96,83384,5,4,0:0:0:0:
448,64,83469,1,2,0:0:0:0:
400,112,83555,1,4,0:0:0:0:
448,224,83726,5,4,0:0:0:0:
144,320,83812,1,6,0:0:0:0:
96,272,83898,1,4,0:0:0:0:
96,208,83984,1,6,0:0:0:0:
144,160,84069,5,4,0:0:0:0:
432,64,84155,1,2,0:0:0:0:
384,112,84241,1,4,0:0:0:0:
480,112,84412,5,4,0:0:0:0:
112,64,84498,1,2,0:0:0:0:
160,112,84584,1,4,0:0:0:0:
64,112,84755,5,4,0:0:0:0:
432,320,84841,1,2,0:0:0:0:
384,272,84926,1,4,0:0:0:0:
480,272,85098,5,4,0:0:0:0:
112,336,85184,1,6,0:0:0:0:
160,288,85269,1,4,0:0:0:0:
112,240,85355,1,6,0:0:0:0:
64,288,85441,5,4,0:0:0:0:
432,48,85526,1,4,0:0:0:0:
384,96,85612,1,6,0:0:0:0:
432,144,85698,1,4,0:0:0:0:
480,96,85784,5,6,0:0:0:0:
112,144,85869,1,4,0:0:0:0:
160,96,85955,1,6,0:0:0:0:
112,48,86041,1,4,0:0:0:0:
64,96,86126,5,6,0:0:0:0:
432,256,86212,1,4,0:0:0:0:
384,304,86298,1,6,0:0:0:0:
432,352,86384,1,4,0:0:0:0:
480,304,86469,5,6,0:0:0:0:
112,336,86555,1,4,0:0:0:0:
160,288,86641,1,6,0:0:0:0:
112,240,86726,1,4,0:0:0:0:
64,288,86812,5,6,0:0:0:0:
448,96,86888,2,4,L|192:96,1,239.999990463257
96,176,87316,2,4,L|352:176,1,239.999990463257
416,224,87745,1,4,0:0:0:0:
48,288,87916,1,6,0:0:0:0:
64,288,88001,5,0,0:0:0:0:
80,288,88087,1,0,0:0:0:0:
96,288,88173,1,0,0:0:0:0:
48,144,88258,5,4,0:0:0:0:
432,80,88344,1,2,0:0:0:0:
368,128,88430,5,4,0:0:0:0:
32,208,88516,1,2,0:0:0:0:
96,256,88601,5,4,0:0:0:0:
400,320,88687,1,2,0:0:0:0:
464,272,88773,5,4,0:0:0:0:
128,304,88858,1,2,0:0:0:0:
64,256,88944,5,2,0:0:0:0:
480,128,89030,1,2,0:0:0:0:
416,176,89116,5,0,0:0:0:0:
48,96,89201,1,0,0:0:0:0:
112,144,89287,5,4,0:0:0:0:
384,64,89373,1,2,0:0:0:0:
448,16,89458,5,4,0:0:0:0:
128,304,89544,1,2,0:0:0:0:
64,256,89630,5,4,0:0:0:0:
480,128,89716,1,2,0:0:0:0:
416,176,89801,5,0,0:0:0:0:
64,112,89887,1,0,0:0:0:0:
128,160,89973,5,4,0:0:0:0:
384,64,90058,1,2,0:0:0:0:
448,16,90144,5,4,0:0:0:0:
128,304,90230,1,2,0:0:0:0:
64,256,90316,5,4,0:0:0:0:
480,128,90401,1,2,0:0:0:0:
416,176,90487,5,0,0:0:0:0:
64,112,90573,1,2,0:0:0:0:
0,64,90616,1,2,0:0:0:0:
128,160,90658,5,2,0:0:0:0:
384,256,90744,1,2,0:0:0:0:
448,208,90787,1,2,0:0:0:0:
320,304,90830,5,2,0:0:0:0:
64,256,90916,1,4,0:0:0:0:
128,304,91001,5,2,0:0:0:0:
480,128,91087,1,4,0:0:0:0:
416,176,91173,5,2,0:0:0:0:
64,112,91258,1,4,0:0:0:0:
464,48,91301,5,2,0:0:0:0:
416,96,91344,1,0,0:0:0:0:
16,64,91387,5,2,0:0:0:0:
64,112,91430,1,0,0:0:0:0:
416,288,91473,5,2,0:0:0:0:
464,336,91516,1,0,0:0:0:0:
96,256,91558,5,2,0:0:0:0:
48,304,91601,1,0,0:0:0:0:
368,144,91687,5,4,0:0:0:0:
112,96,91773,1,2,0:0:0:0:
48,48,91858,5,0,0:0:0:0:
400,96,91944,1,0,0:0:0:0:
464,48,92030,5,4,0:0:0:0:
48,192,92116,1,2,0:0:0:0:
112,256,92201,5,4,0:0:0:0:
448,304,92287,1,2,0:0:0:0:
384,256,92373,5,4,0:0:0:0:
112,96,92458,1,2,0:0:0:0:
48,48,92544,5,0,0:0:0:0:
400,96,92630,1,0,0:0:0:0:
464,48,92716,5,4,0:0:0:0:
48,192,92801,1,2,0:0:0:0:
112,240,92887,5,2,0:0:0:0:
176,288,92930,1,2,0:0:0:0:
48,336,92973,5,2,0:0:0:0:
400,96,93058,1,2,0:0:0:0:
336,144,93101,1,2,0:0:0:0:
464,192,93144,5,2,0:0:0:0:
112,208,93230,1,2,0:0:0:0:
176,256,93273,1,2,0:0:0:0:
48,304,93316,5,2,0:0:0:0:
400,128,93401,1,2,0:0:0:0:
336,80,93444,1,2,0:0:0:0:
464,32,93487,1,2,0:0:0:0:
400,80,93530,1,2,0:0:0:0:
464,176,93573,1,2,0:0:0:0:
64,96,93658,1,4,0:0:0:0:
128,144,93744,5,2,0:0:0:0:
448,256,93830,1,4,0:0:0:0:
368,288,93916,5,2,0:0:0:0:
128,320,94001,1,4,0:0:0:0:
64,272,94087,5,2,0:0:0:0:
368,144,94173,1,4,0:0:0:0:
448,96,94258,5,2,0:0:0:0:
96,96,94344,1,4,0:0:0:0:
160,144,94430,5,2,0:0:0:0:
432,256,94516,1,0,0:0:0:0:
352,288,94601,5,0,0:0:0:0:
112,320,94687,1,4,0:0:0:0:
48,272,94773,5,2,0:0:0:0:
336,144,94858,1,4,0:0:0:0:
416,96,94944,5,2,0:0:0:0:
48,96,95030,1,4,0:0:0:0:
112,144,95116,5,2,0:0:0:0:
416,256,95201,1,4,0:0:0:0:
336,288,95287,5,2,0:0:0:0:
80,320,95373,1,4,0:0:0:0:
16,272,95458,5,2,0:0:0:0:
320,144,95544,1,4,0:0:0:0:
320,48,95630,5,2,0:0:0:0:
480,144,95716,1,0,0:0:0:0:
96,240,95801,5,2,0:0:0:0:
176,288,95844,1,2,0:0:0:0:
16,192,95887,5,2,0:0:0:0:
400,304,95973,1,2,0:0:0:0:
320,336,96016,1,2,0:0:0:0:
480,272,96058,1,2,0:0:0:0:
400,240,96101,1,2,0:0:0:0:
480,208,96144,1,6,0:0:0:0:
112,80,96230,1,0,0:0:0:0:
32,128,96316,5,0,0:0:0:0:
336,160,96401,1,4,0:0:0:0:
416,112,96487,5,2,0:0:0:0:
48,272,96573,1,4,0:0:0:0:
128,224,96658,5,2,0:0:0:0:
384,64,96744,1,4,0:0:0:0:
64,64,96787,5,2,0:0:0:0:
112,112,96830,1,0,0:0:0:0:
464,192,96873,5,2,0:0:0:0:
416,240,96916,1,0,0:0:0:0:
128,288,96958,5,2,0:0:0:0:
80,240,97001,1,0,0:0:0:0:
400,320,97044,5,2,0:0:0:0:
448,272,97087,1,0,0:0:0:0:
32,288,97173,5,4,0:0:0:0:
352,320,97258,1,2,0:0:0:0:
448,288,97344,5,0,0:0:0:0:
160,272,97430,1,0,0:0:0:0:
64,240,97516,5,4,0:0:0:0:
448,224,97601,1,2,0:0:0:0:
352,256,97687,5,4,0:0:0:0:
64,176,97773,1,2,0:0:0:0:
160,208,97858,5,4,0:0:0:0:
352,192,97944,1,2,0:0:0:0:
448,160,98030,5,4,0:0:0:0:
160,144,98116,1,0,0:0:0:0:
64,112,98201,5,4,0:0:0:0:
448,96,98287,1,0,0:0:0:0:
384,144,98373,5,2,0:0:0:0:
320,192,98416,1,2,0:0:0:0:
448,240,98458,5,2,0:0:0:0:
112,256,98544,1,2,0:0:0:0:
176,304,98587,1,2,0:0:0:0:
48,208,98630,5,2,0:0:0:0:
384,256,98716,1,2,0:0:0:0:
320,304,98758,1,2,0:0:0:0:
448,208,98801,5,2,0:0:0:0:
112,80,98887,1,2,0:0:0:0:
176,32,98930,1,2,0:0:0:0:
48,128,98973,5,6,0:0:0:0:
384,80,99058,1,2,0:0:0:0:
320,32,99101,1,2,0:0:0:0:
448,128,99144,5,6,0:0:0:0:
80,32,99230,1,4,0:0:0:0:
160,80,99316,5,2,0:0:0:0:
464,80,99401,1,4,0:0:0:0:
400,128,99487,5,2,0:0:0:0:
160,128,99573,1,4,0:0:0:0:
80,176,99658,5,2,0:0:0:0:
400,176,99744,1,4,0:0:0:0:
464,224,99830,5,2,0:0:0:0:
80,224,99916,1,4,0:0:0:0:
160,272,100001,5,2,0:0:0:0:
464,272,100087,1,0,0:0:0:0:
400,320,100173,5,0,0:0:0:0:
160,320,100258,1,4,0:0:0:0:
80,368,100344,5,2,0:0:0:0:
400,368,100430,1,4,0:0:0:0:
464,320,100516,5,2,0:0:0:0:
80,320,100601,1,4,0:0:0:0:
160,272,100687,5,2,0:0:0:0:
464,272,100773,1,0,0:0:0:0:
400,224,100858,5,0,0:0:0:0:
160,224,100944,1,4,0:0:0:0:
80,176,101030,5,2,0:0:0:0:
400,176,101116,1,4,0:0:0:0:
464,128,101201,5,2,0:0:0:0:
80,128,101287,1,4,0:0:0:0:
160,80,101373,5,2,0:0:0:0:
464,80,101458,1,0,0:0:0:0:
112,144,101544,5,2,0:0:0:0:
192,192,101587,1,2,0:0:0:0:
32,96,101630,5,2,0:0:0:0:
400,96,101716,1,2,0:0:0:0:
320,144,101758,1,2,0:0:0:0:
480,48,101801,5,2,0:0:0:0:
80,48,101887,1,4,0:0:0:0:
160,96,101973,5,2,0:0:0:0:
480,144,102058,1,4,0:0:0:0:
416,192,102144,5,2,0:0:0:0:
80,240,102230,1,4,0:0:0:0:
432,320,102273,5,2,0:0:0:0:
384,272,102316,1,0,0:0:0:0:
96,304,102358,5,2,0:0:0:0:
144,256,102401,1,0,0:0:0:0:
416,128,102444,5,2,0:0:0:0:
464,80,102487,1,0,0:0:0:0:
96,112,102530,5,2,0:0:0:0:
48,64,102573,1,0,0:0:0:0:
368,80,102658,5,4,0:0:0:0:
48,160,102744,1,2,0:0:0:0:
128,208,102830,5,0,0:0:0:0:
416,176,102916,1,0,0:0:0:0:
352,224,103001,5,4,0:0:0:0:
96,320,103087,1,2,0:0:0:0:
16,272,103173,5,4,0:0:0:0:
336,272,103258,1,2,0:0:0:0:
400,224,103344,5,4,0:0:0:0:
80,144,103430,1,2,0:0:0:0:
160,176,103516,5,0,0:0:0:0:
480,192,103601,1,0,0:0:0:0:
416,240,103687,5,4,0:0:0:0:
144,272,103773,1,2,0:0:0:0:
64,224,103858,5,2,0:0:0:0:
464,96,103944,1,2,0:0:0:0:
400,144,104030,5,2,0:0:0:0:
336,192,104073,1,2,0:0:0:0:
464,240,104116,5,2,0:0:0:0:
112,240,104202,1,2,0:0:0:0:
176,288,104245,1,2,0:0:0:0:
48,192,104287,5,2,0:0:0:0:
400,192,104373,1,2,0:0:0:0:
336,240,104416,1,2,0:0:0:0:
464,144,104458,5,6,0:0:0:0:
112,144,104545,1,2,0:0:0:0:
176,192,104587,1,2,0:0:0:0:
48,96,104630,1,2,0:0:0:0:
112,48,104673,1,2,0:0:0:0:
48,0,104716,1,4,0:0:0:0:
432,0,104801,1,2,0:0:0:0:
368,48,104887,5,4,0:0:0:0:
48,48,104973,1,2,0:0:0:0:
128,96,105058,5,4,0:0:0:0:
416,96,105144,1,2,0:0:0:0:
480,48,105230,5,4,0:0:0:0:
160,96,105316,1,2,0:0:0:0:
80,144,105401,5,4,0:0:0:0:
352,160,105487,1,2,0:0:0:0:
416,208,105573,5,0,0:0:0:0:
0,240,105658,1,0,0:0:0:0:
80,288,105744,5,4,0:0:0:0:
496,240,105830,1,2,0:0:0:0:
432,192,105916,5,4,0:0:0:0:
128,192,106001,1,2,0:0:0:0:
48,144,106087,5,4,0:0:0:0:
368,96,106173,1,2,0:0:0:0:
432,48,106258,5,0,0:0:0:0:
112,96,106344,1,0,0:0:0:0:
192,144,106430,5,4,0:0:0:0:
480,16,106516,1,2,0:0:0:0:
96,80,106601,5,2,0:0:0:0:
176,112,106644,1,2,0:0:0:0:
16,48,106687,5,2,0:0:0:0:
400,48,106773,1,2,0:0:0:0:
320,16,106816,1,2,0:0:0:0:
480,80,106858,1,2,0:0:0:0:
400,112,106901,1,2,0:0:0:0:
480,144,106944,1,6,0:0:0:0:
96,144,107030,1,6,0:0:0:0:
176,192,107116,5,2,0:0:0:0:
448,240,107201,1,6,0:0:0:0:
384,288,107287,5,0,0:0:0:0:
16,256,107373,1,4,0:0:0:0:
96,208,107458,5,2,0:0:0:0:
368,176,107544,1,2,0:0:0:0:
432,224,107630,5,0,0:0:0:0:
80,240,107715,1,4,0:0:0:0:
432,320,107758,5,2,0:0:0:0:
384,272,107801,1,0,0:0:0:0:
96,304,107843,5,2,0:0:0:0:
144,256,107886,1,0,0:0:0:0:
416,128,107929,5,2,0:0:0:0:
464,80,107973,1,0,0:0:0:0:
96,112,108015,5,2,0:0:0:0:
48,64,108058,1,0,0:0:0:0:
464,192,108144,5,4,0:0:0:0:
192,192,108230,2,2,L|272:192,1,59.9999976158143
0,192,108401,1,4,0:0:0:0:
48,240,108487,1,2,0:0:0:0:
320,192,108573,6,4,L|256:192,1,59.9999976158143
512,192,108744,1,0,0:0:0:0:
464,144,108830,1,4,0:0:0:0:
192,192,108916,6,4,L|256:192,1,59.9999976158143
0,192,109087,1,0,0:0:0:0:
48,144,109173,1,4,0:0:0:0:
320,192,109258,6,4,L|240:192,1,59.9999976158143
512,192,109429,1,0,0:0:0:0:
464,240,109515,1,4,0:0:0:0:
192,192,109601,6,4,L|272:192,1,59.9999976158143
0,192,109772,1,0,0:0:0:0:
48,240,109858,1,12,0:0:0:0:
416,64,110030,6,0,L|352:64,1,59.9999976158143
416,144,110201,1,4,0:0:0:0:
96,144,110373,2,2,L|160:144,1,59.9999976158143
96,64,110544,1,4,0:0:0:0:
416,320,110716,6,0,L|352:320,1,59.9999976158143
416,240,110887,1,4,0:0:0:0:
96,320,111058,2,2,L|160:320,1,59.9999976158143
96,240,111230,1,4,0:0:0:0:
336,112,111401,6,0,L|384:64,1,59.9999976158143
432,16,111573,1,4,0:0:0:0:
176,112,111744,2,2,L|128:64,1,59.9999976158143
80,16,111916,1,4,0:0:0:0:
336,272,112087,6,0,L|384:320,1,59.9999976158143
432,368,112259,1,4,0:0:0:0:
176,272,112430,2,2,L|128:320,1,59.9999976158143
80,368,112601,1,4,0:0:0:0:
368,304,112773,6,0,L|320:256,1,59.9999976158143
256,192,112944,1,4,0:0:0:0:
192,128,113030,2,2,L|144:80,1,59.9999976158143
384,64,113201,1,4,0:0:0:0:
64,64,113244,5,2,0:0:0:0:
112,112,113287,1,0,0:0:0:0:
464,192,113330,5,2,0:0:0:0:
416,240,113373,1,0,0:0:0:0:
128,288,113415,5,2,0:0:0:0:
80,240,113458,1,0,0:0:0:0:
400,320,113501,5,2,0:0:0:0:
448,272,113544,1,0,0:0:0:0:
128,192,113630,5,4,0:0:0:0:
416,288,113801,2,0,L|416:224,1,59.9999976158143
384,192,113973,1,4,0:0:0:0:
96,288,114144,2,2,L|96:224,1,59.9999976158143
128,192,114316,1,4,0:0:0:0:
416,96,114487,6,0,L|416:160,1,59.9999976158143
384,192,114658,1,4,0:0:0:0:
96,96,114830,2,2,L|96:176,1,59.9999976158143
128,192,115001,1,4,0:0:0:0:
416,288,115173,6,0,L|416:208,1,59.9999976158143
448,320,115344,1,4,0:0:0:0:
96,288,115516,2,0,L|96:208,1,59.9999976158143
64,320,115687,1,4,0:0:0:0:
416,96,115858,6,2,L|416:176,1,59.9999976158143
448,64,116030,1,4,0:0:0:0:
96,96,116201,2,2,L|96:160,1,59.9999976158143
64,64,116373,1,4,0:0:0:0:
304,240,116544,6,0,L|384:240,1,59.9999976158143
464,240,116716,1,4,0:0:0:0:
192,144,116887,2,2,L|128:144,1,59.9999976158143
48,144,117058,1,4,0:0:0:0:
304,144,117230,6,0,L|368:144,1,59.9999976158143
464,144,117401,1,4,0:0:0:0:
192,240,117573,2,2,L|128:240,1,59.9999976158143
48,240,117744,1,4,0:0:0:0:
256,352,117916,6,0,L|304:288,1,59.9999976158143
336,256,118087,1,4,0:0:0:0:
320,192,118258,2,0,L|320:112,1,59.9999976158143
304,96,118430,1,4,0:0:0:0:
288,64,118516,1,2,0:0:0:0:
272,32,118601,1,4,0:0:0:0:
256,0,118687,1,4,0:0:0:0:
64,64,118730,5,2,0:0:0:0:
112,112,118773,1,0,0:0:0:0:
464,192,118816,5,2,0:0:0:0:
416,240,118859,1,0,0:0:0:0:
128,288,118901,5,2,0:0:0:0:
80,240,118944,1,0,0:0:0:0:
400,320,118987,5,2,0:0:0:0:
448,272,119030,1,0,0:0:0:0:
160,0,119116,5,4,0:0:0:0:
512,0,119287,2,2,L|512:64,1,59.9999976158143
480,128,119458,1,4,0:0:0:0:
96,128,119630,2,2,L|96:208,1,59.9999976158143
144,240,119801,1,4,0:0:0:0:
416,128,119973,2,6,L|416:208,1,59.9999976158143
368,240,120144,1,4,0:0:0:0:
64,176,120316,2,6,L|64:240,1,59.9999976158143
112,288,120487,1,4,0:0:0:0:
352,16,120658,6,4,L|224:16,1,119.999995231629
512,80,121001,2,0,L|448:80,1,59.9999976158143
432,144,121173,2,2,L|368:144,1,59.9999976158143
352,208,121344,2,0,L|288:208,1,59.9999976158143
256,272,121516,1,0,0:0:0:0:
80,272,121687,2,2,L|144:272,1,59.9999976158143
176,336,121858,1,4,0:0:0:0:
480,32,122030,6,0,L|416:32,1,59.9999976158143
384,96,122201,1,4,0:0:0:0:
336,160,122373,2,2,L|400:160,1,59.9999976158143
416,224,122544,1,4,0:0:0:0:
464,288,122716,2,0,L|400:288,1,59.9999976158143
400,352,122887,1,4,0:0:0:0:
32,32,123058,6,2,L|96:32,1,59.9999976158143
128,96,123229,1,4,0:0:0:0:
176,160,123401,2,0,L|112:160,1,59.9999976158143
96,224,123572,1,4,0:0:0:0:
48,288,123744,2,0,L|112:288,1,59.9999976158143
112,352,123916,1,4,0:0:0:0:
48,352,124001,6,2,L|112:352,1,59.9999976158143
352,32,124173,1,4,0:0:0:0:
64,64,124216,5,2,0:0:0:0:
112,112,124259,1,0,0:0:0:0:
464,192,124302,5,2,0:0:0:0:
416,240,124345,1,0,0:0:0:0:
128,288,124387,5,2,0:0:0:0:
80,240,124430,1,0,0:0:0:0:
400,320,124473,5,2,0:0:0:0:
448,272,124516,1,0,0:0:0:0:
48,128,124601,5,4,0:0:0:0:
416,128,124773,2,0,L|336:128,1,59.9999976158143
384,48,124944,1,4,0:0:0:0:
416,256,125116,2,2,L|352:256,1,59.9999976158143
384,336,125287,1,4,0:0:0:0:
96,128,125458,6,0,L|160:128,1,59.9999976158143
128,48,125630,1,4,0:0:0:0:
96,256,125801,2,2,L|160:256,1,59.9999976158143
128,336,125973,1,4,0:0:0:0:
256,80,126144,6,0,L|256:224,1,119.999995231629
272,352,126487,2,0,L|272:272,1,59.9999976158143
272,256,126658,1,4,0:0:0:0:
272,224,126744,1,0,0:0:0:0:
240,352,126830,2,2,L|240:288,1,59.9999976158143
240,256,127001,1,2,0:0:0:0:
240,224,127087,1,0,0:0:0:0:
256,352,127173,2,2,L|256:288,1,59.9999976158143
256,272,127344,1,4,0:0:0:0:
256,256,127430,5,2,0:0:0:0:
256,240,127473,1,2,0:0:0:0:
256,224,127516,1,2,0:0:0:0:
272,208,127558,1,2,0:0:0:0:
272,192,127601,1,0,0:0:0:0:
288,176,127644,1,2,0:0:0:0:
288,160,127687,1,4,0:0:0:0:
288,144,127730,5,2,0:0:0:0:
272,128,127773,1,2,0:0:0:0:
272,112,127816,1,2,0:0:0:0:
256,96,127858,1,2,0:0:0:0:
256,80,127901,1,2,0:0:0:0:
240,64,127944,1,0,0:0:0:0:
240,48,127987,1,2,0:0:0:0:
224,32,128030,1,4,0:0:0:0:
224,16,128073,1,2,0:0:0:0:
224,0,128116,5,2,0:0:0:0:
240,0,128158,1,2,0:0:0:0:
240,16,128201,1,2,0:0:0:0:
256,32,128244,1,2,0:0:0:0:
256,48,128287,1,0,0:0:0:0:
256,64,128330,1,2,0:0:0:0:
256,80,128373,1,4,0:0:0:0:
256,96,128416,1,2,0:0:0:0:
256,112,128458,5,0,0:0:0:0:
272,128,128501,1,2,0:0:0:0:
304,144,128544,1,0,0:0:0:0:
336,160,128587,1,2,0:0:0:0:
368,176,128630,1,0,0:0:0:0:
384,192,128673,5,2,0:0:0:0:
128,208,128716,1,4,0:0:0:0:
144,224,128758,1,2,0:0:0:0:
176,240,128801,1,0,0:0:0:0:
208,256,128844,1,2,0:0:0:0:
240,272,128887,1,0,0:0:0:0:
256,288,128930,1,2,0:0:0:0:
256,304,128973,5,0,0:0:0:0:
384,336,129016,1,2,0:0:0:0:
368,352,129058,1,4,0:0:0:0:
336,368,129101,1,2,0:0:0:0:
304,384,129144,1,0,0:0:0:0:
272,368,129187,1,2,0:0:0:0:
256,352,129230,1,0,0:0:0:0:
256,336,129273,5,2,0:0:0:0:
128,320,129316,1,0,0:0:0:0:
144,304,129358,1,2,0:0:0:0:
176,288,129401,1,4,0:0:0:0:
208,272,129444,1,2,0:0:0:0:
240,256,129487,1,0,0:0:0:0:
256,240,129530,1,2,0:0:0:0:
256,224,129573,5,0,0:0:0:0:
384,208,129616,1,2,0:0:0:0:
368,192,129658,1,0,0:0:0:0:
336,176,129701,1,2,0:0:0:0:
304,160,129744,1,4,0:0:0:0:
272,144,129787,1,2,0:0:0:0:
240,128,129830,1,0,0:0:0:0:
208,112,129873,1,2,0:0:0:0:
176,96,129916,1,4,0:0:0:0:
144,80,129958,1,2,0:0:0:0:
128,64,130001,1,0,0:0:0:0:
128,48,130044,5,2,0:0:0:0:
384,32,130087,1,4,0:0:0:0:
368,16,130130,1,2,0:0:0:0:
336,0,130173,1,0,0:0:0:0:
304,16,130216,1,2,0:0:0:0:
272,32,130258,1,4,0:0:0:0:
240,48,130301,1,2,0:0:0:0:
208,64,130344,1,0,0:0:0:0:
176,80,130387,1,2,0:0:0:0:
144,96,130430,1,4,0:0:0:0:
128,112,130473,1,2,0:0:0:0:
128,128,130516,5,0,0:0:0:0:
384,144,130558,1,2,0:0:0:0:
384,160,130601,1,4,0:0:0:0:
384,176,130644,1,2,0:0:0:0:
384,272,130729,6,8,L|96:272,1,269.999989271164
320,192,131201,2,2,L|80:192,1,239.999990463257
176,112,131715,2,6,L|48:112,1,119.999995231629
48,32,132057,1,12,0:0:0:0:
416,192,132229,6,2,L|320:112,1,119.999995231629
256,48,132571,1,0,0:0:0:0:
416,48,132743,5,12,0:0:0:0:
96,224,132915,2,2,L|192:128,1,119.999995231629
256,80,133257,1,0,0:0:0:0:
96,80,133429,5,12,0:0:0:0:
416,256,133600,2,0,L|320:160,1,119.999995231629
256,112,133943,1,0,0:0:0:0:
416,112,134114,5,12,0:0:0:0:
96,288,134287,2,2,L|192:192,1,119.999995231629
256,144,134629,1,0,0:0:0:0:
96,144,134800,5,12,0:0:0:0:
416,320,134972,2,0,L|320:224,1,119.999995231629
256,176,135314,1,0,0:0:0:0:
416,176,135486,5,12,0:0:0:0:
128,144,135657,2,0,L|32:48,1,119.999995231629
32,144,136000,2,2,L|128:240,1,119.999995231629
480,144,136343,2,0,L|384:240,1,119.999995231629
384,144,136686,2,2,L|480:48,1,119.999995231629
64,352,137029,6,0,L|160:256,1,119.999995231629
160,192,137371,1,0,0:0:0:0:
128,112,137543,5,12,0:0:0:0:
432,336,137715,2,2,L|336:240,1,119.999995231629
352,176,138057,1,0,0:0:0:0:
384,96,138229,5,12,0:0:0:0:
64,320,138400,2,0,L|160:224,1,119.999995231629
160,160,138744,1,0,0:0:0:0:
128,80,138914,5,12,0:0:0:0:
432,304,139087,2,2,L|336:208,1,119.999995231629
352,144,139428,1,0,0:0:0:0:
384,64,139600,5,12,0:0:0:0:
64,288,139772,2,0,L|160:192,1,119.999995231629
160,128,140115,1,0,0:0:0:0:
128,48,140287,5,12,0:0:0:0:
432,272,140458,2,2,L|336:176,1,119.999995231629
352,112,140801,1,0,0:0:0:0:
384,32,140972,5,12,0:0:0:0:
128,112,141143,2,0,L|32:208,1,119.999995231629
32,112,141486,2,2,L|128:16,1,119.999995231629
480,112,141829,2,0,L|384:16,1,119.999995231629
384,112,142172,2,4,L|480:208,1,119.999995231629
96,0,142601,5,4,0:0:0:0:
32,48,142687,1,6,0:0:0:0:
48,64,142730,1,2,0:0:0:0:
64,80,142773,1,2,0:0:0:0:
80,96,142816,1,2,0:0:0:0:
80,112,142858,1,2,0:0:0:0:
64,128,142901,1,2,0:0:0:0:
48,144,142944,1,2,0:0:0:0:
32,160,142987,1,2,0:0:0:0:
16,176,143030,5,2,0:0:0:0:
256,192,143073,1,2,0:0:0:0:
288,208,143116,1,2,0:0:0:0:
320,224,143158,1,2,0:0:0:0:
352,240,143201,1,2,0:0:0:0:
384,256,143244,1,2,0:0:0:0:
400,272,143287,1,2,0:0:0:0:
416,288,143330,1,2,0:0:0:0:
416,304,143373,1,2,0:0:0:0:
400,320,143416,1,2,0:0:0:0:
384,336,143458,1,2,0:0:0:0:
352,352,143501,1,2,0:0:0:0:
320,368,143544,1,2,0:0:0:0:
288,384,143587,1,2,0:0:0:0:
256,368,143630,5,2,0:0:0:0:
192,336,143716,1,12,0:0:0:0:
320,304,143801,1,0,0:0:0:0:
432,384,143887,2,2,L|336:288,1,119.999995231629
352,224,144229,1,0,0:0:0:0:
384,144,144402,5,12,0:0:0:0:
64,368,144573,2,0,L|160:272,1,119.999995231629
160,208,144915,1,0,0:0:0:0:
128,128,145087,5,12,0:0:0:0:
432,352,145258,2,2,L|336:256,1,119.999995231629
352,192,145601,1,0,0:0:0:0:
384,112,145773,5,12,0:0:0:0:
64,336,145944,2,0,L|160:240,1,119.999995231629
160,176,146286,1,0,0:0:0:0:
128,96,146458,5,12,0:0:0:0:
384,96,146630,2,2,L|480:0,1,119.999995231629
480,96,146973,2,0,L|384:192,1,119.999995231629
32,96,147315,2,2,L|128:192,1,119.999995231629
128,96,147659,2,0,L|32:0,1,119.999995231629
480,0,148001,6,2,L|384:96,1,119.999995231629
384,160,148343,1,0,0:0:0:0:
416,240,148515,5,12,0:0:0:0:
112,16,148686,2,0,L|208:112,1,119.999995231629
192,176,149029,1,0,0:0:0:0:
160,256,149201,5,12,0:0:0:0:
416,32,149372,2,2,L|320:128,1,119.999995231629
320,192,149714,1,0,0:0:0:0:
352,272,149886,5,12,0:0:0:0:
48,48,150057,2,0,L|144:144,1,119.999995231629
128,208,150400,1,0,0:0:0:0:
96,288,150572,5,12,0:0:0:0:
512,32,150744,2,2,L|416:128,1,119.999995231629
416,192,151086,1,0,0:0:0:0:
448,272,151258,5,12,0:0:0:0:
144,48,151429,2,0,L|240:144,1,119.999995231629
224,208,151772,1,0,0:0:0:0:
192,288,151944,5,12,0:0:0:0:
416,96,152115,2,2,L|512:0,1,119.999995231629
512,96,152458,2,0,L|416:192,1,119.999995231629
64,96,152801,2,2,L|160:192,1,119.999995231629
160,96,153144,2,0,L|64:0,1,119.999995231629
384,0,153572,1,12,0:0:0:0:
448,16,153658,5,2,0:0:0:0:
480,32,153701,1,2,0:0:0:0:
512,48,153744,1,2,0:0:0:0:
512,64,153787,1,2,0:0:0:0:
480,80,153830,1,2,0:0:0:0:
448,96,153873,1,2,0:0:0:0:
448,112,153916,1,2,0:0:0:0:
480,128,153958,1,2,0:0:0:0:
512,144,154001,1,2,0:0:0:0:
512,160,154044,1,2,0:0:0:0:
480,176,154087,5,6,0:0:0:0:
464,80,154173,6,2,L|368:176,1,119.999995231629
320,224,154516,2,0,L|224:320,1,119.999995231629
176,368,154859,2,2,L|80:272,1,119.999995231629
32,224,155202,2,0,L|128:128,1,119.999995231629
176,80,155544,2,2,L|272:-16,1,119.999995231629
336,32,155888,2,0,L|432:128,1,119.999995231629
480,176,156230,2,2,L|384:272,1,119.999995231629
336,320,156573,2,0,L|224:224,1,119.999995231629
160,160,156916,6,2,L|416:160,1,239.999990463257
496,160,157430,1,4,0:0:0:0:
448,96,157602,2,2,L|192:96,1,239.999990463257
112,96,158116,1,4,0:0:0:0:
64,32,158288,2,2,L|320:32,1,239.999990463257
0,96,158973,6,2,L|96:192,1,119.999995231629
144,240,159316,2,0,L|240:336,1,119.999995231629
288,384,159659,2,2,L|384:288,1,119.999995231629
432,240,160002,2,0,L|336:144,1,119.999995231629
288,96,160345,2,2,L|192:192,1,119.999995231629
144,240,160688,2,0,L|240:336,1,119.999995231629
288,384,161030,2,2,L|384:288,1,119.999995231629
432,240,161373,2,0,L|336:144,1,119.999995231629
288,96,161716,5,0,0:0:0:0:
352,32,161802,2,2,L|416:32,1,59.9999976158143
464,96,162059,1,0,0:0:0:0:
416,160,162144,2,2,L|464:208,1,59.9999976158143
224,304,162402,6,0,L|128:208,1,119.999995231629
80,160,162659,1,2,0:0:0:0:
144,96,162830,2,4,L|192:144,1,59.9999976158143
256,208,163088,2,0,L|304:160,1,59.9999976158143
368,96,163259,1,2,0:0:0:0:
256,208,163430,2,0,L|208:256,1,59.9999976158143
144,320,163602,1,2,0:0:0:0:
400,192,163772,6,2,L|304:96,1,119.999995231629
256,48,164115,2,0,L|160:144,1,119.999995231629
112,192,164458,2,2,L|208:288,1,119.999995231629
256,336,164801,2,0,L|352:240,1,119.999995231629
432,192,165144,6,2,L|336:96,1,119.999995231629
256,16,165487,2,0,L|160:112,1,119.999995231629
80,192,165830,2,2,L|176:288,1,119.999995231629
256,368,166173,2,0,L|352:272,1,119.999995231629
352,192,166515,6,2,L|448:96,1,119.999995231629
176,16,166858,2,0,L|272:112,1,119.999995231629
160,192,167201,2,2,L|64:288,1,119.999995231629
336,368,167544,2,0,L|240:272,1,119.999995231629
80,256,167887,6,2,L|336:256,1,239.999990463257
256,192,168401,1,0,0:0:0:0:
320,128,168572,2,2,L|64:128,1,239.999990463257
64,64,169087,1,4,0:0:0:0:
352,0,169258,2,2,L|64:0,1,269.999989271164
352,192,169944,6,2,L|448:96,1,119.999995231629
176,16,170287,2,0,L|272:112,1,119.999995231629
160,192,170629,2,2,L|64:288,1,119.999995231629
336,368,170973,2,0,L|240:272,1,119.999995231629
160,192,171315,6,2,L|64:96,1,119.999995231629
336,16,171658,2,0,L|240:112,1,119.999995231629
352,192,172001,2,2,L|448:288,1,119.999995231629
176,368,172344,2,0,L|272:272,1,119.999995231629
288,96,172687,5,0,0:0:0:0:
352,32,172773,2,2,L|416:32,1,59.9999976158143
464,96,173030,5,0,0:0:0:0:
416,160,173116,2,2,L|464:208,1,59.9999976158143
224,304,173373,6,0,L|128:208,1,119.999995231629
80,160,173630,1,2,0:0:0:0:
144,96,173801,2,4,L|192:144,1,59.9999976158143
256,208,174059,2,0,L|304:160,1,59.9999976158143
368,96,174230,1,2,0:0:0:0:
256,208,174401,2,0,L|208:256,1,59.9999976158143
144,320,174573,1,2,0:0:0:0:
192,384,174658,5,0,0:0:0:0:
256,368,174744,1,4,0:0:0:0:
320,352,174829,1,0,0:0:0:0:
352,336,174915,1,4,0:0:0:0:
320,320,175001,1,0,0:0:0:0:
256,304,175087,1,4,0:0:0:0:
192,288,175172,1,0,0:0:0:0:
128,272,175258,1,4,0:0:0:0:
96,256,175344,1,0,0:0:0:0:
128,240,175429,1,4,0:0:0:0:
192,224,175515,1,0,0:0:0:0:
256,208,175601,5,2,0:0:0:0:
416,192,175644,1,2,0:0:0:0:
416,176,175687,1,2,0:0:0:0:
400,160,175729,1,2,0:0:0:0:
384,144,175772,1,2,0:0:0:0:
352,128,175815,1,2,0:0:0:0:
320,112,175858,1,2,0:0:0:0:
288,96,175901,1,2,0:0:0:0:
272,80,175944,1,2,0:0:0:0:
256,64,175987,1,2,0:0:0:0:
256,48,176029,5,6,0:0:0:0:
0,32,176115,1,0,0:0:0:0:
32,48,176201,2,2,L|32:192,1,119.999995231629
64,224,176458,2,0,L|64:288,1,59.9999976158143
96,288,176629,1,8,0:0:0:0:
112,352,176801,2,0,L|48:352,1,59.9999976158143
384,352,177058,2,4,L|464:352,1,59.9999976158143
80,160,177315,6,0,L|16:160,1,59.9999976158143
64,96,177487,1,2,0:0:0:0:
96,32,177572,2,0,L|32:32,1,59.9999976158143
160,32,177744,2,2,L|224:32,1,59.9999976158143
96,96,177915,2,2,L|32:96,1,59.9999976158143
160,96,178087,2,2,L|224:96,1,59.9999976158143
96,160,178258,6,0,L|32:160,1,59.9999976158143
384,32,178515,1,2,0:0:0:0:
352,96,178687,1,12,0:0:0:0:
400,160,178858,1,0,0:0:0:0:
336,224,179029,1,0,0:0:0:0:
288,288,179115,2,2,L|352:288,1,59.9999976158143
432,288,179372,5,0,0:0:0:0:
336,224,179544,2,0,L|400:224,1,59.9999976158143
480,160,179801,2,2,L|416:160,1,59.9999976158143
416,96,179972,1,0,0:0:0:0:
480,64,180058,5,0,0:0:0:0:
288,32,180229,2,0,L|352:32,1,59.9999976158143
224,96,180487,2,0,L|160:96,1,59.9999976158143
32,160,180829,2,2,L|32:224,1,59.9999976158143
64,272,181001,2,0,L|64:336,1,59.9999976158143
224,272,181172,2,2,L|224:336,1,59.9999976158143
144,304,181429,5,0,0:0:0:0:
448,288,181601,2,0,L|384:288,1,59.9999976158143
96,272,181858,1,0,0:0:0:0:
128,256,181944,2,2,L|192:208,1,59.9999976158143
48,224,182115,1,0,0:0:0:0:
432,160,182287,2,0,L|368:160,1,59.9999976158143
0,128,182544,2,2,L|64:128,1,59.9999976158143
32,96,182715,1,0,0:0:0:0:
0,64,182801,5,0,0:0:0:0:
368,96,182887,2,0,L|304:96,1,59.9999976158143
304,160,183058,2,2,L|352:208,1,59.9999976158143
224,208,183229,2,0,L|272:256,1,59.9999976158143
400,240,183401,2,2,L|448:288,1,59.9999976158143
320,288,183572,2,2,L|368:336,1,59.9999976158143
32,352,183829,6,8,L|80:304,1,59.9999976158143
128,256,184001,1,0,0:0:0:0:
80,192,184172,2,2,L|128:144,1,59.9999976158143
80,96,184344,2,0,L|32:48,1,59.9999976158143
352,48,184601,2,0,L|272:48,1,59.9999976158143
416,96,184858,5,8,0:0:0:0:
32,128,185029,2,0,L|96:128,1,59.9999976158143
96,160,185201,1,0,0:0:0:0:
96,192,185287,2,0,L|32:192,1,59.9999976158143
304,224,185458,2,2,L|240:224,1,59.9999976158143
368,288,185715,2,2,L|288:288,1,59.9999976158143
432,352,185972,2,0,L|496:352,1,59.9999976158143
336,288,186229,6,2,L|400:288,1,59.9999976158143
256,352,186401,2,0,L|320:352,1,59.9999976158143
256,336,186572,5,6,0:0:0:0:
272,320,186615,1,2,0:0:0:0:
272,304,186658,1,2,0:0:0:0:
288,288,186701,1,2,0:0:0:0:
288,272,186744,1,2,0:0:0:0:
304,256,186787,1,2,0:0:0:0:
304,240,186829,1,2,0:0:0:0:
320,224,186872,1,2,0:0:0:0:
336,208,186915,5,4,0:0:0:0:
0,192,187087,1,0,0:0:0:0:
48,176,187172,1,2,0:0:0:0:
32,160,187258,1,4,0:0:0:0:
96,144,187344,1,2,0:0:0:0:
80,128,187429,1,0,0:0:0:0:
144,112,187515,1,2,0:0:0:0:
128,96,187601,1,4,0:0:0:0:
192,80,187687,1,2,0:0:0:0:
176,64,187772,1,0,0:0:0:0:
240,48,187858,1,2,0:0:0:0:
224,32,187944,5,4,0:0:0:0:
336,48,188029,1,6,0:0:0:0:
224,64,188115,1,4,0:0:0:0:
336,80,188201,1,6,0:0:0:0:
224,96,188287,5,4,0:0:0:0:
288,128,188372,1,2,0:0:0:0:
272,144,188458,1,0,0:0:0:0:
336,160,188544,1,2,0:0:0:0:
320,176,188629,1,4,0:0:0:0:
384,192,188715,1,2,0:0:0:0:
368,208,188801,1,0,0:0:0:0:
432,224,188887,1,2,0:0:0:0:
416,240,188972,5,4,0:0:0:0:
304,256,189058,1,6,0:0:0:0:
416,272,189144,1,4,0:0:0:0:
304,288,189229,1,6,0:0:0:0:
416,304,189315,1,4,0:0:0:0:
304,320,189401,1,6,0:0:0:0:
416,336,189487,1,4,0:0:0:0:
304,352,189572,1,6,0:0:0:0:
416,368,189658,5,4,0:0:0:0:
432,352,189744,1,2,0:0:0:0:
368,336,189829,1,0,0:0:0:0:
384,320,189915,1,2,0:0:0:0:
320,304,190001,1,4,0:0:0:0:
336,288,190087,1,2,0:0:0:0:
272,272,190172,1,0,0:0:0:0:
288,256,190258,1,2,0:0:0:0:
224,240,190344,1,4,0:0:0:0:
240,224,190429,1,2,0:0:0:0:
176,208,190515,1,0,0:0:0:0:
192,192,190601,1,2,0:0:0:0:
80,176,190687,5,4,0:0:0:0:
192,160,190772,1,6,0:0:0:0:
80,144,190858,1,4,0:0:0:0:
192,128,190944,1,6,0:0:0:0:
80,112,191029,5,4,0:0:0:0:
64,128,191115,1,2,0:0:0:0:
128,144,191201,1,0,0:0:0:0:
112,160,191287,1,2,0:0:0:0:
176,176,191372,1,4,0:0:0:0:
160,192,191458,1,2,0:0:0:0:
224,192,191544,1,0,0:0:0:0:
208,208,191629,1,2,0:0:0:0:
272,208,191715,1,4,0:0:0:0:
256,224,191801,1,2,0:0:0:0:
320,224,191887,1,0,0:0:0:0:
288,256,191972,1,2,0:0:0:0:
384,272,192058,5,4,0:0:0:0:
272,256,192144,1,6,0:0:0:0:
384,240,192229,1,4,0:0:0:0:
272,224,192315,1,6,0:0:0:0:
384,208,192401,1,4,0:0:0:0:
272,192,192487,1,6,0:0:0:0:
384,176,192572,1,4,0:0:0:0:
272,160,192658,1,6,0:0:0:0:
384,144,192744,5,4,0:0:0:0:
496,128,192829,1,6,0:0:0:0:
384,112,192915,1,4,0:0:0:0:
496,96,193001,1,6,0:0:0:0:
384,80,193087,1,4,0:0:0:0:
496,64,193172,1,6,0:0:0:0:
384,48,193258,1,4,0:0:0:0:
496,32,193344,1,6,0:0:0:0:
384,16,193429,5,4,0:0:0:0:
384,32,193472,1,2,0:0:0:0:
368,48,193515,1,4,0:0:0:0:
368,64,193558,1,2,0:0:0:0:
352,80,193601,1,4,0:0:0:0:
352,96,193645,1,2,0:0:0:0:
336,112,193687,1,4,0:0:0:0:
320,128,193730,1,2,0:0:0:0:
288,144,193773,5,4,0:0:0:0:
128,160,193815,1,2,0:0:0:0:
112,176,193858,1,0,0:0:0:0:
96,192,193901,1,2,0:0:0:0:
80,208,193944,1,4,0:0:0:0:
80,224,193987,1,2,0:0:0:0:
112,240,194029,5,0,0:0:0:0:
272,256,194072,1,2,0:0:0:0:
288,272,194115,1,2,0:0:0:0:
304,288,194158,1,2,0:0:0:0:
304,304,194201,1,0,0:0:0:0:
288,320,194244,1,2,0:0:0:0:
256,336,194287,5,4,0:0:0:0:
80,352,194329,1,2,0:0:0:0:
64,368,194372,1,2,0:0:0:0:
48,368,194415,1,2,0:0:0:0:
32,352,194458,1,4,0:0:0:0:
32,336,194501,1,2,0:0:0:0:
48,320,194544,1,2,0:0:0:0:
64,304,194587,1,2,0:0:0:0:
112,288,194629,5,4,0:0:0:0:
304,272,194672,1,2,0:0:0:0:
320,256,194715,1,6,0:0:0:0:
320,240,194758,1,2,0:0:0:0:
336,224,194801,1,4,0:0:0:0:
336,208,194844,1,2,0:0:0:0:
352,192,194887,1,6,0:0:0:0:
352,176,194929,1,2,0:0:0:0:
336,160,194972,1,4,0:0:0:0:
320,144,195015,1,2,0:0:0:0:
288,128,195058,1,6,0:0:0:0:
256,112,195101,1,2,0:0:0:0:
224,96,195144,1,4,0:0:0:0:
192,80,195187,1,2,0:0:0:0:
160,64,195229,5,6,0:0:0:0:
432,48,195272,1,2,0:0:0:0:
448,32,195315,1,4,0:0:0:0:
464,16,195358,1,2,0:0:0:0:
480,0,195401,1,6,0:0:0:0:
480,16,195444,1,2,0:0:0:0:
464,32,195487,5,4,0:0:0:0:
240,48,195529,1,2,0:0:0:0:
240,64,195572,1,6,0:0:0:0:
256,80,195615,1,2,0:0:0:0:
288,96,195658,1,4,0:0:0:0:
320,112,195701,1,2,0:0:0:0:
336,128,195744,5,6,0:0:0:0:
160,144,195787,1,2,0:0:0:0:
176,160,195829,1,4,0:0:0:0:
208,176,195872,1,2,0:0:0:0:
240,192,195915,5,6,0:0:0:0:
48,208,195958,1,2,0:0:0:0:
64,224,196001,1,6,0:0:0:0:
80,240,196044,1,2,0:0:0:0:
80,256,196087,1,6,0:0:0:0:
96,272,196129,1,2,0:0:0:0:
96,288,196172,1,4,0:0:0:0:
80,304,196215,1,2,0:0:0:0:
80,320,196258,1,4,0:0:0:0:
64,336,196301,1,2,0:0:0:0:
32,352,196344,5,4,0:0:0:0:
224,368,196387,1,2,0:0:0:0:
256,352,196429,1,4,0:0:0:0:
256,336,196472,1,2,0:0:0:0:
256,320,196515,5,4,0:0:0:0:
192,256,196601,2,0,L|448:256,1,239.999990463257
272,176,197029,2,0,L|512:176,1,239.999990463257
320,96,197544,2,6,L|384:96,1,59.9999976158143
400,96,197672,1,2,0:0:0:0:
416,80,197715,1,2,0:0:0:0:
288,64,197758,1,2,0:0:0:0:
304,48,197801,1,2,0:0:0:0:
304,32,197844,1,2,0:0:0:0:
304,16,197887,5,4,0:0:0:0:
96,32,197972,1,0,0:0:0:0:
16,48,198058,2,2,L|64:96,1,59.9999976158143
96,112,198229,5,4,0:0:0:0:
336,128,198315,1,2,0:0:0:0:
320,144,198401,2,0,L|320:208,1,59.9999976158143
384,224,198572,5,4,0:0:0:0:
128,240,198658,1,0,0:0:0:0:
112,256,198744,2,2,L|48:256,1,59.9999976158143
208,272,198915,5,4,0:0:0:0:
448,288,199001,1,2,0:0:0:0:
496,304,199087,2,0,L|448:352,1,59.9999976158143
416,384,199258,5,4,0:0:0:0:
144,368,199344,1,0,0:0:0:0:
112,352,199429,2,2,L|112:288,1,59.9999976158143
144,272,199601,5,4,0:0:0:0:
368,272,199687,1,2,0:0:0:0:
400,256,199772,2,0,L|400:192,1,59.9999976158143
368,176,199944,5,4,0:0:0:0:
144,160,200029,1,0,0:0:0:0:
176,144,200115,2,2,L|128:96,1,59.9999976158143
112,80,200287,5,4,0:0:0:0:
336,64,200372,1,0,0:0:0:0:
304,48,200458,2,4,L|352:0,1,59.9999976158143
384,0,200629,5,4,0:0:0:0:
144,16,200715,1,2,0:0:0:0:
128,32,200801,2,0,L|192:32,1,59.9999976158143
208,48,200972,5,4,0:0:0:0:
480,64,201058,1,0,0:0:0:0:
496,80,201144,2,2,L|416:80,1,59.9999976158143
416,96,201315,5,4,0:0:0:0:
128,112,201401,1,2,0:0:0:0:
64,144,201487,2,0,L|144:144,1,59.9999976158143
176,160,201658,5,4,0:0:0:0:
416,176,201744,1,0,0:0:0:0:
480,192,201829,2,2,L|400:192,1,59.9999976158143
368,224,202001,5,4,0:0:0:0:
144,240,202087,1,2,0:0:0:0:
112,256,202172,2,0,L|112:320,1,59.9999976158143
144,336,202344,5,4,0:0:0:0:
400,352,202429,1,0,0:0:0:0:
432,336,202515,2,2,L|432:272,1,59.9999976158143
400,256,202687,5,4,0:0:0:0:
112,240,202772,1,2,0:0:0:0:
80,224,202858,2,0,L|128:176,1,59.9999976158143
144,176,203029,5,4,0:0:0:0:
416,160,203115,1,2,0:0:0:0:
448,144,203201,2,0,L|400:96,1,59.9999976158143
384,96,203372,5,4,0:0:0:0:
96,80,203458,1,0,0:0:0:0:
80,64,203544,2,2,L|16:64,1,59.9999976158143
32,48,203715,5,4,0:0:0:0:
304,48,203801,1,2,0:0:0:0:
320,32,203887,2,2,L|384:32,1,59.9999976158143
368,16,204058,5,4,0:0:0:0:
128,48,204144,1,0,0:0:0:0:
112,64,204229,2,2,L|64:112,1,59.9999976158143
240,128,204401,5,4,0:0:0:0:
464,144,204487,1,2,0:0:0:0:
496,160,204572,2,0,L|496:224,1,59.9999976158143
432,240,204744,5,4,0:0:0:0:
176,256,204829,1,0,0:0:0:0:
144,272,204915,2,2,L|144:336,1,59.9999976158143
176,352,205087,5,4,0:0:0:0:
416,368,205172,1,2,0:0:0:0:
448,336,205258,2,2,L|448:272,1,59.9999976158143
416,256,205429,5,4,0:0:0:0:
144,240,205515,1,0,0:0:0:0:
112,224,205601,2,2,L|112:160,1,59.9999976158143
144,144,205772,5,4,0:0:0:0:
384,128,205858,1,2,0:0:0:0:
416,112,205944,2,0,L|416:48,1,59.9999976158143
384,48,206115,5,4,0:0:0:0:
144,64,206201,1,2,0:0:0:0:
128,80,206287,2,0,L|64:128,1,59.9999976158143
256,144,206458,5,4,0:0:0:0:
448,160,206544,1,0,0:0:0:0:
464,176,206630,2,6,L|512:224,1,59.9999976158143
352,240,206801,5,4,0:0:0:0:
128,256,206887,1,2,0:0:0:0:
112,272,206972,2,0,L|160:320,1,59.9999976158143
192,336,207144,5,4,0:0:0:0:
432,352,207230,1,0,0:0:0:0:
464,336,207315,2,6,L|416:288,1,59.9999976158143
384,288,207487,5,4,0:0:0:0:
192,272,207572,1,2,0:0:0:0:
160,256,207658,2,0,L|80:256,1,59.9999976158143
128,240,207829,5,4,0:0:0:0:
368,224,207915,1,0,0:0:0:0:
384,208,208001,2,6,L|464:208,1,59.9999976158143
416,192,208172,5,4,0:0:0:0:
192,224,208258,2,0,L|144:176,1,59.9999976158143
0,96,208429,2,2,L|48:48,1,59.9999976158143
464,48,208601,2,0,L|512:96,1,59.9999976158143
288,128,208772,2,6,L|336:176,1,59.9999976158143
64,192,208944,5,0,0:0:0:0:
32,224,209029,2,2,L|32:288,1,59.9999976158143
64,304,209201,5,4,0:0:0:0:
384,320,209287,1,2,0:0:0:0:
416,288,209372,2,0,L|416:224,1,59.9999976158143
384,208,209544,5,4,0:0:0:0:
112,192,209629,1,0,0:0:0:0:
96,176,209715,2,2,L|32:176,1,59.9999976158143
240,160,209887,5,4,0:0:0:0:
432,144,209972,1,2,0:0:0:0:
448,128,210058,2,2,L|528:128,1,59.9999976158143
272,112,210229,5,4,0:0:0:0:
80,96,210315,1,2,0:0:0:0:
64,80,210401,2,0,L|16:32,1,59.9999976158143
64,16,210572,5,4,0:0:0:0:
336,48,210658,1,0,0:0:0:0:
352,64,210744,2,0,L|400:112,1,59.9999976158143
352,128,210915,5,4,0:0:0:0:
112,144,211001,1,2,0:0:0:0:
128,160,211087,2,0,L|176:208,1,59.9999976158143
128,224,211258,5,4,0:0:0:0:
432,240,211344,1,0,0:0:0:0:
416,256,211429,2,2,L|368:304,1,59.9999976158143
400,320,211601,5,4,0:0:0:0:
144,336,211687,1,2,0:0:0:0:
112,320,211772,2,2,L|112:256,1,59.9999976158143
128,240,211944,5,4,0:0:0:0:
352,224,212029,1,2,0:0:0:0:
384,192,212115,2,0,L|384:128,1,59.9999976158143
352,112,212287,5,4,0:0:0:0:
144,96,212372,1,0,0:0:0:0:
176,64,212458,2,0,L|128:16,1,59.9999976158143
144,0,212629,5,4,0:0:0:0:
368,16,212715,1,2,0:0:0:0:
400,32,212801,2,0,L|352:80,1,59.9999976158143
368,96,212972,5,4,0:0:0:0:
112,112,213058,1,0,0:0:0:0:
80,128,213144,2,2,L|80:192,1,59.9999976158143
112,208,213315,5,4,0:0:0:0:
336,224,213401,1,2,0:0:0:0:
368,240,213487,2,2,L|368:304,1,59.9999976158143
336,320,213658,5,4,0:0:0:0:
128,336,213744,1,2,0:0:0:0:
96,320,213829,2,0,L|96:256,1,59.9999976158143
128,240,214001,5,4,0:0:0:0:
384,224,214087,1,0,0:0:0:0:
416,208,214172,2,0,L|416:144,1,59.9999976158143
384,128,214344,5,4,0:0:0:0:
144,112,214429,1,2,0:0:0:0:
128,96,214515,2,0,L|176:48,1,59.9999976158143
208,32,214687,5,4,0:0:0:0:
480,16,214772,1,0,0:0:0:0:
496,32,214858,2,2,L|448:80,1,59.9999976158143
288,96,215029,5,4,0:0:0:0:
80,112,215115,1,2,0:0:0:0:
64,128,215201,2,2,L|112:176,1,59.9999976158143
288,192,215372,5,4,0:0:0:0:
464,208,215458,1,2,0:0:0:0:
496,224,215544,2,0,L|448:272,1,59.9999976158143
432,288,215715,5,4,0:0:0:0:
112,304,215801,1,0,0:0:0:0:
80,320,215887,2,0,L|128:368,1,59.9999976158143
160,384,216058,5,4,0:0:0:0:
400,368,216144,1,2,0:0:0:0:
432,352,216229,2,0,L|432:272,1,59.9999976158143
400,272,216401,5,4,0:0:0:0:
128,256,216487,1,0,0:0:0:0:
96,240,216572,2,2,L|96:176,1,59.9999976158143
128,160,216744,5,4,0:0:0:0:
320,176,216915,1,2,0:0:0:0:
384,144,217001,1,0,0:0:0:0:
432,128,217087,5,4,0:0:0:0:
192,112,217172,1,0,0:0:0:0:
144,96,217258,5,4,0:0:0:0:
400,80,217344,1,0,0:0:0:0:
448,64,217429,5,4,0:0:0:0:
176,64,217515,1,0,0:0:0:0:
128,48,217601,5,4,0:0:0:0:
416,32,217687,1,0,0:0:0:0:
464,16,217772,5,4,0:0:0:0:
144,16,217858,2,2,L|80:16,1,59.9999976158143
384,48,218029,2,0,L|448:48,1,59.9999976158143
128,80,218201,2,2,L|64:80,1,59.9999976158143
400,112,218372,2,0,L|464:112,1,59.9999976158143
112,144,218544,6,2,L|192:144,1,59.9999976158143
416,176,218715,2,0,L|336:176,1,59.9999976158143
96,208,218887,2,2,L|176:208,1,59.9999976158143
432,240,219058,2,4,L|368:240,1,59.9999976158143
336,256,219187,5,2,0:0:0:0:
304,272,219229,1,2,0:0:0:0:
272,288,219272,1,2,0:0:0:0:
240,304,219315,1,2,0:0:0:0:
96,320,219401,5,0,0:0:0:0:
240,336,219487,2,6,L|304:336,1,59.9999976158143
464,352,219658,1,0,0:0:0:0:
288,288,219744,1,0,0:0:0:0:
480,272,219830,5,4,0:0:0:0:
64,192,219915,1,2,0:0:0:0:
32,224,220001,2,0,L|32:288,1,59.9999976158143
64,304,220173,5,4,0:0:0:0:
384,320,220258,1,0,0:0:0:0:
416,288,220343,2,2,L|416:224,1,59.9999976158143
384,208,220516,5,4,0:0:0:0:
112,192,220600,1,2,0:0:0:0:
96,176,220686,2,2,L|32:176,1,59.9999976158143
240,160,220859,5,4,0:0:0:0:
432,144,220943,1,0,0:0:0:0:
448,128,221029,2,0,L|528:128,1,59.9999976158143
272,112,221201,5,4,0:0:0:0:
80,96,221286,1,2,0:0:0:0:
64,80,221372,2,0,L|16:32,1,59.9999976158143
64,16,221544,5,4,0:0:0:0:
336,48,221629,1,0,0:0:0:0:
352,64,221715,2,2,L|400:112,1,59.9999976158143
352,128,221887,5,4,0:0:0:0:
112,144,221972,1,2,0:0:0:0:
128,160,222058,2,2,L|176:208,1,59.9999976158143
128,224,222230,5,4,0:0:0:0:
432,240,222315,1,0,0:0:0:0:
416,256,222401,2,0,L|368:304,1,59.9999976158143
400,320,222573,5,4,0:0:0:0:
144,336,222658,1,0,0:0:0:0:
112,320,222743,2,2,L|112:256,1,59.9999976158143
128,240,222916,5,4,0:0:0:0:
352,224,223000,1,2,0:0:0:0:
384,192,223086,2,0,L|384:128,1,59.9999976158143
352,112,223259,5,4,0:0:0:0:
144,96,223343,1,0,0:0:0:0:
176,64,223429,2,0,L|128:16,1,59.9999976158143
144,0,223601,5,4,0:0:0:0:
368,16,223686,1,2,0:0:0:0:
400,32,223772,2,2,L|352:80,1,59.9999976158143
368,96,223944,5,4,0:0:0:0:
112,112,224029,1,0,0:0:0:0:
80,128,224115,2,2,L|80:192,1,59.9999976158143
112,208,224287,5,4,0:0:0:0:
336,224,224372,1,2,0:0:0:0:
368,240,224458,2,0,L|368:304,1,59.9999976158143
336,320,224630,5,4,0:0:0:0:
128,336,224715,1,0,0:0:0:0:
96,320,224801,2,0,L|96:256,1,59.9999976158143
128,240,224973,5,4,0:0:0:0:
384,224,225058,1,2,0:0:0:0:
416,208,225143,2,2,L|416:144,1,59.9999976158143
384,128,225316,5,4,0:0:0:0:
144,112,225400,1,0,0:0:0:0:
128,96,225486,2,2,L|176:48,1,59.9999976158143
208,32,225659,5,4,0:0:0:0:
480,16,225743,1,0,0:0:0:0:
496,32,225829,2,0,L|448:80,1,59.9999976158143
288,96,226001,5,4,0:0:0:0:
80,112,226086,1,2,0:0:0:0:
64,128,226172,2,0,L|112:176,1,59.9999976158143
288,192,226343,5,4,0:0:0:0:
464,208,226429,1,2,0:0:0:0:
496,224,226515,2,2,L|448:272,1,59.9999976158143
432,288,226686,5,4,0:0:0:0:
112,304,226772,1,0,0:0:0:0:
80,320,226858,2,2,L|128:368,1,59.9999976158143
160,384,227029,5,4,0:0:0:0:
400,368,227115,1,0,0:0:0:0:
432,352,227201,2,0,L|432:272,1,59.9999976158143
400,272,227372,5,4,0:0:0:0:
128,256,227458,1,2,0:0:0:0:
96,240,227543,2,2,L|96:176,1,59.9999976158143
128,160,227715,5,4,0:0:0:0:
128,144,227801,1,0,0:0:0:0:
160,128,227887,2,0,L|160:64,1,59.9999976158143
128,48,228058,5,4,0:0:0:0:
368,64,228143,1,6,0:0:0:0:
384,80,228229,2,2,L|448:128,1,59.9999976158143
256,144,228401,5,4,0:0:0:0:
64,160,228487,1,0,0:0:0:0:
48,176,228572,2,2,L|0:224,1,59.9999976158143
160,240,228744,5,4,0:0:0:0:
384,256,228828,1,6,0:0:0:0:
400,272,228915,2,2,L|352:320,1,59.9999976158143
320,336,229087,5,4,0:0:0:0:
80,352,229173,1,0,0:0:0:0:
48,336,229258,2,2,L|96:288,1,59.9999976158143
128,288,229430,5,4,0:0:0:0:
320,272,229515,1,2,0:0:0:0:
352,256,229601,2,0,L|432:256,1,59.9999976158143
384,240,229772,5,4,0:0:0:0:
144,224,229858,1,6,0:0:0:0:
128,208,229944,2,2,L|48:208,1,59.9999976158143
96,192,230115,5,4,0:0:0:0:
240,176,230158,1,2,0:0:0:0:
224,160,230201,1,2,0:0:0:0:
192,144,230244,1,2,0:0:0:0:
160,128,230287,1,4,0:0:0:0:
160,112,230329,1,2,0:0:0:0:
192,96,230372,1,2,0:0:0:0:
224,80,230415,1,2,0:0:0:0:
240,64,230458,5,4,0:0:0:0:
400,48,230501,1,2,0:0:0:0:
432,64,230544,1,4,0:0:0:0:
448,80,230587,1,2,0:0:0:0:
480,96,230629,1,4,0:0:0:0:
480,112,230672,1,2,0:0:0:0:
448,128,230715,1,6,0:0:0:0:
432,144,230758,1,2,0:0:0:0:
400,160,230801,5,4,0:0:0:0:
64,192,230887,1,2,0:0:0:0:
32,224,230972,2,0,L|32:288,1,59.9999976158143
64,304,231144,5,4,0:0:0:0:
384,320,231230,1,0,0:0:0:0:
416,288,231315,2,0,L|416:224,1,59.9999976158143
384,208,231487,5,4,0:0:0:0:
112,192,231572,1,2,0:0:0:0:
96,176,231658,2,0,L|32:176,1,59.9999976158143
240,160,231829,5,4,0:0:0:0:
432,144,231915,1,0,0:0:0:0:
448,128,232001,2,0,L|528:128,1,59.9999976158143
272,112,232171,5,4,0:0:0:0:
80,96,232258,1,2,0:0:0:0:
64,80,232344,2,2,L|16:32,1,59.9999976158143
64,16,232514,5,4,0:0:0:0:
336,48,232601,1,0,0:0:0:0:
352,64,232687,2,0,L|400:112,1,59.9999976158143
352,128,232857,5,4,0:0:0:0:
112,144,232944,1,2,0:0:0:0:
128,160,233030,2,2,L|176:208,1,59.9999976158143
128,224,233200,5,4,0:0:0:0:
432,240,233287,1,0,0:0:0:0:
416,256,233372,2,0,L|368:304,1,59.9999976158143
400,320,233543,5,4,0:0:0:0:
144,336,233630,1,2,0:0:0:0:
112,320,233715,2,0,L|112:256,1,59.9999976158143
128,240,233886,5,4,0:0:0:0:
352,224,233972,1,0,0:0:0:0:
384,192,234058,2,0,L|384:128,1,59.9999976158143
352,112,234229,5,4,0:0:0:0:
144,96,234315,1,2,0:0:0:0:
176,64,234401,2,0,L|128:16,1,59.9999976158143
144,0,234571,5,4,0:0:0:0:
368,16,234658,1,0,0:0:0:0:
400,32,234744,2,0,L|352:80,1,59.9999976158143
368,96,234914,5,4,0:0:0:0:
112,112,235001,1,2,0:0:0:0:
80,128,235087,2,2,L|80:192,1,59.9999976158143
112,208,235257,5,4,0:0:0:0:
336,224,235344,1,0,0:0:0:0:
368,240,235430,2,0,L|368:304,1,59.9999976158143
336,320,235600,5,4,0:0:0:0:
128,336,235687,1,2,0:0:0:0:
96,320,235772,2,2,L|96:256,1,59.9999976158143
128,240,235943,5,4,0:0:0:0:
384,224,236030,1,0,0:0:0:0:
416,208,236115,2,0,L|416:144,1,59.9999976158143
384,128,236287,5,4,0:0:0:0:
48,112,236372,1,2,0:0:0:0:
0,96,236458,5,4,0:0:0:0:
208,80,236544,1,2,0:0:0:0:
224,64,236629,5,4,0:0:0:0:
464,48,236715,1,2,0:0:0:0:
512,32,236801,5,4,0:0:0:0:
304,16,236887,1,2,0:0:0:0:
288,0,236972,5,4,0:0:0:0:
48,32,237058,1,2,0:0:0:0:
0,48,237144,5,4,0:0:0:0:
208,64,237229,1,2,0:0:0:0:
224,80,237315,5,4,0:0:0:0:
240,96,237358,1,2,0:0:0:0:
272,112,237401,1,2,0:0:0:0:
320,128,237444,1,2,0:0:0:0:
368,144,237487,1,2,0:0:0:0:
400,160,237529,1,2,0:0:0:0:
416,176,237572,1,2,0:0:0:0:
432,192,237615,1,2,0:0:0:0:
448,208,237658,5,4,0:0:0:0:
48,112,237744,1,2,0:0:0:0:
0,96,237830,5,4,0:0:0:0:
208,80,237916,1,2,0:0:0:0:
224,64,238001,5,4,0:0:0:0:
464,48,238087,1,2,0:0:0:0:
512,32,238173,5,4,0:0:0:0:
304,16,238258,1,2,0:0:0:0:
288,0,238344,5,4,0:0:0:0:
48,32,238429,1,2,0:0:0:0:
0,48,238515,5,4,0:0:0:0:
208,64,238601,1,2,0:0:0:0:
256,176,238687,5,4,0:0:0:0:
224,80,238772,5,2,0:0:0:0:
224,96,238815,1,2,0:0:0:0:
208,112,238858,1,2,0:0:0:0:
192,128,238901,1,2,0:0:0:0:
160,144,238944,1,2,0:0:0:0:
112,160,238987,1,2,0:0:0:0:
64,176,239029,5,4,0:0:0:0:
288,192,239115,1,4,0:0:0:0:
320,208,239201,1,6,0:0:0:0:
512,224,239287,1,4,0:0:0:0:
400,160,239372,1,4,0:0:0:0:
288,256,239458,1,4,0:0:0:0:
48,272,239544,1,4,0:0:0:0:
272,288,239629,1,4,0:0:0:0:
304,304,239715,5,6,0:0:0:0:
496,320,239801,1,4,0:0:0:0:
272,336,239887,1,4,0:0:0:0:
80,352,239972,1,4,0:0:0:0:
288,368,240058,1,4,0:0:0:0:
512,384,240144,1,4,0:0:0:0:
224,368,240229,1,6,0:0:0:0:
192,352,240315,5,4,0:0:0:0:
128,288,240401,1,4,0:0:0:0:
160,288,240444,1,2,0:0:0:0:
192,288,240487,1,2,0:0:0:0:
224,288,240529,1,2,0:0:0:0:
256,288,240572,1,2,0:0:0:0:
288,288,240615,1,2,0:0:0:0:
320,288,240658,1,2,0:0:0:0:
352,288,240701,1,2,0:0:0:0:
384,288,240744,1,6,0:0:0:0:
192,208,240829,5,4,0:0:0:0:
224,208,240872,1,2,0:0:0:0:
256,208,240915,1,2,0:0:0:0:
288,208,240958,1,2,0:0:0:0:
320,208,241001,1,2,0:0:0:0:
352,208,241044,1,2,0:0:0:0:
384,208,241087,1,2,0:0:0:0:
416,208,241129,1,2,0:0:0:0:
448,208,241172,1,2,0:0:0:0:
480,208,241215,1,2,0:0:0:0:
512,208,241258,1,6,0:0:0:0:
256,128,241429,5,4,0:0:0:0:
288,128,241472,1,2,0:0:0:0:
320,128,241515,1,2,0:0:0:0:
352,128,241558,1,2,0:0:0:0:
384,128,241601,1,6,0:0:0:0:
512,128,241772,5,4,0:0:0:0:
112,192,241944,2,2,L|176:192,1,59.9999976158143
256,192,242115,1,0,0:0:0:0:
400,192,242286,2,0,L|336:192,1,59.9999976158143
256,192,242458,1,12,0:0:0:0:
16,112,242629,5,0,0:0:0:0:
96,176,242715,2,2,L|16:176,1,59.9999976158143
64,240,242886,2,0,L|128:240,1,59.9999976158143
96,304,243058,2,4,L|160:304,1,59.9999976158143
512,144,243315,5,0,0:0:0:0:
480,208,243401,2,2,L|416:208,1,59.9999976158143
448,272,243572,2,0,L|384:272,1,59.9999976158143
416,336,243744,2,12,L|352:336,1,59.9999976158143
96,336,244001,5,0,0:0:0:0:
128,272,244086,2,2,L|192:272,1,59.9999976158143
160,208,244258,2,0,L|224:208,1,59.9999976158143
192,144,244429,2,4,L|256:144,1,59.9999976158143
480,336,244686,5,0,0:0:0:0:
448,272,244772,2,2,L|384:272,1,59.9999976158143
416,208,244944,2,0,L|352:208,1,59.9999976158143
384,144,245115,2,12,L|320:144,1,59.9999976158143
32,160,245372,1,0,0:0:0:0:
48,224,245458,2,2,L|112:224,1,59.9999976158143
80,288,245629,2,0,L|160:288,1,59.9999976158143
112,352,245801,2,4,L|176:352,1,59.9999976158143
416,144,246058,6,2,L|320:48,1,119.999995231629
96,240,246401,2,0,L|192:336,1,119.999995231629
416,240,246744,2,2,L|320:336,1,119.999995231629
96,144,247086,2,4,L|192:48,1,119.999995231629
464,144,247429,6,0,L|384:144,1,59.9999976158143
464,64,247601,1,2,0:0:0:0:
288,64,247772,1,0,0:0:0:0:
288,144,247858,2,12,L|368:144,1,59.9999976158143
48,240,248115,6,0,L|128:240,1,59.9999976158143
48,320,248286,1,2,0:0:0:0:
224,320,248458,1,0,0:0:0:0:
224,240,248543,2,4,L|160:240,1,59.9999976158143
464,240,248801,6,0,L|400:240,1,59.9999976158143
464,320,248972,1,2,0:0:0:0:
288,320,249143,1,0,0:0:0:0:
288,240,249229,2,12,L|352:240,1,59.9999976158143
48,144,249486,6,0,L|128:144,1,59.9999976158143
48,64,249658,1,2,0:0:0:0:
224,64,249829,1,0,0:0:0:0:
224,144,249915,2,4,L|160:144,1,59.9999976158143
464,144,250172,6,0,L|400:144,1,59.9999976158143
464,64,250343,1,2,0:0:0:0:
288,64,250515,1,0,0:0:0:0:
288,144,250601,2,12,L|352:144,1,59.9999976158143
288,224,250858,6,0,L|352:224,1,59.9999976158143
448,224,251029,1,4,0:0:0:0:
224,224,251201,6,0,L|160:224,1,59.9999976158143
64,224,251372,1,4,0:0:0:0:
288,160,251543,6,0,L|368:160,1,59.9999976158143
448,160,251715,1,4,0:0:0:0:
224,160,251886,6,0,L|160:160,1,59.9999976158143
64,160,252058,1,4,0:0:0:0:
256,224,252229,6,2,L|256:352,1,119.999995231629
304,144,252486,2,0,L|352:96,1,59.9999976158143
208,144,252658,2,0,L|160:96,1,59.9999976158143
480,80,252915,6,0,L|400:80,1,59.9999976158143
480,160,253086,1,4,0:0:0:0:
288,160,253258,1,0,0:0:0:0:
288,80,253343,2,12,L|352:80,1,59.9999976158143
32,304,253601,6,0,L|96:304,1,59.9999976158143
32,224,253772,1,2,0:0:0:0:
224,224,253943,1,0,0:0:0:0:
224,304,254029,2,4,L|160:304,1,59.9999976158143
480,304,254286,6,0,L|416:304,1,59.9999976158143
480,224,254458,1,2,0:0:0:0:
288,224,254629,1,0,0:0:0:0:
288,304,254715,2,12,L|352:304,1,59.9999976158143
32,80,254972,6,0,L|96:80,1,59.9999976158143
32,160,255143,1,2,0:0:0:0:
224,160,255315,1,0,0:0:0:0:
224,80,255401,2,4,L|144:80,1,59.9999976158143
464,80,255658,6,0,L|416:32,1,59.9999976158143
464,160,255829,1,2,0:0:0:0:
352,48,256001,1,0,0:0:0:0:
384,160,256086,2,12,L|336:112,1,59.9999976158143
48,304,256343,6,0,L|96:352,1,59.9999976158143
48,224,256514,1,2,0:0:0:0:
160,336,256686,1,0,0:0:0:0:
128,224,256772,2,4,L|176:272,1,59.9999976158143
464,304,257029,6,4,L|416:352,1,59.9999976158143
464,224,257200,1,4,0:0:0:0:
352,336,257372,1,0,0:0:0:0:
384,224,257458,2,12,L|336:272,1,59.9999976158143
48,80,257715,6,0,L|96:32,1,59.9999976158143
48,160,257886,1,2,0:0:0:0:
160,48,258058,1,0,0:0:0:0:
128,160,258143,2,4,L|176:112,1,59.9999976158143
480,128,258401,6,0,L|400:128,1,59.9999976158143
304,128,258572,1,2,0:0:0:0:
208,128,258743,1,0,0:0:0:0:
96,128,258829,2,12,L|32:128,1,59.9999976158143
32,256,259086,6,0,L|112:256,1,59.9999976158143
208,256,259258,1,2,0:0:0:0:
304,256,259429,1,0,0:0:0:0:
416,256,259515,2,4,L|480:256,1,59.9999976158143
480,128,259772,6,0,L|416:128,1,59.9999976158143
416,64,259943,2,4,L|352:64,1,59.9999976158143
352,128,260115,2,0,L|288:128,1,59.9999976158143
288,192,260286,2,12,L|208:192,1,59.9999976158143
224,256,260458,2,0,L|160:256,1,59.9999976158143
160,320,260629,2,4,L|96:320,1,59.9999976158143
96,256,260801,2,0,L|16:256,1,59.9999976158143
96,176,260972,5,4,0:0:0:0:
384,32,261143,2,0,L|464:32,1,59.9999976158143
384,112,261315,1,2,0:0:0:0:
320,192,261486,2,0,L|384:192,1,59.9999976158143
448,192,261658,1,12,0:0:0:0:
128,352,261829,6,0,L|48:352,1,59.9999976158143
128,272,262001,1,2,0:0:0:0:
192,192,262172,2,0,L|128:192,1,59.9999976158143
64,192,262344,1,4,0:0:0:0:
384,352,262515,6,4,L|464:352,1,59.9999976158143
384,272,262687,1,4,0:0:0:0:
320,192,262858,2,4,L|384:192,1,59.9999976158143
448,192,263030,1,12,0:0:0:0:
128,32,263201,6,0,L|48:32,1,59.9999976158143
128,112,263373,1,4,0:0:0:0:
192,192,263544,2,0,L|128:192,1,59.9999976158143
64,192,263716,1,4,0:0:0:0:
480,240,263887,6,2,L|352:240,1,119.999995231629
240,240,264229,2,0,L|160:240,1,59.9999976158143
176,272,264401,2,0,L|48:272,1,119.999995231629
304,160,264744,6,2,L|176:160,1,119.999995231629
48,96,265087,2,6,L|192:96,1,119.999995231629
224,16,265429,2,2,L|320:112,1,119.999995231629
368,160,265772,2,0,L|368:304,1,119.999995231629
288,288,266115,6,0,L|160:288,1,119.999995231629
144,288,266458,2,2,L|16:288,1,119.999995231629
80,224,266801,2,0,L|16:224,1,59.9999976158143
16,160,266972,1,2,0:0:0:0:
288,112,267144,6,0,L|160:112,1,119.999995231629
16,112,267487,2,0,L|144:112,1,119.999995231629
240,176,267829,2,2,L|112:176,1,119.999995231629
240,240,268172,2,0,L|176:240,1,59.9999976158143
240,304,268344,1,2,0:0:0:0:
32,304,268515,5,4,0:0:0:0:
448,304,268687,1,4,0:0:0:0:
208,304,268858,2,2,L|352:304,1,119.999995231629
480,304,269201,1,4,0:0:0:0:
80,240,269372,1,0,0:0:0:0:
80,176,269544,2,0,L|160:176,1,59.9999976158143
80,112,269715,1,0,0:0:0:0:
416,112,269887,6,2,L|288:112,1,119.999995231629
144,112,270229,2,6,L|272:112,1,119.999995231629
140,176,270572,2,0,L|12:176,1,119.999995231629
80,240,270915,2,2,L|224:240,1,119.999995231629
512,304,271258,6,0,L|384:304,1,119.999995231629
240,304,271601,2,6,L|368:304,1,119.999995231629
368,240,271944,2,2,L|496:240,1,119.999995231629
368,176,272287,2,0,L|432:176,1,59.9999976158143
368,112,272458,1,2,0:0:0:0:
240,112,272629,6,0,L|112:112,1,119.999995231629
176,176,272972,2,2,L|48:176,1,119.999995231629
64,240,273315,2,0,L|208:240,1,119.999995231629
64,304,273658,2,0,L|128:304,1,59.9999976158143
64,368,273829,1,2,0:0:0:0:
416,384,274001,5,4,0:0:0:0:
0,304,274172,1,4,0:0:0:0:
64,240,274344,2,2,L|192:240,1,119.999995231629
0,0,274687,6,2,B|128:0|128:0|48:80|48:80|160:80|160:80|64:176|64:176|176:176|176:176|256:96|256:96|400:96|400:96,1,839.999966621399
512,384,276058,6,2,B|384:384|384:384|464:304|464:304|352:304|352:304|448:208|448:208|336:208|336:208|256:288|256:288|112:288|112:288,1,839.999966621399
0,0,277429,6,2,B|128:0|128:0|48:80|48:80|160:80|160:80|64:176|64:176|176:176|176:176|256:96|256:96|400:96|400:96,1,839.999966621399
512,240,278801,6,2,P|32:208|0:256,1,599.999976158143
368,240,279829,2,0,L|224:240,1,119.999995231629
112,240,280172,1,4,0:0:0:0:
496,240,280258,6,2,P|48:208|16:240,1,539.999978542328
144,240,281201,2,0,L|272:240,1,119.999995231629
400,240,281543,1,4,0:0:0:0:
16,240,281629,6,2,P|464:208|496:240,1,539.999978542328
368,240,282572,2,0,L|240:240,1,119.999995231629
112,240,282915,1,4,0:0:0:0:
496,240,283001,6,2,P|48:208|16:240,1,539.999978542328
144,240,283944,2,0,L|272:240,1,119.999995231629
400,240,284287,1,4,0:0:0:0:
16,240,284373,6,2,P|464:208|496:240,1,539.999978542328
368,240,285316,2,0,L|240:240,1,119.999995231629
80,336,285658,6,6,B|-16:240|-16:240|64:160|64:160|-16:80|-16:80|64:0|64:0|144:80|144:80|240:-16|240:-16|320:64|320:64|464:64|464:64,1,959.999961853028
176,176,287201,6,4,B|80:272|80:272|160:352|160:352|240:272|240:272|320:352|320:352|320:224|320:224|240:128|240:128|368:128|368:128,1,839.999966621399,0|0,0:0|0:0,0:0:0:0:
32,352,288572,6,4,B|160:352|160:352|80:272|80:272|160:192|160:192|256:288|256:288|368:288|368:288|304:192|304:192|448:192|448:192,1,839.999966621399
48,32,289944,6,6,B|176:32|176:32|96:112|96:112|176:192|176:192|256:112|256:112|352:208|352:208|352:320|352:320|496:320|496:320,1,839.999966621399
48,352,291315,6,4,B|176:352|176:352|96:272|96:272|176:192|176:192|256:272|256:272|352:176|352:176|352:64|352:64|496:64|496:64,1,839.999966621399
48,32,292687,6,4,B|176:32|176:32|96:112|96:112|176:192|176:192|256:112|256:112|352:208|352:208|352:320|352:320|496:320|496:320,1,839.999966621399
48,32,294058,6,4,B|176:32|176:32|96:112|96:112|176:192|176:192|256:112|256:112|352:208|352:208|352:320|352:320|496:320|496:320,1,839.999966621399
96,272,295429,6,0,L|240:272,1,119.999995231629
48,208,295772,2,0,L|112:208,1,59.9999976158143
160,144,295944,2,0,L|96:144,1,59.9999976158143
48,80,296115,2,0,L|112:80,1,59.9999976158143
160,16,296287,2,2,L|96:16,1,59.9999976158143
32,16,296458,1,4,0:0:0:0:
256,192,296629,12,0,304858,0:0:0:0:
