osu file format v14

[General]
AudioFilename: soft-sliderslide2.mp3
AudioLeadIn: 0
PreviewTime: 52887
Countdown: 0
SampleSet: Soft
StackLeniency: 0.7
Mode: 0
LetterboxInBreaks: 0
WidescreenStoryboard: 0

[Editor]
Bookmarks: 613,21039,41438,52927,73352,93778,103990,126969,142927,169097
DistanceSpacing: 1.9
BeatDivisor: 8
GridSize: 32
TimelineZoom: 1.599999

[Metadata]
Title:Dyshi so mnoy
TitleUnicode:Дыши со мной
Artist:[AMATORY]
ArtistUnicode:[AMATORY]
Creator:Sieg
Version:Heavy
Source:
Tags:[аматори] аматори amatory VII russian alternative rock breath with me auxent
BeatmapID:778479
BeatmapSetID:353338

[Difficulty]
HPDrainRate:5
CircleSize:4
OverallDifficulty:6.5
ApproachRate:7.5
SliderMultiplier:1.6
SliderTickRate:1

[Events]
//Background and Video events
0,0,"bg.jpg",0,0
Video,-248,"vid.avi"
//Break Periods
2,125892,142102
//Storyboard Layer 0 (Background)
//Storyboard Layer 1 (Fail)
//Storyboard Layer 2 (Pass)
//Storyboard Layer 3 (Foreground)
//Storyboard Sound Samples

[TimingPoints]
613,638.297872340426,4,2,1,18,1,0
21039,618.556701030928,4,2,1,60,1,0
21039,-83.3333333333333,4,2,1,60,0,0
21976,625,4,2,1,60,1,0
22914,666.666666666667,4,2,1,60,1,0
22914,-83.3333333333333,4,2,1,60,0,0
23566,638.297872340426,4,2,1,60,1,0
23566,-83.3333333333333,4,2,1,60,0,0
40940,638.297872340426,4,2,1,60,1,0
40940,-83.3333333333333,4,2,1,60,0,0
41438,638.297872340426,4,2,1,60,1,0
41438,-66.6666666666667,4,2,1,60,0,0
51650,600,4,2,1,60,1,0
51650,-66.6666666666667,4,2,1,60,0,0
51969,600,4,2,1,60,1,0
51969,-66.6666666666667,4,2,1,60,0,0
52289,638.297872340426,4,2,1,60,1,0
52927,638.297872340426,4,2,1,60,1,1
52927,-83.3333333333333,4,2,1,60,0,1
62980,-83.3333333333333,4,2,1,60,0,0
63139,-83.3333333333333,4,2,1,60,0,1
73512,-83.3333333333333,4,2,1,60,0,0
93778,-66.6666666666667,4,2,1,60,0,0
103352,-66.6666666666667,4,2,1,60,0,0
103990,-83.3333333333333,4,2,1,60,0,1
114044,-83.3333333333333,4,2,1,60,0,0
114203,-83.3333333333333,4,2,1,60,0,1
125852,-83.3333333333333,4,2,1,60,0,0
142927,-83.3333333333333,4,2,1,90,0,0
143565,-83.3333333333333,4,2,1,60,0,0
144848,638.297872340426,4,2,1,60,1,0
146524,638.297872340426,4,2,1,60,1,0
147375,638.297872340426,4,2,1,60,1,0
148025,638.297872340426,4,2,1,60,1,0
148998,638.297872340426,4,2,1,60,1,0
152330,638.297872340426,4,2,1,60,1,0
152986,638.297872340426,4,2,1,60,1,0
153145,638.297872340426,4,2,1,60,1,0
163682,638.297872340426,4,2,1,60,1,0
164788,638.297872340426,4,2,1,60,1,0
165094,638.297872340426,4,2,1,60,1,0
165423,638.297872340426,4,2,1,60,1,0
169097,638.297872340426,4,2,1,60,1,0
169097,-83.3333333333333,4,2,1,60,0,1
179150,-83.3333333333333,4,2,1,60,0,0
179309,-83.3333333333333,4,2,1,60,0,1
179955,638.297872340426,4,2,1,60,1,1
179955,-83.3333333333333,4,2,1,60,0,1
190087,-83.3333333333333,4,2,1,60,0,0
190167,-83.3333333333333,4,2,1,60,0,1
190247,-83.3333333333333,4,2,1,60,0,0

[Colours]
Combo1 : 97,97,173
Combo2 : 167,51,48
Combo3 : 102,55,98

[HitObjects]
201,346,293,6,0,P|215:306|244:267,1,80,2|2,0:0|0:0,0:0:0:0:
108,295,933,1,0,0:0:0:0:
39,217,1252,1,0,0:0:0:0:
52,113,1571,1,2,0:0:0:0:
257,180,3167,5,2,0:0:0:0:
157,149,3486,1,0,0:0:0:0:
252,60,3804,1,0,0:0:0:0:
356,49,4123,1,2,0:0:0:0:
453,270,4761,6,0,P|455:241|470:215,1,40,2|0,0:0|0:0,0:0:0:0:
408,271,5081,2,0,P|410:313|399:360,1,80,2|0,0:0|0:0,0:0:0:0:
311,260,5719,1,2,0:0:0:0:
282,164,6038,1,0,0:0:0:0:
351,93,6357,1,0,0:0:0:0:
447,119,6676,1,2,0:0:0:0:
242,46,8272,5,2,0:0:0:0:
142,12,8591,1,0,0:0:0:0:
165,140,8909,1,0,0:0:0:0:
62,163,9230,1,2,0:0:0:0:
305,185,9868,6,0,P|332:176|354:156,1,40,2|0,0:0|0:0,0:0:0:0:
313,228,10188,2,0,P|271:234|227:256,1,80,2|0,0:0|0:0,0:0:0:0:
346,322,10825,1,2,0:0:0:0:
260,375,11144,1,0,0:0:0:0:
162,349,11463,1,0,0:0:0:0:
114,260,11782,1,2,0:0:0:0:
263,68,13378,5,2,0:0:0:0:
293,167,13699,1,0,0:0:0:0:
170,133,14017,1,0,0:0:0:0:
96,59,14336,1,2,0:0:0:0:
341,38,14974,6,0,P|322:33|294:31,1,40,2|0,0:0|0:0,0:0:0:0:
360,79,15293,2,0,P|406:81|454:66,1,80,2|0,0:0|0:0,0:0:0:0:
339,158,15932,1,2,0:0:0:0:
307,253,16251,1,0,0:0:0:0:
360,339,16570,1,0,0:0:0:0:
460,354,16889,1,2,0:0:0:0:
139,332,18486,5,2,0:0:0:0:
174,234,18805,1,0,0:1:0:0:
40,223,19123,1,0,0:0:0:0:
24,120,19442,1,2,0:2:0:0:
340,39,21038,5,4,1:0:0:0:
489,214,21502,2,0,L|496:267,1,47.9999985351563,0|10,1:0|0:1,0:0:0:0:
404,167,21976,1,2,1:0:0:0:
174,337,22601,1,2,1:0:0:0:
286,247,22914,2,0,L|283:319,2,47.9999985351563,10|0|0,0:1|1:0|0:0,0:0:0:0:
202,125,23566,1,2,1:0:0:0:
345,314,24044,5,0,1:0:0:0:
345,314,24204,1,10,0:1:0:0:
197,354,24523,1,0,1:0:0:0:
197,354,24683,2,0,P|126:365|79:310,1,143.999995605469,0|0,1:0|1:0,0:0:0:0:
61,163,25480,1,10,0:1:0:0:
3,211,25640,2,0,L|-3:271,1,47.9999985351563,0|0,1:0|0:0,0:0:0:0:
173,271,26119,2,0,P|240:247|256:177,1,143.999995605469,2|0,1:0|1:0,0:0:0:0:
331,207,26757,2,0,P|326:261|337:313,1,95.9999970703126,10|2,0:1|1:0,0:0:0:0:
375,366,27236,1,0,1:0:0:0:
506,177,27714,5,2,1:0:0:0:
434,47,28034,1,10,0:1:0:0:
434,47,28193,2,0,L|338:35,1,95.9999970703126,0|0,1:0|0:0,0:0:0:0:
275,77,28672,2,0,P|297:146|284:222,1,143.999995605469,2|0,1:0|1:0,0:0:0:0:
247,281,29310,2,0,P|244:222|219:180,1,95.9999970703126,10|2,0:1|1:0,0:0:0:0:
162,150,29789,1,0,1:0:0:0:
41,337,30268,1,2,1:0:0:0:
193,366,30587,1,10,0:1:0:0:
267,381,30746,1,0,1:0:0:0:
326,332,30906,1,0,0:0:0:0:
150,270,31225,1,4,1:0:0:0:
14,91,31704,5,0,1:0:0:0:
14,91,31863,2,0,P|65:61|113:59,1,95.9999970703126,10|2,0:1|1:0,0:0:0:0:
161,103,32342,2,0,P|223:109|291:50,1,143.999995605469,0|2,1:0|1:0,0:0:0:0:
439,101,33140,2,0,L|489:81,1,47.9999985351563,10|0,0:1|1:0,0:0:0:0:
207,28,33778,1,2,1:0:0:0:
416,184,34257,5,0,1:0:0:0:
416,184,34417,2,0,P|411:242|431:287,1,95.9999970703126,10|2,0:1|1:0,0:0:0:0:
476,334,34895,1,0,1:0:0:0:
295,190,35374,1,2,1:0:0:0:
203,66,35693,2,0,L|195:-2,2,47.9999985351563,10|0|0,0:1|1:0|0:0,0:0:0:0:
222,218,36331,2,0,P|216:280|275:348,1,143.999995605469,2|0,1:0|1:0,0:0:0:0:
173,365,36970,2,0,P|128:340|82:336,1,95.9999970703126,10|2,0:1|1:0,0:0:0:0:
27,275,37448,2,0,B|22:249|37:219|37:219|1:182|9:124,1,143.999995605469,0|2,1:0|1:0,0:0:0:0:
141,63,38246,6,0,B|136:121,2,47.9999985351563,10|0|0,0:1|1:0|0:0,0:0:0:0:
203,203,38885,2,0,L|194:306,1,95.9999970703126,2|0,1:0|0:0,0:0:0:0:
250,351,39363,1,0,1:0:0:0:
320,320,39523,2,0,L|329:217,1,95.9999970703126,10|2,0:1|1:0,0:0:0:0:
378,165,40002,1,0,1:0:0:0:
453,180,40161,2,0,L|466:229,2,47.9999985351563,0|8|8,0:0|0:1|0:1,0:0:0:0:
412,86,40640,1,8,0:1:0:0:
311,116,40800,2,0,L|270:166,1,42.5,8|0,0:1|1:0,0:0:0:0:
215,99,41099,2,0,L|160:125,1,47.9999985351563,8|0,0:1|1:0,0:0:0:0:
129,40,41438,5,4,1:0:0:0:
129,40,42076,1,10,0:1:0:0:
129,40,42714,1,4,1:1:0:0:
129,40,43352,1,10,0:1:0:0:
9,185,43672,1,0,0:0:0:0:
128,331,43991,6,0,P|95:337|67:356,1,60.0000022888184,4|0,1:1|0:0,0:0:0:0:
208,349,44310,1,4,0:3:0:0:
398,298,44629,2,0,P|431:296|463:308,1,60.0000022888184,12|0,0:1|1:0,0:0:0:0:
215,260,45108,1,4,0:3:0:0:
321,204,45267,2,0,P|324:250|279:308,1,120.000004577637,4|0,1:1|1:0,0:0:0:0:
175,98,45906,1,12,0:1:0:0:
56,84,46065,2,0,P|80:44|150:23,1,120.000004577637,4|0,0:3|1:0,0:0:0:0:
109,140,46544,1,4,1:1:0:0:
12,312,46863,6,0,L|2:390,1,60.0000022888184,0|0,0:0|0:0,0:0:0:0:
83,345,47182,2,0,P|171:368|231:293,1,180.000006866455,10|0,0:1|0:0,0:0:0:0:
248,216,47820,1,4,1:1:0:0:
410,326,48140,2,0,P|370:332|308:283,1,120.000004577637,0|10,0:0|0:1,0:0:0:0:
464,174,48778,1,0,0:0:0:0:
409,90,48938,2,0,L|359:93,1,30.0000011444092,0|0,1:0|1:0,0:0:0:0:
351,69,49097,2,0,P|300:101|234:90,1,120.000004577637,8|4,0:0|1:3,0:0:0:0:
63,26,49735,1,4,1:3:0:0:
185,178,50055,2,0,P|244:171|299:210,1,120.000004577637,4|4,1:3|1:3,0:0:0:0:
400,349,50693,6,0,P|377:315|377:283,1,60.0000022888184,8|8,0:1|0:1,0:0:0:0:
301,231,51012,2,0,P|259:242|237:265,1,60.0000022888184,8|8,0:1|0:1,0:0:0:0:
182,331,51331,2,0,P|171:294|143:268,1,60.0000022888184,8|8,0:1|0:1,0:0:0:0:
57,295,51650,2,0,P|29:279|-14:270,1,60.0000022888184,4|0,1:1|1:0,0:0:0:0:
51,174,51969,2,0,P|35:136|40:103,1,60.0000022888184,4|0,1:3|1:0,0:0:0:0:
141,155,52289,1,8,0:0:0:0:
141,155,52927,1,4,1:1:0:0:
397,275,53565,6,0,P|452:254|500:261,1,95.9999970703126,10|2,0:1|0:1,0:0:0:0:
323,316,54203,2,0,P|293:327|260:324,1,47.9999985351563,2|0,1:1|0:0,0:0:0:0:
214,286,54522,2,0,P|181:335|137:358,1,95.9999970703126,2|10,0:1|0:1,0:0:0:0:
82,215,55161,1,2,0:1:0:0:
94,61,55480,2,0,P|158:95|226:52,1,143.999995605469,4|2,1:1|0:1,0:0:0:0:
279,19,56118,6,0,P|333:70|328:146,1,143.999995605469,10|2,0:1|0:1,0:0:0:0:
363,225,56756,2,0,P|379:203|410:186,1,47.9999985351563,4|4,1:3|1:3,0:0:0:0:
274,197,57075,2,0,P|251:185|227:185,1,47.9999985351563,4|4,1:3|1:3,0:0:0:0:
304,274,57395,1,10,0:1:0:0:
258,102,57714,1,2,0:1:0:0:
105,166,58033,2,0,P|46:172|5:199,1,95.9999970703126,4|2,1:1|0:1,0:0:0:0:
166,216,58671,1,10,0:1:0:0:
236,352,58990,6,0,L|289:343,1,47.9999985351563,2|2,0:1|0:1,0:0:0:0:
340,292,59309,2,0,P|384:290|432:322,1,95.9999970703126,2|2,1:1|0:1,0:0:0:0:
263,271,59948,1,10,0:1:0:0:
198,147,60267,2,0,L|194:205,1,47.9999985351563,2|2,0:1|0:1,0:0:0:0:
263,271,60586,2,0,B|275:65,1,191.999994140625,4|10,1:1|0:1,0:0:0:0:
87,61,61863,6,0,L|103:127,1,47.9999985351563,4|4,1:3|1:3,0:0:0:0:
39,177,62182,2,0,L|23:111,1,47.9999985351563,4|4,1:3|1:3,0:0:0:0:
119,186,62501,2,0,P|163:188|211:156,1,95.9999970703126,10|2,0:1|0:1,0:0:0:0:
289,32,63139,1,4,1:1:0:0:
489,249,63778,6,0,P|458:330|350:318,1,191.999994140625,10|2,0:1|1:1,0:0:0:0:
253,224,64735,1,2,0:1:0:0:
164,349,65054,2,0,L|144:296,1,47.9999985351563,10|0,0:1|0:0,0:0:0:0:
55,270,65373,2,0,L|87:368,2,95.9999970703126,2|4|2,0:1|1:1|0:1,0:0:0:0:
188,192,66331,6,0,P|228:153|306:176,1,143.999995605469,10|2,0:1|0:1,0:0:0:0:
387,174,66969,2,0,L|398:234,1,47.9999985351563,4|4,1:3|1:3,0:0:0:0:
474,247,67288,2,0,L|463:187,1,47.9999985351563,4|4,1:3|1:3,0:0:0:0:
431,120,67607,2,0,P|383:120|332:87,1,95.9999970703126,10|2,0:1|0:1,0:0:0:0:
222,14,68246,1,4,1:1:0:0:
399,47,68565,1,2,0:1:0:0:
233,138,68884,2,0,P|76:184|31:165,2,191.999994140625,10|2|10,0:1|1:1|0:1,0:0:0:0:
133,343,70799,1,2,1:1:0:0:
380,246,71437,2,0,P|409:297|411:345,1,95.9999970703126,10|2,0:1|0:1,0:0:0:0:
327,366,71916,5,2,1:1:0:0:
265,299,72075,2,0,P|206:263|113:262,1,143.999995605469,10|0,0:1|0:0,0:0:0:0:
46,289,72714,1,2,1:1:0:0:
68,201,72873,2,0,P|83:146|74:93,1,95.9999970703126,4|0,1:3|0:0,0:0:0:0:
29,30,73352,1,4,1:0:0:0:
294,47,73831,5,0,1:0:0:0:
294,47,73990,2,0,P|323:98|325:146,1,95.9999970703126,10|2,0:1|1:0,0:0:0:0:
390,179,74469,2,0,P|362:205|261:172,1,143.999995605469,0|2,1:0|1:0,0:0:0:0:
163,296,75267,2,0,L|174:355,2,47.9999985351563,10|0|0,0:1|1:0|0:0,0:0:0:0:
182,143,75905,1,2,1:0:0:0:
311,339,76384,5,0,1:0:0:0:
311,339,76544,1,10,0:1:0:0:
457,286,76863,1,0,1:0:0:0:
457,286,77022,2,0,P|479:217|466:141,1,143.999995605469,0|0,1:0|1:0,0:0:0:0:
345,54,77820,2,0,L|339:217,1,143.999995605469,10|0,0:1|1:0,0:0:0:0:
289,255,78458,2,0,P|218:261|174:204,1,143.999995605469,4|0,1:0|1:0,0:0:0:0:
118,264,79097,2,0,P|145:310|141:368,1,95.9999970703126,10|2,0:1|1:0,0:0:0:0:
73,328,79575,1,0,1:0:0:0:
3,108,80054,5,2,1:0:0:0:
159,125,80373,1,10,0:1:0:0:
159,125,80533,2,0,L|252:98,1,95.9999970703126,0|0,1:0|0:0,0:0:0:0:
314,142,81012,2,0,P|386:135|443:83,1,143.999995605469,2|0,1:0|1:0,0:0:0:0:
462,17,81650,2,0,L|472:131,1,95.9999970703126,10|2,0:1|1:0,0:0:0:0:
480,189,82129,1,0,1:0:0:0:
330,14,82607,1,2,1:0:0:0:
178,40,82927,1,10,0:1:0:0:
178,40,83086,2,0,P|121:42|73:67,1,95.9999970703126,0|0,1:0|0:0,0:0:0:0:
31,112,83565,2,0,L|37:50,1,47.9999985351563,4|0,1:0|0:0,0:0:0:0:
22,217,84044,5,0,1:0:0:0:
22,217,84203,2,0,P|58:263|102:282,1,95.9999970703126,10|2,0:1|1:0,0:0:0:0:
166,263,84682,2,0,P|226:279|268:359,1,143.999995605469,0|2,1:0|1:0,0:0:0:0:
358,222,85480,2,0,L|354:156,1,47.9999985351563,10|0,0:1|1:0,0:0:0:0:
168,38,86118,1,2,1:0:0:0:
397,88,86597,5,0,1:0:0:0:
397,88,86756,2,0,P|446:118|471:160,1,95.9999970703126,10|2,0:1|1:0,0:0:0:0:
483,224,87235,1,0,1:0:0:0:
293,354,87714,1,2,1:0:0:0:
310,202,88033,2,0,L|321:145,2,47.9999985351563,10|0|0,0:1|1:0|0:0,0:0:0:0:
223,328,88671,2,0,P|160:328|98:263,1,143.999995605469,4|0,1:0|1:0,0:0:0:0:
73,204,89309,2,0,L|78:308,1,95.9999970703126,10|2,0:1|1:0,0:0:0:0:
5,271,89788,2,0,B|-1:125,1,143.999995605469,0|2,1:0|1:0,0:0:0:0:
131,47,90586,6,0,B|83:25,2,47.9999985351563,10|0|0,0:1|1:0|0:0,0:0:0:0:
284,53,91224,2,0,P|340:45|380:71,1,95.9999970703126,2|0,1:0|0:0,0:0:0:0:
419,124,91703,1,0,1:0:0:0:
379,189,91863,2,0,L|283:171,1,95.9999970703126,10|2,0:1|1:0,0:0:0:0:
218,132,92341,1,0,1:0:0:0:
143,150,92501,2,0,L|99:112,2,47.9999985351563,0|0|0,0:0|0:0|0:0,0:0:0:0:
164,230,92980,1,0,1:0:0:0:
183,310,93139,2,0,P|198:333|222:343,1,47.9999985351563,8|0,0:1|1:0,0:0:0:0:
287,285,93458,2,0,P|307:299|348:294,1,47.9999985351563,0|0,1:0|1:0,0:0:0:0:
391,237,93778,5,4,1:0:0:0:
391,237,94416,1,10,0:1:0:0:
391,237,95054,1,4,1:1:0:0:
391,237,95692,1,10,0:1:0:0:
502,79,96012,1,0,0:0:0:0:
315,35,96331,6,0,P|282:41|254:60,1,60.0000022888184,4|0,1:1|0:0,0:0:0:0:
395,53,96650,1,0,1:0:0:0:
215,119,96969,2,0,P|182:121|150:109,1,60.0000022888184,12|0,0:1|1:0,0:0:0:0:
19,248,97448,1,0,1:0:0:0:
125,192,97607,2,0,P|128:238|83:296,1,120.000004577637,4|0,1:1|1:0,0:0:0:0:
274,174,98246,1,12,0:1:0:0:
242,289,98405,2,0,P|288:284|338:231,1,120.000004577637,0|0,1:0|1:0,0:0:0:0:
214,222,98884,1,4,1:1:0:0:
83,39,99203,6,0,L|5:29,1,60.0000022888184,0|0,0:0|0:0,0:0:0:0:
71,119,99522,2,0,P|154:155|225:90,1,180.000006866455,10|0,0:1|0:0,0:0:0:0:
263,22,100160,1,4,1:1:0:0:
351,192,100480,1,2,0:1:0:0:
479,47,100799,1,10,0:1:0:0:
479,47,101118,1,0,0:0:0:0:
480,143,101278,2,0,L|483:193,1,30.0000011444092,0|0,1:0|1:0,0:0:0:0:
459,201,101437,2,0,L|467:324,1,120.000004577637,8|4,0:0|1:3,0:0:0:0:
278,358,102075,1,4,1:3:0:0:
226,172,102395,2,0,P|285:165|340:204,1,120.000004577637,4|4,1:3|1:3,0:0:0:0:
142,348,103352,6,0,P|77:359|-2:282,1,180.000006866455,2|0,0:0|0:0,0:0:0:0:
11,210,103990,6,0,L|158:199,1,143.999995605469,4|2,1:1|0:1,0:0:0:0:
221,238,104629,2,0,P|267:245|310:225,1,95.9999970703126,10|2,0:1|0:1,0:0:0:0:
415,112,105267,2,0,L|419:160,1,47.9999985351563,2|0,1:1|0:0,0:0:0:0:
382,227,105586,2,0,P|360:176|305:155,1,95.9999970703126,2|10,0:1|0:1,0:0:0:0:
172,156,106225,1,2,0:1:0:0:
255,27,106544,2,0,P|319:61|387:18,1,143.999995605469,4|2,1:1|0:1,0:0:0:0:
451,55,107182,2,0,P|505:106|500:182,1,143.999995605469,10|2,0:1|0:1,0:0:0:0:
436,228,107820,6,0,L|443:286,1,47.9999985351563,4|4,1:3|1:3,0:0:0:0:
358,218,108139,2,0,L|351:160,1,47.9999985351563,4|4,1:3|1:3,0:0:0:0:
300,262,108459,1,10,0:1:0:0:
429,138,108778,1,2,0:1:0:0:
284,51,109097,2,0,P|225:57|184:84,1,95.9999970703126,4|2,1:1|0:1,0:0:0:0:
345,100,109735,1,10,0:1:0:0:
217,185,110054,6,0,L|154:175,1,47.9999985351563,2|2,0:1|0:1,0:0:0:0:
111,126,110373,2,0,P|67:128|19:96,1,95.9999970703126,2|2,1:1|0:1,0:0:0:0:
164,40,111012,1,10,0:1:0:0:
217,185,111331,2,0,L|213:243,1,47.9999985351563,2|2,0:1|0:1,0:0:0:0:
228,308,111650,2,0,P|273:237|375:220,1,191.999994140625,4|10,1:1|0:1,0:0:0:0:
145,100,112927,6,0,L|79:116,1,47.9999985351563,4|4,1:3|1:3,0:0:0:0:
29,52,113246,2,0,L|95:36,1,47.9999985351563,4|4,1:3|1:3,0:0:0:0:
20,132,113565,2,0,P|18:176|50:224,1,95.9999970703126,10|2,0:1|0:1,0:0:0:0:
154,325,114203,1,4,1:1:0:0:
359,96,114842,6,0,P|445:97|471:203,1,191.999994140625,10|2,0:1|1:1,0:0:0:0:
444,335,115799,1,2,0:1:0:0:
290,340,116118,2,0,L|231:349,1,47.9999985351563,10|0,0:1|0:0,0:0:0:0:
171,318,116437,2,0,P|127:320|79:288,2,95.9999970703126,2|4|2,0:1|1:1|0:1,0:0:0:0:
219,171,117395,6,0,P|263:169|330:240,1,143.999995605469,10|2,0:1|0:1,0:0:0:0:
395,302,118033,2,0,L|404:246,1,47.9999985351563,4|4,1:3|1:3,0:0:0:0:
483,254,118352,2,0,L|471:185,1,47.9999985351563,4|4,1:3|1:3,0:0:0:0:
423,149,118671,2,0,P|423:101|390:50,1,95.9999970703126,10|2,0:1|0:1,0:0:0:0:
238,22,119310,1,4,1:1:0:0:
353,117,119629,1,2,0:1:0:0:
204,154,119948,6,0,P|139:231|162:333,2,191.999994140625,10|2|10,0:1|1:1|0:1,0:0:0:0:
397,310,121863,1,2,1:1:0:0:
95,336,122501,2,0,P|45:367|-4:367,1,95.9999970703126,10|2,0:1|0:1,0:0:0:0:
24,281,122980,5,2,1:1:0:0:
24,281,123139,2,0,P|60:222|61:129,1,143.999995605469,10|0,0:1|0:0,0:0:0:0:
161,157,123778,1,2,1:1:0:0:
161,157,123937,2,0,P|172:212|207:237,1,95.9999970703126,4|0,1:3|0:0,0:0:0:0:
255,162,124417,1,10,0:1:0:0:
255,162,124576,2,0,L|357:191,1,95.9999970703126,4|0,1:3|0:0,0:0:0:0:
374,104,125054,1,2,1:1:0:0:
374,104,125213,2,0,L|479:96,1,95.9999970703126,4|0,1:3|0:0,0:0:0:0:
505,12,125692,1,4,1:0:0:0:
256,192,142927,5,2,0:2:0:0:
99,240,143565,5,4,1:3:0:0:
116,109,143884,1,4,1:3:0:0:
224,33,144203,1,4,1:3:0:0:
353,63,144522,1,4,1:3:0:0:
417,179,144848,1,4,1:3:0:0:
374,304,145167,1,4,1:3:0:0:
253,356,145486,1,4,1:3:0:0:
133,301,145806,1,4,1:3:0:0:
292,45,146524,6,0,L|454:66,1,160,2|0,0:0|0:0,0:0:0:0:
411,153,147375,2,0,P|352:178|292:159,1,120,4|0,1:0|1:0,0:0:0:0:
234,122,148025,1,8,0:0:0:0:
118,36,148344,2,0,L|104:166,1,120,2|0,1:2|0:0,0:0:0:0:
95,229,148998,1,0,1:0:0:0:
11,110,149317,1,8,0:0:0:0:
282,65,149955,6,0,P|307:109|285:180,1,120,2|0,1:2|1:0,0:0:0:0:
240,229,150593,1,10,0:0:0:0:
142,324,150912,2,0,P|201:366|290:359,1,160,2|0,1:2|1:0,0:0:0:0:
419,334,151870,6,0,L|429:237,1,80,10|0,0:2|0:0,0:0:0:0:
456,187,152330,1,0,1:0:0:0:
416,126,152489,2,0,L|426:29,1,80,2|0,1:2|0:0,0:0:0:0:
297,113,153145,2,0,P|268:195|126:226,1,240,10|2,0:2|1:2,0:0:0:0:
164,96,154422,1,8,0:0:0:0:
256,192,154581,12,8,156974,0:1:0:0:
109,85,157613,6,0,P|162:53|222:62,1,120,2|0,1:2|1:0,0:0:0:0:
278,105,158251,1,10,0:2:0:0:
368,206,158570,2,0,P|355:124|387:44,1,160,2|0,1:2|1:0,0:0:0:0:
487,138,159528,1,8,0:0:0:0:
346,364,160166,6,0,P|270:363|223:324,1,120,2|0,1:2|1:0,0:0:0:0:
163,354,160805,2,0,L|104:369,1,40,2|0,1:2|1:0,0:0:0:0:
97,293,161124,2,0,L|17:275,1,80,2|0,1:2|0:0,0:0:0:0:
0,203,161602,1,8,0:0:0:0:
135,50,162081,6,0,P|200:35|252:73,1,120,10|0,0:2|1:0,0:0:0:0:
236,139,162719,2,0,P|211:224|231:305,1,160,2|8,1:2|0:0,0:0:0:0:
351,346,163682,2,0,P|376:261|356:180,1,160,2|0,1:2|1:0,0:0:0:0:
315,66,164639,1,8,0:0:0:0:
379,30,164788,2,0,L|429:19,1,40,0|0,1:0|0:0,0:0:0:0:
441,89,165094,2,0,L|466:91,2,20,0|0|0,1:0|1:0|1:0,0:0:0:0:
256,192,165423,12,4,168454,0:1:0:0:
128,165,169097,5,4,1:1:0:0:
397,275,169735,2,0,P|452:254|500:261,1,95.9999970703126,10|2,0:1|0:1,0:0:0:0:
323,316,170373,2,0,P|293:327|260:324,1,47.9999985351563,2|0,1:1|0:0,0:0:0:0:
214,286,170692,2,0,P|181:335|137:358,1,95.9999970703126,2|10,0:1|0:1,0:0:0:0:
82,215,171331,1,2,0:1:0:0:
94,61,171650,2,0,P|158:95|226:52,1,143.999995605469,4|2,1:1|0:1,0:0:0:0:
279,19,172288,2,0,P|350:38|381:108,1,143.999995605469,10|2,0:1|0:1,0:0:0:0:
417,166,172926,6,0,L|476:138,1,47.9999985351563,4|4,1:3|1:3,0:0:0:0:
466,229,173245,2,0,L|513:241,1,47.9999985351563,4|4,1:3|1:3,0:0:0:0:
499,325,173565,1,10,0:1:0:0:
327,362,173884,1,2,0:1:0:0:
185,282,174203,2,0,P|126:288|85:315,1,95.9999970703126,4|2,1:1|0:1,0:0:0:0:
244,341,174841,1,10,0:1:0:0:
384,279,175160,6,0,L|375:226,1,47.9999985351563,2|2,0:1|0:1,0:0:0:0:
324,175,175479,2,0,P|322:131|354:83,1,95.9999970703126,2|2,1:1|0:1,0:0:0:0:
482,162,176118,1,10,0:1:0:0:
384,279,176437,2,0,L|331:291,1,47.9999985351563,2|2,0:1|0:1,0:0:0:0:
271,249,176756,2,0,P|171:266|114:331,1,191.999994140625,4|10,1:1|0:1,0:0:0:0:
72,36,178033,6,0,L|88:102,1,47.9999985351563,4|4,1:3|1:3,0:0:0:0:
24,152,178352,2,0,L|8:86,1,47.9999985351563,4|4,1:3|1:3,0:0:0:0:
104,161,178671,2,0,P|148:163|196:131,1,95.9999970703126,10|2,0:1|0:1,0:0:0:0:
289,32,179309,1,4,1:1:0:0:
489,249,179955,6,0,P|458:330|350:318,1,191.999994140625,10|2,0:1|1:1,0:0:0:0:
253,224,180912,1,2,0:1:0:0:
164,349,181231,2,0,L|144:296,1,47.9999985351563,10|0,0:1|0:0,0:0:0:0:
55,270,181550,2,0,L|87:368,2,95.9999970703126,2|4|2,0:1|1:1|0:1,0:0:0:0:
188,192,182508,2,0,P|228:153|306:176,1,143.999995605469,10|2,0:1|0:1,0:0:0:0:
387,174,183146,6,0,L|398:234,1,47.9999985351563,4|4,1:3|1:3,0:0:0:0:
474,247,183465,2,0,L|463:187,1,47.9999985351563,4|4,1:3|1:3,0:0:0:0:
431,120,183784,2,0,P|383:120|332:87,1,95.9999970703126,10|2,0:1|0:1,0:0:0:0:
222,14,184423,1,4,1:1:0:0:
399,46,184742,1,2,0:1:0:0:
243,164,185061,2,0,P|222:250|259:354,2,191.999994140625,10|2|10,0:1|1:1|0:1,0:0:0:0:
27,57,186976,1,2,1:1:0:0:
334,57,187614,2,0,P|363:108|365:156,1,95.9999970703126,10|2,0:1|0:1,0:0:0:0:
313,200,188093,5,2,1:1:0:0:
313,200,188252,2,0,P|345:260|341:353,1,143.999995605469,10|0,0:1|0:0,0:0:0:0:
262,305,188891,1,2,1:1:0:0:
262,305,189050,2,0,P|232:353|187:383,1,95.9999970703126,0|0,1:0|0:0,0:0:0:0:
132,306,189529,2,0,L|144:247,1,47.9999985351563,4|4,1:3|1:3,0:0:0:0:
44,261,189848,2,0,L|38:201,1,47.9999985351563,4|4,1:3|1:3,0:0:0:0:
129,154,190167,1,12,1:0:0:0:
