osu file format v14

[General]
AudioFilename: audio.mp3
AudioLeadIn: 0
PreviewTime: 0
Countdown: 0
SampleSet: Soft
StackLeniency: 0.7
Mode: 0
LetterboxInBreaks: 0
WidescreenStoryboard: 0

[Editor]
Bookmarks: 35169,52623,71714,86441,88623,104987,114805,124623,142078
DistanceSpacing: 0.6
BeatDivisor: 8
GridSize: 4
TimelineZoom: 1.8

[Metadata]
Title:starlove
TitleUnicode:starlove
Artist:+TEK
ArtistUnicode:+TEK
Creator:anfeargorm
Version:Love
Source:
Tags:G2R2018 NekoBagel AnimeGum Cn_Dragon1 Sacri Suja Doggeh Happy Machinery happy breakcore
BeatmapID:2025573
BeatmapSetID:967965

[Difficulty]
HPDrainRate:5.5
CircleSize:4
OverallDifficulty:8.5
ApproachRate:9.7
SliderMultiplier:2
SliderTickRate:1

[Events]
//Background and Video events
Video,-272,"starlove.mp4"
0,0,"39637781_p0.jpg",0,0
//Break Periods
//Storyboard Layer 0 (Background)
//Storyboard Layer 1 (Fail)
//Storyboard Layer 2 (Pass)
//Storyboard Layer 3 (Foreground)
//Storyboard Sound Samples

[TimingPoints]
-12,272.727272727273,4,2,0,45,1,0
260,272.727272727273,4,2,0,45,1,0
532,-83.3333333333333,4,2,0,45,0,0
941,-133.333333333333,4,2,0,45,0,0
6396,-100,4,2,0,45,0,0
6805,-80,4,2,0,45,0,0
12532,-68.9655172413793,4,2,0,45,0,0
12941,-57.1428571428571,4,2,0,45,0,0
14305,-80,4,2,0,45,0,0
15941,-68.9655172413793,4,2,0,45,0,0
16896,-57.1428571428571,4,2,0,45,0,0
17714,-100,4,2,0,45,0,0
23031,-79.9999999999999,4,2,0,45,0,0
25349,-133.333333333333,4,2,0,45,0,0
26168,-79.9999999999999,4,2,0,45,0,0
35168,-166.666666666667,4,2,0,45,0,0
43622,-66.6666666666667,4,2,0,45,0,0
43895,-100,4,2,0,45,0,0
44440,-166.666666666667,4,2,0,45,0,0
48259,-79.9999999999999,4,2,0,45,0,0
48804,-166.666666666667,4,2,0,45,0,0
50440,-79.9999999999999,4,2,0,45,0,0
50986,-166.666666666667,4,2,0,45,0,0
51531,-79.9999999999999,4,2,0,45,0,0
61077,-181.818181818181,4,2,0,45,0,0
61350,-79.9999999999999,4,2,0,45,0,1
68987,-166.666666666667,4,2,0,45,0,0
69805,-133.333333333333,4,2,0,45,0,0
70078,-166.666666666667,4,2,0,45,0,0
71441,-166.666666666667,4,2,0,45,0,0
71714,-166.666666666667,4,2,0,45,0,0
78532,-100,4,2,0,45,0,0
78805,-166.666666666667,4,2,0,45,0,0
84260,-133.333333333333,4,2,0,45,0,0
85350,-100,4,2,0,45,0,0
87532,-79.9999999999999,4,2,0,45,0,0
88350,-90.9090909090909,4,2,0,45,0,0
106078,-100,4,2,0,45,0,0
107169,-79.9999999999999,4,2,0,45,0,0
114805,-133.333333333333,4,2,0,45,0,0
115623,-100,4,2,0,45,0,0
115896,-79.9999999999999,4,2,0,45,0,0
124623,-133.333333333333,4,2,0,45,0,0
143032,-200,4,2,0,45,0,0

[Colours]
Combo1 : 255,151,221
Combo2 : 248,183,118
Combo3 : 173,250,177
Combo4 : 145,200,255

[HitObjects]
185,154,260,6,0,P|121:156|87:133,1,100
225,219,532,2,0,P|157:238|93:227,1,119.999996337891
275,156,805,1,0,0:0:0:0:
285,296,941,2,0,P|314:258|315:219,1,75.0000028610231
381,124,1214,2,0,P|387:179|471:227,1,150.000005722046
462,138,1623,1,0,0:0:0:0:
324,34,1760,2,0,P|279:66|279:163,1,150.000005722046
393,321,2169,1,0,0:0:0:0:
317,232,2305,1,0,0:0:0:0:
288,369,2441,6,0,B|184:391|184:391|109:379,1,150.000005722046
30,316,2850,2,0,P|66:267|120:257,1,112.500004291535
154,261,3123,1,0,0:0:0:0:
141,110,3260,1,0,0:0:0:0:
146,184,3396,1,0,0:0:0:0:
221,132,3532,6,0,P|223:78|201:48,1,75.0000028610231
276,210,3805,1,0,0:0:0:0:
335,131,3941,2,0,P|333:77|408:13,1,150.000005722046
426,103,4350,2,0,B|443:194,1,75.0000028610231
424,262,4623,5,0,0:0:0:0:
292,319,4760,1,0,0:0:0:0:
395,336,4896,1,0,0:0:0:0:
328,225,5032,1,0,0:0:0:0:
180,295,5169,1,0,0:0:0:0:
228,181,5305,1,0,0:0:0:0:
114,207,5441,1,0,0:0:0:0:
42,314,5578,2,0,B|23:230|23:230|26:149,1,150.000005722046
49,20,5987,6,0,P|108:45|136:149,1,150.000005722046
310,13,6396,2,0,P|308:77|215:187,1,200
489,212,6805,2,0,P|393:322|251:357,1,250
140,120,7350,5,0,0:0:0:0:
227,180,7487,1,0,0:0:0:0:
297,355,7623,1,0,0:0:0:0:
108,283,7760,1,0,0:0:0:0:
365,206,7896,5,0,0:0:0:0:
206,363,8032,1,2,0:0:0:0:
203,331,8100,1,2,0:0:0:0:
201,297,8169,1,2,0:0:0:0:
189,12,8305,1,2,0:0:0:0:
276,246,8441,1,2,0:0:0:0:
84,72,8578,1,2,0:0:0:0:
401,87,8714,2,0,B|365:60|310:69|284:93|284:104|285:120|261:131|227:130,1,187.5
191,113,8987,6,0,P|234:130|260:125,1,62.5
334,261,9123,2,0,P|291:244|265:249,1,62.5
145,335,9260,1,0,0:0:0:0:
271,351,9396,1,0,0:0:0:0:
112,178,9532,1,0,0:0:0:0:
77,287,9669,1,0,0:0:0:0:
377,187,9805,1,0,0:0:0:0:
112,178,9941,2,0,P|182:212|252:190,1,125
270,14,10214,5,0,0:0:0:0:
191,113,10350,1,0,0:0:0:0:
450,117,10487,2,0,P|380:83|310:105,1,125
350,328,10760,1,0,0:0:0:0:
344,300,10828,1,0,0:0:0:0:
338,265,10896,1,0,0:0:0:0:
96,323,11032,1,0,0:0:0:0:
218,327,11169,6,0,B|227:263|197:243|168:224|169:163|206:118|257:117,1,250
470,178,11578,1,0,0:0:0:0:
268,193,11714,2,0,P|197:174|175:112,1,125
363,25,11987,5,0,0:0:0:0:
380,221,12123,1,0,0:0:0:0:
255,117,12260,1,0,0:0:0:0:
395,116,12396,1,0,0:0:0:0:
218,327,12532,2,0,P|258:265|265:173,1,145.000004425049
58,44,12805,1,0,0:0:0:0:
59,79,12873,1,0,0:0:0:0:
81,111,12941,2,0,P|107:212|76:299,1,175.00000166893
279,247,13214,5,0,0:0:0:0:
285,284,13282,1,0,0:0:0:0:
313,307,13350,1,0,0:0:0:0:
482,173,13487,1,0,0:0:0:0:
299,118,13623,1,0,0:0:0:0:
380,221,13760,5,0,0:0:0:0:
395,116,13896,1,0,0:0:0:0:
267,195,14032,1,0,0:0:0:0:
411,338,14169,5,0,0:0:0:0:
267,195,14305,2,0,B|226:184|200:202|190:226|151:249|88:237|56:173|86:115,1,250
318,46,14714,1,0,0:0:0:0:
382,223,14850,2,0,P|291:186|214:205,1,125
78,291,15123,1,0,0:0:0:0:
111,303,15191,1,0,0:0:0:0:
143,316,15260,5,0,0:0:0:0:
270,103,15396,1,0,0:0:0:0:
42,200,15532,2,0,P|83:138|150:136,1,125
270,292,15805,1,0,0:0:0:0:
191,217,15941,2,0,P|223:140|310:88,1,145.000004425049
449,203,16214,1,0,0:0:0:0:
348,201,16350,6,0,L|388:40,1,145.000004425049
476,330,16623,1,0,0:0:0:0:
300,378,16760,1,0,0:0:0:0:
165,253,16896,1,0,0:0:0:0:
282,127,17032,2,0,P|378:107|376:300,1,350.00000333786
230,79,17441,6,0,P|214:108|223:165,3,87.500000834465
230,334,17714,6,0,B|248:276|248:276|247:233,1,100
79,250,17987,2,0,B|61:192|61:192|62:149,1,100
205,7,18260,1,0,0:0:0:0:
282,127,18396,1,0,0:0:0:0:
145,134,18532,1,0,0:0:0:0:
347,15,18669,6,0,B|382:65|382:65|373:105,1,100
219,263,18941,1,0,0:0:0:0:
145,134,19078,2,0,P|193:103|244:99,1,100
446,222,19350,2,0,P|398:253|347:257,1,100
79,250,19623,5,0,0:0:0:0:
230,334,19760,1,0,0:0:0:0:
396,344,19896,2,0,B|362:306|362:306|353:240,1,100
193,183,20169,2,0,B|227:145|227:145|236:79,1,100
478,36,20441,1,0,0:0:0:0:
446,222,20578,1,0,0:0:0:0:
234,97,20714,2,0,P|297:91|353:123,1,100
306,325,20987,5,0,0:0:0:0:
52,175,21123,1,0,0:0:0:0:
330,104,21260,2,0,P|341:166|329:210,1,100
128,276,21532,1,0,0:0:0:0:
98,41,21669,1,0,0:0:0:0:
242,177,21805,2,0,L|287:219,3,50
161,153,22078,6,0,P|196:105|247:93,1,100
459,165,22350,2,0,P|424:213|373:225,1,100
306,30,22623,1,0,0:0:0:0:
439,28,22760,1,0,0:0:0:0:
382,135,22896,1,0,0:0:0:0:
285,5,23032,6,0,B|271:41|285:76|300:75|327:73|347:119|338:161|318:194|288:210|248:213,1,250
106,49,23441,1,0,0:0:0:0:
57,253,23578,1,0,0:0:0:0:
252,134,23714,5,0,0:0:0:0:
0,120,23850,1,0,0:0:0:0:
380,257,23987,5,0,0:0:0:0:
128,271,24123,1,0,0:0:0:0:
207,109,24260,6,0,P|262:171|257:231,1,125
185,357,24532,1,0,0:0:0:0:
72,177,24669,1,0,0:0:0:0:
303,53,24805,2,0,B|217:16|217:16|162:35,1,125
274,298,25078,1,0,0:0:0:0:
449,163,25214,1,0,0:0:0:0:
339,183,25350,6,0,P|338:236|422:315,1,150.000005722046
208,203,25760,6,0,P|260:151|266:78,1,150.000005722046
157,83,26169,2,0,L|156:143,5,41.6666666666667
155,39,26441,5,0,0:0:0:0:
54,302,26578,1,0,0:0:0:0:
274,298,26714,1,0,0:0:0:0:
144,162,26850,1,0,0:0:0:0:
125,338,26987,2,0,B|157:307|141:252|115:253|105:189|155:154,1,187.5
395,120,27260,1,0,0:0:0:0:
452,292,27396,2,0,P|390:248|304:256,1,125
226,350,27669,5,0,0:0:0:0:
190,32,27805,2,0,B|193:117|148:77|100:155|153:263|219:245,1,250
456,75,28214,1,0,0:0:0:0:
320,45,28350,1,0,0:0:0:0:
377,268,28487,1,0,0:0:0:0:
247,170,28623,6,0,P|167:162|123:304,1,250
398,367,29032,1,0,0:0:0:0:
200,250,29169,2,0,P|180:177|98:154,1,125
59,360,29441,1,0,0:0:0:0:
292,348,29578,1,0,0:0:0:0:
196,55,29714,6,0,P|142:108|163:191,1,125
421,248,29987,1,0,0:0:0:0:
373,3,30123,2,0,B|350:71|350:71|351:149,1,125
442,384,30396,1,0,0:0:0:0:
490,139,30532,2,0,B|513:207|513:207|512:285,1,125
188,279,30805,6,0,B|244:226|306:235|305:268|369:292|426:243,1,250
59,280,31214,1,0,0:0:0:0:
264,339,31350,2,0,P|188:376|120:347,1,125
210,129,31623,1,0,0:0:0:0:
339,164,31760,2,0,P|409:211|417:284,1,125
123,188,32032,1,0,0:0:0:0:
288,49,32169,6,0,L|116:31,1,125
0,41,32441,5,0,0:0:0:0:
59,280,32578,1,0,0:0:0:0:
210,129,32714,5,0,0:0:0:0:
151,368,32850,1,0,0:0:0:0:
54,163,32987,6,0,B|116:145|156:183|146:207|190:243|265:216|284:172,1,250
337,12,33396,1,0,0:0:0:0:
210,129,33532,2,0,P|216:198|290:241,1,125
417,202,33805,1,0,0:0:0:0:
384,73,33941,1,0,0:0:0:0:
311,315,34078,5,0,0:0:0:0:
246,35,34214,1,0,0:0:0:0:
204,29,34487,5,0,0:0:0:0:
269,309,34623,1,0,0:0:0:0:
227,301,34896,6,0,L|216:235,4,62.5
142,184,35305,6,0,P|179:159|266:167,1,119.999996337891
355,231,35714,2,0,B|364:156|364:156|350:101,1,119.999996337891
168,48,36123,2,0,B|218:29|257:17|234:60|337:57|310:15|357:25|399:40,1,224.999993133545
295,355,36805,2,0,B|301:309|301:309|283:285|283:285|290:242,1,119.999996337891
381,160,37214,1,0,0:0:0:0:
410,287,37350,6,0,P|361:317|289:302,1,119.999996337891
215,335,37760,1,0,0:0:0:0:
184,245,37896,2,0,P|135:215|63:230,1,119.999996337891
465,346,38441,2,0,P|490:276|452:231,1,119.999996337891
431,94,38850,2,0,P|406:164|541:203,1,239.999992675781
484,150,39532,5,0,0:0:0:0:
312,130,39669,1,0,0:0:0:0:
373,261,39805,2,0,P|390:221|389:184,1,59.9999981689454
255,61,40078,2,0,P|226:101|234:188,1,119.999996337891
130,351,40487,2,0,P|159:311|151:224,1,119.999996337891
96,192,40896,1,0,0:0:0:0:
79,111,41032,1,0,0:0:0:0:
138,48,41169,2,0,B|198:68|198:68|258:60,1,119.999996337891
355,37,41578,1,0,0:0:0:0:
339,168,41714,6,0,P|289:153|218:174,1,119.999996337891
192,261,42123,1,0,0:0:0:0:
236,342,42260,2,0,P|286:357|357:336,1,119.999996337891
376,245,42669,1,0,0:0:0:0:
339,168,42805,2,0,B|310:120|310:120|309:48,1,119.999996337891
197,68,43214,1,0,0:0:0:0:
96,192,43350,1,0,0:0:0:0:
255,202,43487,1,0,0:0:0:0:
79,67,43623,2,0,L|116:101,5,50.0000019073487
35,32,43896,6,0,B|36:66|36:66|21:85|21:85|24:139,1,100
49,384,44169,1,0,0:0:0:0:
160,243,44305,1,0,0:0:0:0:
66,239,44441,6,0,P|73:282|132:334,1,119.999996337891
279,240,44850,2,0,L|147:243,1,119.999996337891
160,139,45260,2,0,P|191:119|220:118,1,59.9999981689454
332,218,45532,2,0,P|301:238|272:239,1,59.9999981689454
321,119,45805,1,0,0:0:0:0:
411,155,45941,1,0,0:0:0:0:
478,265,46078,6,0,L|489:159,1,89.9999972534181
411,155,46350,2,0,L|400:49,1,89.9999972534181
486,55,46623,1,0,0:0:0:0:
321,119,46760,1,0,0:0:0:0:
320,4,46896,2,0,P|276:18|246:19,1,59.9999981689454
111,101,47169,2,0,P|169:104|229:134,1,119.999996337891
332,218,47578,2,0,P|274:221|214:251,1,119.999996337891
183,343,47987,1,0,0:0:0:0:
97,356,48123,1,0,0:0:0:0:
41,154,48260,6,0,B|21:191|32:225|43:224|51:250|32:286,1,125
133,183,48532,1,0,0:0:0:0:
221,131,48669,1,0,0:0:0:0:
321,119,48805,2,0,P|368:126|420:188,1,119.999996337891
366,321,49214,2,0,B|325:269|325:269|332:214,1,119.999996337891
97,356,49623,6,0,B|164:359|164:359|184:343|184:343|216:345,1,119.999996337891
133,183,50032,2,0,B|171:181|171:181|192:133|192:133|231:131,1,119.999996337891
451,337,50441,6,0,B|375:297|317:327|337:340|272:377|184:334,1,250
348,72,50850,1,0,0:0:0:0:
345,106,50919,1,0,0:0:0:0:
342,141,50987,2,0,B|336:204|336:204|306:208|274:223,1,119.999996337891
210,344,51396,1,0,0:0:0:0:
175,137,51532,6,0,B|187:172|184:207|173:227|97:247|87:281|74:344|92:373,1,250
411,222,51941,1,0,0:0:0:0:
241,4,52078,2,0,L|252:70,1,62.5
291,281,52214,2,0,L|280:219,1,62.5
211,29,52350,2,0,L|222:95,1,62.5
261,306,52487,2,0,L|250:244,1,62.5
179,52,52623,5,0,0:0:0:0:
124,346,52760,1,0,0:0:0:0:
52,169,52896,1,0,0:0:0:0:
246,166,53032,1,0,0:0:0:0:
83,280,53169,2,0,P|46:220|59:154,1,125
401,124,53441,1,0,0:0:0:0:
296,381,53578,2,0,P|333:321|320:255,1,125
188,102,53850,5,0,0:0:0:0:
436,235,53987,2,0,B|394:176|394:176|402:112,1,125
51,168,54260,2,0,B|93:227|93:227|85:291,1,125
445,367,54532,1,0,0:0:0:0:
281,135,54669,1,0,0:0:0:0:
194,297,54805,6,0,B|217:221|194:189|183:190|158:166|156:89|221:44,1,250
48,373,55214,1,0,0:0:0:0:
341,373,55350,2,0,P|300:310|309:254,1,125
458,92,55623,1,0,0:0:0:0:
394,302,55760,1,0,0:0:0:0:
331,64,55896,6,0,P|372:127|363:183,1,125
79,295,56169,1,0,0:0:0:0:
22,171,56305,2,0,B|83:132|147:163|147:179|206:210|267:164,1,250
195,88,56714,1,0,0:0:0:0:
220,276,56850,1,0,0:0:0:0:
402,350,56987,5,0,0:0:0:0:
377,162,57123,1,0,0:0:0:0:
273,380,57260,2,0,P|222:316|220:272,1,125
323,57,57532,2,0,P|374:121|376:165,1,125
58,289,57805,1,0,0:0:0:0:
195,88,57941,2,0,B|176:135|197:167|218:167|257:214|255:282|211:324,1,250
61,98,58350,5,0,0:0:0:0:
316,108,58487,1,0,0:0:0:0:
221,384,58623,2,0,P|194:323|225:270,1,125
502,195,58896,1,0,0:0:0:0:
472,384,59032,1,0,0:0:0:0:
316,108,59169,6,0,B|343:182|310:184|276:186|265:307|338:335|406:302,1,250
466,30,59578,1,0,0:0:0:0:
61,98,59714,2,0,P|95:157|92:224,1,125
221,384,59987,2,0,P|187:325|190:258,1,125
319,52,60260,5,0,0:0:0:0:
417,219,60396,1,0,0:0:0:0:
245,183,60532,1,0,0:0:0:0:
466,30,60669,2,0,B|434:95|462:143|481:127|535:184|530:271|450:304,1,312.5
405,319,61078,6,0,L|502:331,1,82.5000025177003
340,380,61350,6,0,P|270:398|194:363,1,125
253,91,61623,1,0,0:0:0:0:
306,261,61760,1,0,0:0:0:0:
115,148,61896,5,0,0:0:0:0:
355,155,62032,1,0,0:0:0:0:
182,208,62169,1,0,0:0:0:0:
379,32,62305,1,0,0:0:0:0:
386,249,62441,5,0,0:0:0:0:
253,91,62578,1,0,0:0:0:0:
457,105,62714,1,0,0:0:0:0:
264,342,62850,1,0,0:0:0:0:
278,180,62987,5,0,0:0:0:0:
405,364,63123,1,0,0:0:0:0:
104,265,63260,2,0,P|183:238|243:255,1,125
457,105,63532,6,0,P|378:78|318:95,1,125
222,246,63805,1,0,0:0:0:0:
418,282,63941,1,0,0:0:0:0:
196,82,64078,5,0,0:0:0:0:
295,348,64214,1,0,0:0:0:0:
348,137,64350,1,0,0:0:0:0:
81,240,64487,1,0,0:0:0:0:
318,239,64623,5,0,0:0:0:0:
99,91,64760,1,0,0:0:0:0:
147,338,64896,2,0,P|183:270|240:242,1,125
483,104,65169,5,0,0:0:0:0:
295,348,65305,1,0,0:0:0:0:
204,34,65441,1,0,0:0:0:0:
465,263,65578,1,0,0:0:0:0:
28,95,65714,6,0,B|83:69|128:91|128:104|184:137|244:134|283:72,1,250
147,338,66123,1,0,0:0:0:0:
81,240,66260,2,0,P|148:219|212:242,1,125
367,374,66532,1,0,0:0:0:0:
397,50,66669,2,0,B|376:81|395:118|400:111|418:145|399:183,1,125
240,239,66941,5,0,0:0:0:0:
259,51,67078,1,0,0:0:0:0:
403,170,67214,1,0,0:0:0:0:
130,127,67350,5,0,0:0:0:0:
490,216,67487,1,0,0:0:0:0:
84,214,67623,5,0,0:0:0:0:
403,170,67760,1,0,0:0:0:0:
53,52,67896,6,0,P|133:23|195:43,1,125
315,328,68169,1,0,0:0:0:0:
103,344,68305,1,0,0:0:0:0:
293,109,68441,1,0,0:0:0:0:
396,280,68578,1,0,0:0:0:0:
159,197,68714,1,0,0:0:0:0:
366,27,68850,1,0,0:0:0:0:
298,221,68987,6,0,P|278:171|294:106,2,119.999996337891
159,197,69805,2,0,L|162:144,1,37.5000014305115
74,247,69941,2,0,L|71:209,1,37.5000014305115
77,338,70078,6,0,P|136:363|256:305,1,179.999994506836
294,161,70623,2,0,L|299:241,1,59.9999981689454
368,332,70896,2,0,B|398:328|398:328|401:330|401:330|436:326,3,59.9999981689454
419,110,71441,2,0,B|434:144|434:144|438:186,1,59.9999981689454
302,45,71714,2,0,P|286:86|294:162,1,119.999996337891
221,249,72123,1,0,0:0:0:0:
122,93,72260,6,0,L|125:168,1,59.9999981689454
86,76,72669,6,0,L|83:151,1,59.9999981689454
54,213,73078,6,0,L|51:138,1,59.9999981689454
50,307,73350,6,0,P|93:306|152:240,1,119.999996337891
180,70,73760,1,0,0:0:0:0:
271,98,73896,2,0,P|297:156|302:210,1,89.9999972534181
289,219,74169,1,0,0:0:0:0:
418,136,74305,1,0,0:0:0:0:
361,364,74441,6,0,P|305:323|299:195,1,179.999994506836
418,136,74987,2,0,L|428:202,1,59.9999981689454
271,98,75260,2,0,B|297:90|297:90|301:92|301:92|336:80,3,59.9999981689454
110,46,75805,2,0,L|176:48,1,59.9999981689454
139,325,76078,2,0,B|119:286|142:255|154:257|175:232|174:182|138:158,1,179.999994506836
279,316,76623,6,0,L|211:309,1,59.9999981689454
340,279,77032,6,0,L|272:286,1,59.9999981689454
391,229,77441,6,0,L|326:251,1,59.9999981689454
379,132,77714,6,0,P|336:119|246:114,1,119.999996337891
213,240,78123,2,0,P|165:267|139:342,1,119.999996337891
111,195,78532,2,0,B|116:169|116:169|110:125,1,50
23,151,78669,2,0,B|18:125|18:125|24:81,1,50
106,28,78805,6,0,P|141:-1|229:-15,1,119.999996337891
459,90,79350,2,0,B|389:75|389:75|344:76,1,89.9999972534181
341,78,79623,2,0,B|307:80|307:80|304:77|304:77|267:79,3,59.9999981689454
386,239,80169,2,0,L|380:172,1,59.9999981689454
284,311,80441,2,0,B|326:292|341:342|417:349|455:298,1,179.999994506836
197,231,80987,6,0,L|263:222,1,59.9999981689454
156,208,81396,6,0,L|221:222,1,59.9999981689454
125,172,81805,6,0,L|175:204,1,59.9999981689454
68,70,82078,6,0,P|114:55|152:56,1,59.9999981689454
303,6,82350,2,0,B|224:14,1,59.9999981689454
199,142,82623,2,0,B|258:148,1,59.9999981689454
335,193,82896,1,0,0:0:0:0:
308,267,83032,1,0,0:0:0:0:
170,321,83169,6,0,L|255:326,1,59.9999981689454
76,222,83441,2,0,L|161:217,1,59.9999981689454
266,156,83714,2,0,P|242:123|186:99,1,89.9999972534181
165,98,83987,2,0,B|129:100|129:100|125:97|125:97|101:98,1,59.9999981689454
167,11,84260,2,0,B|207:29|337:4|337:4,1,150.000005722046
482,178,84669,2,0,B|459:221|255:152|255:152,1,225.000008583069
152,183,85214,1,0,0:0:0:0:
75,244,85350,6,0,B|56:217|56:217|83:47,1,200
248,154,85760,2,0,B|267:181|267:181|240:351,1,200
474,371,86169,2,0,P|456:322|460:263,1,100
477,30,86441,5,0,0:0:0:0:
476,65,86510,1,0,0:0:0:0:
475,99,86578,1,0,0:0:0:0:
276,248,86714,1,0,0:0:0:0:
169,63,86850,1,0,0:0:0:0:
396,106,86987,1,0,0:0:0:0:
240,361,87123,1,0,0:0:0:0:
177,153,87260,2,0,L|204:173,1,25
220,159,87328,2,0,L|240:183,1,25
271,165,87396,2,0,L|287:197,1,25
326,174,87464,2,0,L|328:207,1,25
365,181,87532,6,0,B|412:197|412:197|436:190|436:190|465:201|498:204,1,125
198,365,87805,1,0,0:0:0:0:
251,233,87941,1,0,0:0:0:0:
288,325,88078,1,0,0:0:0:0:
119,256,88214,1,0,0:0:0:0:
310,160,88350,2,0,P|246:137|192:156,1,110.000003356934
363,265,88623,6,0,P|427:288|481:269,1,110.000003356934
248,14,88896,1,0,0:0:0:0:
97,134,89032,2,0,L|209:146,1,110.000003356934
464,146,89305,1,0,0:0:0:0:
431,150,89373,1,0,0:0:0:0:
401,154,89441,1,0,0:0:0:0:
337,328,89578,1,0,0:0:0:0:
206,145,89714,6,0,L|210:261,1,110.000003356934
0,193,89987,1,0,0:0:0:0:
100,24,90123,2,0,L|96:140,1,110.000003356934
209,254,90396,1,0,0:0:0:0:
333,218,90532,2,0,L|337:334,1,110.000003356934
53,333,90805,6,0,P|114:315|166:337,1,110.000003356934
239,141,91078,1,0,0:0:0:0:
153,76,91214,2,0,P|128:138|225:257,1,220.000006713867
450,222,91623,1,0,0:0:0:0:
441,53,91760,1,0,0:0:0:0:
402,73,91828,1,0,0:0:0:0:
356,94,91896,6,0,B|320:89|306:69|301:62|297:34|240:25|183:24|141:91,1,220.000006713867
157,296,92305,1,0,0:0:0:0:
239,141,92441,2,0,B|284:208|284:208|287:242,1,110.000003356934
402,383,92714,2,0,P|382:324|396:269,1,110.000003356934
441,53,92987,5,0,0:0:0:0:
244,34,93123,1,0,0:0:0:0:
233,250,93260,2,0,L|239:136,1,110.000003356934
84,85,93532,1,0,0:0:0:0:
88,340,93669,1,0,0:0:0:0:
93,303,93737,1,0,0:0:0:0:
99,266,93805,2,0,B|109:209|109:209|169:178,1,110.000003356934
500,287,94078,6,0,L|382:277,1,110.000003356934
206,72,94350,1,0,0:0:0:0:
443,53,94487,2,0,L|325:63,1,110.000003356934
258,339,94760,1,0,0:0:0:0:
484,197,94896,2,0,L|366:187,1,110.000003356934
179,384,95169,6,0,L|185:262,1,110.000003356934
49,29,95441,1,0,0:0:0:0:
56,216,95578,2,0,P|103:157|250:150,1,220.000006713867
328,362,95987,1,0,0:0:0:0:
473,185,96123,2,0,L|407:176,1,55.0000016784668
267,158,96260,6,0,B|315:167|341:212|314:215|341:274|402:272,1,165.000005035401
420,268,96532,1,0,0:0:0:0:
364,67,96669,1,0,0:0:0:0:
158,349,96805,2,0,B|121:283|158:224|174:223|208:190|207:71|105:55,1,330.000010070801
330,238,97350,6,0,P|289:167|258:156,1,110.000003356934
91,152,97623,1,0,0:0:0:0:
222,47,97760,1,0,0:0:0:0:
236,238,97896,2,0,P|189:198|189:143,1,110.000003356934
196,127,98100,1,0,0:0:0:0:
210,83,98169,1,0,0:0:0:0:
436,114,98305,1,0,0:0:0:0:
338,344,98441,6,0,P|322:278|333:229,1,110.000003356934
91,152,98714,1,0,0:0:0:0:
48,340,98850,2,0,L|183:344,1,110.000003356934
319,86,99123,1,0,0:0:0:0:
439,234,99260,2,0,L|304:238,1,110.000003356934
91,152,99532,6,0,P|153:182|199:184,1,110.000003356934
442,76,99805,1,0,0:0:0:0:
266,10,99941,2,0,B|249:73|278:111|292:110|317:162|282:236,1,220.000006713867
40,293,100350,1,0,0:0:0:0:
193,184,100487,1,0,0:0:0:0:
173,232,100555,1,0,0:0:0:0:
180,280,100623,6,0,P|219:332|366:299,1,220.000006713867
266,10,101032,1,0,0:0:0:0:
116,155,101169,2,0,B|152:186|206:194|236:179|247:121|371:141|407:239,1,330.000010070801
288,281,101714,6,0,P|261:195|276:153,1,110.000003356934
451,107,101987,1,0,0:0:0:0:
404,231,102123,1,0,0:0:0:0:
321,78,102260,2,0,P|254:58|199:82,1,110.000003356934
187,100,102464,1,0,0:0:0:0:
169,137,102532,1,0,0:0:0:0:
152,257,102669,1,0,0:0:0:0:
404,231,102805,6,0,L|278:220,1,110.000003356934
1,200,103078,1,0,0:0:0:0:
217,69,103214,2,0,L|91:80,1,110.000003356934
290,343,103487,1,0,0:0:0:0:
404,231,103623,2,0,L|415:105,1,110.000003356934
217,69,103896,5,0,0:0:0:0:
217,101,103964,1,0,0:0:0:0:
217,133,104032,1,0,0:0:0:0:
219,349,104169,1,0,0:0:0:0:
325,217,104305,1,0,0:0:0:0:
122,213,104441,1,0,0:0:0:0:
285,283,104578,1,0,0:0:0:0:
217,131,104714,2,0,L|232:174,5,36.6666677856446
197,75,104987,5,0,0:0:0:0:
206,80,106078,6,0,B|227:46|328:62|328:62,1,100
177,319,106350,1,0,0:0:0:0:
43,195,106487,2,0,B|64:229|165:213|165:213,1,100
412,172,106760,1,0,0:0:0:0:
220,165,106896,2,0,L|276:167,5,33.3333333333333
414,307,107169,6,0,B|346:344|296:312|296:297|236:272|174:320,1,250
358,235,107578,1,0,0:0:0:0:
254,167,107714,2,0,P|297:114|295:42,1,125
106,224,107987,2,0,P|130:287|193:322,1,125
143,63,108260,5,0,0:0:0:0:
106,224,108396,1,0,0:0:0:0:
254,167,108532,1,0,0:0:0:0:
49,125,108669,1,0,0:0:0:0:
206,336,108805,5,0,0:0:0:0:
265,42,108941,1,0,0:0:0:0:
390,322,109078,1,0,0:0:0:0:
167,135,109214,1,0,0:0:0:0:
509,138,109350,6,0,P|441:106|390:118,1,125
390,322,109623,2,0,B|437:269|437:269|438:191,1,125
106,224,109896,2,0,B|170:187|224:217|222:247|281:277|342:219,1,250
160,295,110305,1,0,0:0:0:0:
265,42,110441,5,0,0:0:0:0:
437,214,110578,1,0,0:0:0:0:
274,172,110714,1,0,0:0:0:0:
496,12,110850,1,0,0:0:0:0:
437,214,110987,2,0,P|418:147|285:65,1,187.5
327,42,111260,2,0,L|255:42,3,62.5
177,45,111532,6,0,B|112:69|110:147|145:175|170:175|187:221|149:273,1,250
34,29,111941,1,0,0:0:0:0:
211,115,112078,2,0,P|146:144|73:132,1,125
304,333,112350,1,0,0:0:0:0:
296,41,112487,2,0,B|327:71|327:71|339:174,1,125
155,384,112760,5,0,0:0:0:0:
38,239,112896,2,0,P|101:268|156:263,1,125
460,192,113169,5,0,0:0:0:0:
124,145,113305,1,0,0:0:0:0:
427,60,113441,5,0,0:0:0:0:
242,272,113578,1,0,0:0:0:0:
268,69,113714,6,0,B|252:138|298:160|315:155|359:138|394:244|358:292,1,250
38,239,114123,1,0,0:0:0:0:
116,23,114260,2,0,P|107:91|124:146,1,125
367,273,114532,1,0,0:0:0:0:
466,115,114669,1,0,0:0:0:0:
268,69,114805,6,0,B|278:122|278:122|259:147|259:147|274:220,1,150.000005722046
123,144,115214,2,0,B|133:197|133:197|114:222|114:222|129:295,1,150.000005722046
208,324,115623,2,0,L|255:343,3,50
294,357,115896,6,0,P|377:357|415:197,1,250
123,144,116305,1,0,0:0:0:0:
10,321,116441,2,0,P|71:290|146:288,1,125
488,359,116714,1,0,0:0:0:0:
366,142,116850,2,0,P|330:195|341:260,1,125
492,145,117123,5,0,0:0:0:0:
233,26,117260,2,0,B|221:123|221:123|201:165,1,125
126,335,117532,1,0,0:0:0:0:
9,139,117669,2,0,B|99:100|99:100|145:97,1,125
464,93,117941,1,0,0:0:0:0:
338,304,118078,6,0,P|357:227|324:165,1,125
135,227,118350,1,0,0:0:0:0:
287,379,118487,1,0,0:0:0:0:
247,93,118623,2,0,P|170:107|100:86,1,125
426,5,118896,1,0,0:0:0:0:
436,184,119032,2,0,B|433:268|433:268|440:280|440:280|438:336,1,125
148,262,119305,5,0,0:0:0:0:
57,35,119441,2,0,P|127:24|201:42,1,125
101,351,119714,1,0,0:0:0:0:
0,142,119850,2,0,P|25:75|78:20,1,125
400,159,120123,1,0,0:0:0:0:
309,338,120260,5,0,0:0:0:0:
247,93,120396,1,0,0:0:0:0:
147,338,120532,1,0,0:0:0:0:
312,219,120669,1,0,0:0:0:0:
51,237,120805,2,0,P|112:198|175:197,1,125
452,312,121078,1,0,0:0:0:0:
309,338,121214,2,0,P|326:255|296:199,1,125
62,56,121487,1,0,0:0:0:0:
380,43,121623,2,0,L|239:33,1,125
171,363,121896,5,0,0:0:0:0:
158,63,122032,1,0,0:0:0:0:
325,323,122169,5,0,0:0:0:0:
40,148,122305,1,0,0:0:0:0:
324,136,122441,6,0,P|275:192|266:268,1,125
480,352,122714,1,0,0:0:0:0:
460,80,122850,1,0,0:0:0:0:
325,323,122987,2,0,B|362:314|362:314|364:295|364:295|432:278,1,125
148,127,123260,1,0,0:0:0:0:
162,333,123396,1,0,0:0:0:0:
257,27,123532,5,0,0:0:0:0:
238,384,123669,1,0,0:0:0:0:
283,369,123941,5,0,0:0:0:0:
302,12,124078,1,0,0:0:0:0:
349,0,124350,6,0,L|352:62,3,62.5
352,103,124623,6,0,P|353:168|340:207,1,75.0000028610231
298,239,124896,1,0,0:0:0:0:
224,194,125032,1,0,0:0:0:0:
223,278,125169,2,0,B|132:281,1,75.0000028610231
91,210,125441,1,0,0:0:0:0:
124,120,125578,1,0,0:0:0:0:
212,84,125714,5,0,0:0:0:0:
136,11,125850,1,0,0:0:0:0:
361,21,125987,2,0,L|269:11,1,75.0000028610231
304,116,126260,1,0,0:0:0:0:
404,109,126396,1,0,0:0:0:0:
404,109,126464,1,0,0:0:0:0:
404,109,126532,1,0,0:0:0:0:
367,199,126669,1,0,0:0:0:0:
281,257,126805,6,2,P|230:272|202:269,1,75.0000028610231
129,216,127078,1,0,0:0:0:0:
98,138,127214,1,0,0:0:0:0:
150,71,127350,1,0,0:0:0:0:
306,107,127487,1,0,0:0:0:0:
229,90,127623,2,0,L|240:8,1,75.0000028610231
336,27,127896,6,0,P|380:63|338:186,1,187.500007152558
391,186,128305,2,0,P|425:96|381:18,1,187.500007152558
489,15,128714,1,0,0:0:0:0:
512,113,128850,1,0,0:0:0:0:
512,113,128919,1,0,0:0:0:0:
512,113,128987,1,0,0:0:0:0:
488,217,129123,6,0,P|467:272|471:318,1,75.0000028610231
381,349,129396,1,0,0:0:0:0:
289,348,129532,1,0,0:0:0:0:
333,268,129669,1,0,0:0:0:0:
238,268,129805,1,0,0:0:0:0:
177,348,129941,1,0,0:0:0:0:
145,257,130078,6,0,P|159:213|202:182,1,75.0000028610231
331,127,130350,1,0,0:0:0:0:
238,125,130487,1,0,0:0:0:0:
146,121,130623,1,0,0:0:0:0:
194,37,130760,1,0,0:0:0:0:
194,37,130828,1,0,0:0:0:0:
194,37,130896,1,0,0:0:0:0:
289,41,131032,1,0,0:0:0:0:
331,127,131169,5,0,0:0:0:0:
333,268,131305,2,0,P|294:233|290:194,1,75.0000028610231
419,253,131578,1,0,0:0:0:0:
388,336,131714,1,0,0:0:0:0:
305,348,131850,1,0,0:0:0:0:
239,298,131987,1,0,0:0:0:0:
170,249,132123,1,0,0:0:0:0:
100,194,132260,6,0,P|79:247|161:339,1,187.500007152558
137,360,132669,2,0,P|75:328|56:276,1,112.500004291535
28,147,132941,2,0,L|23:195,1,37.5000014305115
112,81,133078,2,0,L|117:129,1,37.5000014305115
213,97,133214,1,0,0:0:0:0:
213,97,133282,1,0,0:0:0:0:
213,97,133350,6,0,P|218:157|216:188,1,75.0000028610231
249,269,133623,1,0,0:0:0:0:
308,195,133760,1,0,0:0:0:0:
339,284,133896,2,0,P|391:277|431:286,1,75.0000028610231
491,344,134169,1,0,0:0:0:0:
504,253,134305,1,0,0:0:0:0:
422,196,134441,5,0,0:0:0:0:
504,155,134578,1,0,0:0:0:0:
430,105,134714,1,0,0:0:0:0:
347,144,134850,1,0,0:0:0:0:
318,39,134987,1,0,0:0:0:0:
231,114,135123,1,0,0:0:0:0:
225,137,135191,1,0,0:0:0:0:
218,160,135260,1,0,0:0:0:0:
193,247,135396,1,0,0:0:0:0:
49,216,135532,6,0,P|96:191|142:192,1,75.0000028610231
38,305,135805,1,0,0:0:0:0:
117,278,135941,1,0,0:0:0:0:
193,247,136078,1,0,0:0:0:0:
186,332,136214,1,0,0:0:0:0:
105,363,136350,1,0,0:0:0:0:
117,278,136487,1,0,0:0:0:0:
116,188,136623,6,0,P|108:113|11:94,1,187.500007152558
14,58,137032,2,0,P|126:86|151:137,1,150.000005722046
293,63,137441,1,0,0:0:0:0:
210,44,137578,1,0,0:0:0:0:
231,125,137714,6,0,P|275:158|314:156,1,75.0000028610231
437,95,137987,1,0,0:0:0:0:
366,127,138123,1,0,0:0:0:0:
435,170,138260,1,0,0:0:0:0:
436,258,138396,1,0,0:0:0:0:
377,313,138532,1,0,0:0:0:0:
292,309,138669,1,0,0:0:0:0:
292,309,138737,1,0,0:0:0:0:
292,309,138805,6,0,L|279:232,1,75.0000028610231
106,212,139078,2,0,L|93:285,1,75.0000028610231
183,285,139350,1,0,0:0:0:0:
194,201,139487,1,0,0:0:0:0:
145,134,139623,1,0,0:0:0:0:
60,139,139760,1,0,0:0:0:0:
98,59,139896,6,0,L|185:49,1,75.0000028610231
327,98,140169,1,0,0:0:0:0:
243,129,140305,1,0,0:0:0:0:
421,50,140441,2,0,P|362:19|316:21,1,112.500004291535
249,29,140714,2,0,P|308:-2|354:0,1,112.500004291535
421,50,140987,1,0,0:0:0:0:
421,50,141396,5,0,0:0:0:0:
452,125,141532,1,0,0:0:0:0:
451,210,141669,1,0,0:0:0:0:
366,166,141805,1,0,0:0:0:0:
365,251,141942,1,0,0:0:0:0:
440,299,142078,5,0,0:0:0:0:
257,300,142214,1,0,0:0:0:0:
355,354,142350,1,0,0:0:0:0:
185,246,142487,2,0,L|177:393,1,112.500004291535
215,168,142760,2,0,L|219:267,1,75.0000028610231
55,151,143032,6,0,P|68:105|375:139,1,450
