osu file format v14

[General]
AudioFilename: audio.mp3
AudioLeadIn: 0
PreviewTime: 55712
Countdown: 0
SampleSet: Normal
StackLeniency: 0.7
Mode: 1
LetterboxInBreaks: 0
WidescreenStoryboard: 0

[Editor]
Bookmarks: 86212,307620,335855
DistanceSpacing: 0.8
BeatDivisor: 8
GridSize: 32
TimelineZoom: 3.499999

[Metadata]
Title:Redshift Galaxy
TitleUnicode:Redshift Galaxy
Artist:+TEK
ArtistUnicode:+TEK
Creator:Marm
Version:Collapse
Source:
Tags:HertzDevil Blueshift Metal marathon
BeatmapID:1135310
BeatmapSetID:536037

[Difficulty]
HPDrainRate:4
CircleSize:2
OverallDifficulty:7
ApproachRate:0
SliderMultiplier:1.4
SliderTickRate:1

[Events]
//Background and Video events
0,0,"redshiftbg.png",0,-75
//Break Periods
//Storyboard Layer 0 (Background)
//Storyboard Layer 1 (Fail)
//Storyboard Layer 2 (Pass)
//Storyboard Layer 3 (Foreground)
//Storyboard Sound Samples

[TimingPoints]
213,235.294117647059,6,1,0,100,1,0
213,-111.111111111111,6,1,0,100,0,0
1193,-109.89010989011,6,1,0,100,0,0
1271,-107.52688172043,6,1,0,100,0,0
1350,-105.263157894737,6,1,0,100,0,0
1428,-103.092783505155,6,1,0,100,0,0
1507,-102.040816326531,6,1,0,100,0,0
1584,-100,6,1,0,100,0,0
1624,-100,6,1,0,100,0,1
24212,235.294117647059,4,1,0,100,1,0
24388,-98.0392156862745,4,1,0,100,0,0
24506,-96.1538461538461,4,1,0,100,0,0
24623,-94.3396226415094,4,1,0,100,0,0
24741,-92.5925925925926,4,1,0,100,0,0
24859,-90.9090909090909,4,1,0,100,0,0
24976,-89.2857142857143,4,1,0,100,0,0
25094,-86.9565217391304,4,1,0,100,0,0
25329,-98.0392156862745,4,1,0,100,0,0
25447,-96.1538461538461,4,1,0,100,0,0
25564,-94.3396226415094,4,1,0,100,0,0
25682,-92.5925925925926,4,1,0,100,0,0
25800,-90.9090909090909,4,1,0,100,0,0
25917,-89.2857142857143,4,1,0,100,0,0
26035,-86.9565217391304,4,1,0,100,0,0
26270,-98.0392156862745,4,1,0,100,0,0
26388,-96.1538461538461,4,1,0,100,0,0
26506,-94.3396226415094,4,1,0,100,0,0
26623,-92.5925925925926,4,1,0,100,0,0
26741,-90.9090909090909,4,1,0,100,0,0
26859,-89.2857142857143,4,1,0,100,0,0
26976,-86.9565217391304,4,1,0,100,0,0
27212,-98.0392156862745,4,1,0,100,0,0
27329,-96.1538461538461,4,1,0,100,0,0
27447,-94.3396226415094,4,1,0,100,0,0
27564,-92.5925925925926,4,1,0,100,0,0
27682,-90.9090909090909,4,1,0,100,0,0
27800,-89.2857142857143,4,1,0,100,0,0
27917,-86.9565217391304,4,1,0,100,0,0
28153,-98.0392156862745,4,1,0,100,0,0
28270,-96.1538461538461,4,1,0,100,0,0
28388,-94.3396226415094,4,1,0,100,0,0
28506,-92.5925925925926,4,1,0,100,0,0
28623,-90.9090909090909,4,1,0,100,0,0
28741,-89.2857142857143,4,1,0,100,0,0
28859,-86.9565217391304,4,1,0,100,0,0
29094,-98.0392156862745,4,1,0,100,0,0
29212,-96.1538461538461,4,1,0,100,0,0
29329,-94.3396226415094,4,1,0,100,0,0
29447,-92.5925925925926,4,1,0,100,0,0
29564,-90.9090909090909,4,1,0,100,0,0
29682,-89.2857142857143,4,1,0,100,0,0
29800,-86.9565217391304,4,1,0,100,0,0
30035,-111.111111111111,4,1,0,100,0,0
30270,-109.89010989011,4,1,0,100,0,0
30368,-107.52688172043,4,1,0,100,0,0
30447,-106.382978723404,4,1,0,100,0,0
30525,-104.166666666667,4,1,0,100,0,0
30604,-103.092783505155,4,1,0,100,0,0
30682,-101.010101010101,4,1,0,100,0,0
30761,-100,4,1,0,100,0,0
52682,-111.111111111111,4,1,0,100,0,0
54329,235.294117647059,6,1,0,100,1,0
54329,-111.111111111111,6,1,0,100,0,0
55309,-109.89010989011,6,1,0,100,0,0
55387,-107.52688172043,6,1,0,100,0,0
55466,-105.263157894737,6,1,0,100,0,0
55544,-103.092783505155,6,1,0,100,0,0
55623,-102.040816326531,6,1,0,100,0,0
55700,-100,6,1,0,100,0,0
55740,235.294117647059,6,1,0,100,1,0
55740,-100,6,1,0,100,0,1
78328,235.294117647059,6,1,0,100,1,8
78330,235.294117647059,4,1,0,100,1,0
78506,-98.0392156862745,4,1,0,100,0,0
78624,-96.1538461538461,4,1,0,100,0,0
78741,-94.3396226415094,4,1,0,100,0,0
78859,-92.5925925925926,4,1,0,100,0,0
78977,-90.9090909090909,4,1,0,100,0,0
79094,-89.2857142857143,4,1,0,100,0,0
79212,-86.9565217391304,4,1,0,100,0,0
79447,-98.0392156862745,4,1,0,100,0,0
79565,-96.1538461538461,4,1,0,100,0,0
79682,-94.3396226415094,4,1,0,100,0,0
79800,-92.5925925925926,4,1,0,100,0,0
79918,-90.9090909090909,4,1,0,100,0,0
80035,-89.2857142857143,4,1,0,100,0,0
80153,-86.9565217391304,4,1,0,100,0,0
80388,-98.0392156862745,4,1,0,100,0,0
80506,-96.1538461538461,4,1,0,100,0,0
80624,-94.3396226415094,4,1,0,100,0,0
80741,-92.5925925925926,4,1,0,100,0,0
80859,-90.9090909090909,4,1,0,100,0,0
80977,-89.2857142857143,4,1,0,100,0,0
81094,-86.9565217391304,4,1,0,100,0,0
81330,-98.0392156862745,4,1,0,100,0,0
81447,-96.1538461538461,4,1,0,100,0,0
81565,-94.3396226415094,4,1,0,100,0,0
81682,-92.5925925925926,4,1,0,100,0,0
81800,-90.9090909090909,4,1,0,100,0,0
81918,-89.2857142857143,4,1,0,100,0,0
82035,-86.9565217391304,4,1,0,100,0,0
82271,-98.0392156862745,4,1,0,100,0,0
82388,-96.1538461538461,4,1,0,100,0,0
82506,-94.3396226415094,4,1,0,100,0,0
82624,-92.5925925925926,4,1,0,100,0,0
82741,-90.9090909090909,4,1,0,100,0,0
82859,-89.2857142857143,4,1,0,100,0,0
82977,-86.9565217391304,4,1,0,100,0,0
83212,-98.0392156862745,4,1,0,100,0,0
83330,-96.1538461538461,4,1,0,100,0,0
83447,-94.3396226415094,4,1,0,100,0,0
83565,-92.5925925925926,4,1,0,100,0,0
83682,-90.9090909090909,4,1,0,100,0,0
83800,-89.2857142857143,4,1,0,100,0,0
83918,-86.9565217391304,4,1,0,100,0,0
84153,-98.0392156862745,4,1,0,100,0,0
84271,-96.1538461538461,4,1,0,100,0,0
84388,-94.3396226415094,4,1,0,100,0,0
84506,-92.5925925925926,4,1,0,100,0,0
84624,-90.9090909090909,4,1,0,100,0,0
84741,-89.2857142857143,4,1,0,100,0,0
84859,-86.9565217391304,4,1,0,100,0,0
85094,-98.0392156862745,4,1,0,100,0,0
85212,-96.1538461538461,4,1,0,100,0,0
85330,-94.3396226415094,4,1,0,100,0,0
85447,-92.5925925925926,4,1,0,100,0,0
85565,-90.9090909090909,4,1,0,100,0,0
85682,-89.2857142857143,4,1,0,100,0,0
85800,-86.9565217391304,4,1,0,100,0,0
85977,-111.111111111111,4,1,0,100,0,0
86330,235.294117647059,6,1,0,100,1,0
86330,-109.89010989011,6,1,0,100,0,0
86369,-108.695652173913,6,1,0,100,0,0
86447,-107.52688172043,6,1,0,100,0,0
86526,-106.382978723404,6,1,0,100,0,0
86604,-105.263157894737,6,1,0,100,0,0
86682,-104.166666666667,6,1,0,100,0,0
86761,-103.092783505155,6,1,0,100,0,0
86839,-102.040816326531,6,1,0,100,0,0
86918,-101.010101010101,6,1,0,100,0,0
86996,-100,6,1,0,100,0,0
87741,235.294117647059,4,1,0,100,1,0
97388,-125,4,1,0,100,0,0
98741,-100,4,1,0,100,0,0
98858,-125,4,1,0,100,0,0
100623,-100,4,1,0,100,0,0
100741,-125,4,1,0,100,0,0
102505,-100,4,1,0,100,0,0
102623,-125,4,1,0,100,0,0
103035,-117.647058823529,4,1,0,100,0,0
103505,-111.111111111111,4,1,0,100,0,0
103976,-105.263157894737,4,1,0,100,0,0
104329,-100,4,1,0,100,0,0
121623,235.294117647059,6,1,0,100,1,0
122858,-99.009900990099,6,1,0,100,0,0
123034,235.294117647059,5,1,0,100,1,0
123034,-98.0392156862745,5,1,0,100,0,0
124034,-97.0873786407767,5,1,0,100,0,0
124151,-96.1538461538461,5,1,0,100,0,0
125210,-95.2380952380952,5,1,0,100,0,0
125386,235.294117647059,4,1,0,100,1,8
125387,235.294117647059,4,1,0,100,1,0
125387,-94.3396226415094,4,1,0,100,0,0
126328,235.294117647059,3,1,0,100,1,0
126328,-93.4579439252336,3,1,0,100,0,0
126886,-92.5925925925926,3,1,0,100,0,0
127033,235.294117647059,5,1,0,100,1,0
127033,-91.743119266055,5,1,0,100,0,0
128209,235.294117647059,4,1,0,100,1,0
128209,-91.743119266055,4,1,0,100,0,0
129150,235.294117647059,3,1,0,100,1,0
129150,-90.9090909090909,3,1,0,100,0,0
129855,235.294117647059,4,1,0,100,1,0
129855,-90.9090909090909,4,1,0,100,0,0
131472,-92.5925925925926,4,1,0,100,0,0
131531,-94.3396226415094,4,1,0,100,0,0
131590,-96.1538461538461,4,1,0,100,0,0
131649,-98.0392156862745,4,1,0,100,0,0
131737,235.294117647059,7,1,0,100,1,8
131738,235.294117647059,7,1,0,100,1,0
131738,-100,7,1,0,100,0,0
131826,-105.263157894737,7,1,0,100,0,0
132090,-111.111111111111,7,1,0,100,0,0
135033,235.294117647059,4,1,0,100,1,0
135033,-111.111111111111,4,1,0,100,0,0
136916,235.294117647059,6,1,0,100,1,0
136916,-111.111111111111,6,1,0,100,0,0
137651,-109.89010989011,6,1,0,100,0,0
137710,-108.695652173913,6,1,0,100,0,0
137827,-107.52688172043,6,1,0,100,0,0
137886,-106.382978723404,6,1,0,100,0,0
137945,-105.263157894737,6,1,0,100,0,0
138063,-103.092783505155,6,1,0,100,0,0
138121,-102.040816326531,6,1,0,100,0,0
138180,-101.010101010101,6,1,0,100,0,0
138268,-100,6,1,0,100,0,0
149622,235.294117647059,3,1,0,80,1,0
149680,-101.010101010101,3,1,0,80,0,0
149798,-102.040816326531,3,1,0,80,0,0
149916,-103.092783505155,3,1,0,80,0,0
150033,-104.166666666667,3,1,0,80,0,0
150151,-105.263157894737,3,1,0,80,0,0
150269,-106.382978723404,3,1,0,80,0,0
150386,-107.52688172043,3,1,0,80,0,0
150504,-108.695652173913,3,1,0,80,0,0
150622,-109.89010989011,3,1,0,80,0,0
150739,-111.111111111111,3,1,0,80,0,0
154974,-109.89010989011,3,1,0,80,0,0
155092,-108.695652173913,3,1,0,80,0,0
155210,-107.52688172043,3,1,0,80,0,0
157798,-106.382978723404,3,1,0,80,0,0
157916,-105.263157894737,3,1,0,80,0,0
158033,-104.166666666667,3,1,0,80,0,0
160504,-103.092783505155,3,1,0,80,0,0
160622,-102.040816326531,3,1,0,80,0,0
160739,-101.010101010101,3,1,0,80,0,0
160857,-99.9999999999999,3,1,0,80,0,0
173622,235.294117647059,4,1,0,100,1,0
173623,235.294117647059,4,1,0,100,1,8
174564,235.294117647059,4,1,0,100,1,8
174681,235.294117647059,4,1,0,100,1,0
175386,235.294117647059,5,1,0,100,1,0
176563,235.294117647059,4,1,0,100,1,0
179151,235.294117647059,4,1,0,100,1,8
179270,235.294117647059,3,1,0,100,1,0
180681,235.294117647059,4,1,0,100,1,0
181622,235.294117647059,4,1,0,100,1,8
181739,235.294117647059,5,1,0,100,1,0
182798,235.294117647059,4,1,0,100,1,0
198768,235.294117647059,4,1,0,100,1,8
198798,352.941176470588,2,1,0,100,1,0
198798,-76.9230769230769,4,1,0,100,0,0
201356,-76.3358778625954,4,1,0,100,0,0
201474,-75.187969924812,4,1,0,100,0,0
201562,-74.0740740740741,4,1,0,100,0,0
202180,-73.5294117647059,4,1,0,100,0,0
202298,-72.992700729927,4,1,0,100,0,0
202768,-72.463768115942,4,1,0,100,0,0
202886,-71.9424460431655,4,1,0,100,0,0
203003,-71.4285714285714,4,1,0,100,0,0
203886,-70.9219858156028,4,1,0,100,0,0
203945,-70.4225352112676,4,1,0,100,0,0
204003,-69.9300699300699,4,1,0,100,0,0
204062,-69.4444444444444,4,1,0,100,0,0
204121,-68.9655172413793,4,1,0,100,0,0
204180,-68.4931506849315,4,1,0,100,0,0
204239,-68.0272108843537,4,1,0,100,0,0
204298,-67.5675675675676,4,1,0,100,0,0
204356,-67.1140939597315,4,1,0,100,0,0
204415,-66.6666666666667,4,1,0,100,0,0
206717,235.294117647059,3,1,0,100,1,8
207268,352.941176470588,2,1,0,100,1,0
207268,-66.6666666666667,4,1,0,100,0,0
214327,235.294117647059,6,1,0,100,1,0
219974,235.294117647059,3,1,0,100,1,0
229858,235.294117647059,4,1,0,100,1,0
230799,235.294117647059,3,1,0,100,1,0
232915,235.294117647059,5,1,0,100,1,0
233973,235.294117647059,4,1,0,100,1,0
234443,235.294117647059,4,1,0,100,1,0
249501,235.294117647059,3,1,0,100,1,0
249736,-111.111111111111,3,1,0,100,0,0
251266,235.294117647059,6,1,0,100,1,8
251266,-111.111111111111,6,1,0,100,0,8
252677,235.294117647059,4,1,0,100,1,8
252679,235.294117647059,4,1,0,100,1,0
252679,-111.111111111111,4,1,0,100,0,0
256443,235.294117647059,4,1,0,100,1,8
256443,-111.111111111111,4,1,0,100,0,8
256482,-109.89010989011,4,1,0,100,0,0
256561,-107.52688172043,4,1,0,100,0,0
256639,-105.263157894737,4,1,0,100,0,0
256718,-103.092783505155,4,1,0,100,0,0
256796,-102.040816326531,4,1,0,100,0,0
256914,235.294117647059,6,1,0,100,1,0
256914,-100,6,1,0,100,0,1
279502,-100,6,1,0,100,0,0
290796,235.294117647059,4,1,0,100,1,0
290972,-98.0392156862745,4,1,0,100,0,0
291090,-96.1538461538461,4,1,0,100,0,0
291207,-94.3396226415094,4,1,0,100,0,0
291325,-92.5925925925926,4,1,0,100,0,0
291443,-90.9090909090909,4,1,0,100,0,0
291560,-89.2857142857143,4,1,0,100,0,0
291678,-86.9565217391304,4,1,0,100,0,0
291913,-98.0392156862745,4,1,0,100,0,0
292031,-96.1538461538461,4,1,0,100,0,0
292148,-94.3396226415094,4,1,0,100,0,0
292266,-92.5925925925926,4,1,0,100,0,0
292384,-90.9090909090909,4,1,0,100,0,0
292501,-89.2857142857143,4,1,0,100,0,0
292619,-86.9565217391304,4,1,0,100,0,0
292854,-98.0392156862745,4,1,0,100,0,0
292972,-96.1538461538461,4,1,0,100,0,0
293090,-94.3396226415094,4,1,0,100,0,0
293207,-92.5925925925926,4,1,0,100,0,0
293325,-90.9090909090909,4,1,0,100,0,0
293443,-89.2857142857143,4,1,0,100,0,0
293560,-86.9565217391304,4,1,0,100,0,0
293796,-98.0392156862745,4,1,0,100,0,0
293913,-96.1538461538461,4,1,0,100,0,0
294031,-94.3396226415094,4,1,0,100,0,0
294148,-92.5925925925926,4,1,0,100,0,0
294266,-90.9090909090909,4,1,0,100,0,0
294384,-89.2857142857143,4,1,0,100,0,0
294501,-86.9565217391304,4,1,0,100,0,0
294737,-98.0392156862745,4,1,0,100,0,0
294854,-96.1538461538461,4,1,0,100,0,0
294972,-94.3396226415094,4,1,0,100,0,0
295090,-92.5925925925926,4,1,0,100,0,0
295207,-90.9090909090909,4,1,0,100,0,0
295325,-89.2857142857143,4,1,0,100,0,0
295443,-86.9565217391304,4,1,0,100,0,0
295678,-98.0392156862745,4,1,0,100,0,0
295796,-96.1538461538461,4,1,0,100,0,0
295913,-94.3396226415094,4,1,0,100,0,0
296031,-92.5925925925926,4,1,0,100,0,0
296148,-90.9090909090909,4,1,0,100,0,0
296266,-89.2857142857143,4,1,0,100,0,0
296384,-86.9565217391304,4,1,0,100,0,0
296619,-98.0392156862745,4,1,0,100,0,0
296737,-96.1538461538461,4,1,0,100,0,0
296854,-94.3396226415094,4,1,0,100,0,0
296972,-92.5925925925926,4,1,0,100,0,0
297090,-90.9090909090909,4,1,0,100,0,0
297207,-89.2857142857143,4,1,0,100,0,0
297325,-86.9565217391304,4,1,0,100,0,0
297560,-98.0392156862745,4,1,0,100,0,0
297678,-96.1538461538461,4,1,0,100,0,0
297796,-94.3396226415094,4,1,0,100,0,0
297913,-92.5925925925926,4,1,0,100,0,0
298031,-90.9090909090909,4,1,0,100,0,0
298148,-89.2857142857143,4,1,0,100,0,0
298266,-86.9565217391304,4,1,0,100,0,0
298443,-111.111111111111,4,1,0,100,0,0
298756,-109.89010989011,4,1,0,100,0,0
298835,-108.695652173913,4,1,0,100,0,0
298913,-107.52688172043,4,1,0,100,0,0
298992,-106.382978723404,4,1,0,100,0,0
299070,-105.263157894737,4,1,0,100,0,0
299148,-104.166666666667,4,1,0,100,0,0
299227,-103.092783505155,4,1,0,100,0,0
299305,-102.040816326531,4,1,0,100,0,0
299384,-101.010101010101,4,1,0,100,0,0
299462,-100,4,1,0,100,0,0
313384,235.294117647059,3,1,0,100,1,0
315148,235.294117647059,3,1,0,100,1,8
316559,235.294117647059,3,1,0,100,1,8
316912,235.294117647059,4,1,0,100,1,0
347029,235.294117647059,3,1,0,100,1,0
347029,-71.4285714285714,3,1,0,100,0,0
349734,-100,3,1,0,100,0,0
350558,235.294117647059,4,1,0,100,1,0
352440,235.294117647059,3,1,0,100,1,0
353145,235.294117647059,4,1,0,100,1,0
355968,235.294117647059,7,1,0,100,1,0
356085,-125,7,1,0,100,0,0
365585,-121.951219512195,7,1,0,100,0,0
365673,-117.647058823529,7,1,0,100,0,0
365850,235.294117647059,6,1,0,100,1,0
365850,-117.647058823529,6,1,0,100,0,0
366997,-114.942528735632,6,1,0,100,0,0
367114,-111.111111111111,6,1,0,100,0,0
367261,235.294117647059,7,1,0,100,1,0
367261,-111.111111111111,7,1,0,100,0,0
368408,-109.89010989011,7,1,0,100,0,0
368466,-108.695652173913,7,1,0,100,0,0
368525,-107.52688172043,7,1,0,100,0,0
368643,-104.166666666667,7,1,0,100,0,0
368702,-103.092783505155,7,1,0,100,0,0
368761,-102.040816326531,7,1,0,100,0,0
368908,235.294117647059,6,1,0,100,1,0
368908,-100,6,1,0,100,0,0
374555,235.294117647059,4,1,0,100,1,0
382084,235.294117647059,6,1,0,90,1,0

[HitObjects]
256,192,213,5,8,0:0:0:0:
256,192,330,1,8,0:0:0:0:
256,192,448,1,0,0:0:0:0:
256,192,566,1,0,0:0:0:0:
256,192,683,1,8,0:0:0:0:
256,192,801,1,8,0:0:0:0:
256,192,919,1,0,0:0:0:0:
256,192,1036,1,0,0:0:0:0:
256,192,1154,1,8,0:0:0:0:
256,192,1232,1,8,0:0:0:0:
256,192,1311,1,8,0:0:0:0:
256,192,1389,1,0,0:0:0:0:
256,192,1468,1,0,0:0:0:0:
256,192,1546,1,0,0:0:0:0:
256,192,1625,1,12,0:0:0:0:
256,192,1860,1,8,0:0:0:0:
256,192,1976,1,0,0:0:0:0:
256,192,2095,1,0,0:0:0:0:
256,192,2330,1,8,0:0:0:0:
256,192,2566,1,0,0:0:0:0:
256,192,2683,1,0,0:0:0:0:
256,192,2801,1,8,0:0:0:0:
256,192,3036,1,8,0:0:0:0:
256,192,3272,1,8,0:0:0:0:
256,192,3389,1,8,0:0:0:0:
256,192,3507,1,0,0:0:0:0:
256,192,3742,1,8,0:0:0:0:
256,192,3977,1,0,0:0:0:0:
256,192,4095,1,0,0:0:0:0:
256,192,4213,1,8,0:0:0:0:
256,192,4448,1,8,0:0:0:0:
256,192,4683,1,8,0:0:0:0:
256,192,4801,1,0,0:0:0:0:
256,192,5035,1,0,0:0:0:0:
256,192,5154,1,8,0:0:0:0:
256,192,5389,1,0,0:0:0:0:
256,192,5507,1,0,0:0:0:0:
256,192,5625,1,8,0:0:0:0:
256,192,5860,1,8,0:0:0:0:
256,192,6095,1,8,0:0:0:0:
256,192,6213,1,0,0:0:0:0:
256,192,6566,1,8,0:0:0:0:
256,192,6801,1,0,0:0:0:0:
256,192,7036,1,8,0:0:0:0:
256,192,7154,1,8,0:0:0:0:
256,192,7272,1,4,0:0:0:0:
256,192,7507,1,0,0:0:0:0:
256,192,7625,1,8,0:0:0:0:
256,192,7859,1,8,0:0:0:0:
256,192,7977,1,0,0:0:0:0:
256,192,8213,1,0,0:0:0:0:
256,192,8330,1,0,0:0:0:0:
256,192,8448,1,8,0:0:0:0:
256,192,8683,1,8,0:0:0:0:
256,192,8919,1,0,0:0:0:0:
256,192,9154,1,8,0:0:0:0:
256,192,9389,1,0,0:0:0:0:
256,192,9625,1,8,0:0:0:0:
256,192,9860,1,0,0:0:0:0:
256,192,9977,1,8,0:0:0:0:
256,192,10330,1,0,0:0:0:0:
256,192,10566,1,8,0:0:0:0:
256,192,10801,1,0,0:0:0:0:
256,192,11036,1,8,0:0:0:0:
256,192,11272,1,0,0:0:0:0:
256,192,11330,1,0,0:0:0:0:
256,192,11389,1,0,0:0:0:0:
256,192,11448,1,0,0:0:0:0:
256,192,11507,1,8,0:0:0:0:
256,192,11625,1,8,0:0:0:0:
256,192,11742,1,0,0:0:0:0:
256,192,11860,1,0,0:0:0:0:
256,192,11977,1,8,0:0:0:0:
256,192,12095,1,8,0:0:0:0:
256,192,12213,1,0,0:0:0:0:
256,192,12330,1,0,0:0:0:0:
256,192,12448,1,8,0:0:0:0:
256,192,12526,1,8,0:0:0:0:
256,192,12605,1,8,0:0:0:0:
256,192,12683,1,0,0:0:0:0:
256,192,12762,1,0,0:0:0:0:
256,192,12840,1,0,0:0:0:0:
256,192,12919,1,12,0:0:0:0:
256,192,13154,1,0,0:0:0:0:
256,192,13389,1,8,0:0:0:0:
256,192,13625,1,0,0:0:0:0:
256,192,13860,1,8,0:0:0:0:
256,192,14095,1,0,0:0:0:0:
256,192,14213,1,8,0:0:0:0:
256,192,14447,1,8,0:0:0:0:
256,192,14566,1,0,0:0:0:0:
256,192,14801,1,8,0:0:0:0:
256,192,15036,1,0,0:0:0:0:
256,192,15272,1,8,0:0:0:0:
256,192,15507,1,0,0:0:0:0:
256,192,15625,1,8,0:0:0:0:
256,192,15977,1,0,0:0:0:0:
256,192,16213,1,8,0:0:0:0:
256,192,16448,1,0,0:0:0:0:
256,192,16683,1,8,0:0:0:0:
256,192,16919,1,0,0:0:0:0:
256,192,17036,1,0,0:0:0:0:
256,192,17154,1,8,0:0:0:0:
256,192,17272,1,8,0:0:0:0:
256,192,17389,1,0,0:0:0:0:
256,192,17507,1,8,0:0:0:0:
256,192,17625,1,0,0:0:0:0:
256,192,17742,1,8,0:0:0:0:
256,192,17860,1,8,0:0:0:0:
256,192,17977,1,0,0:0:0:0:
256,192,18095,1,8,0:0:0:0:
256,192,18154,1,8,0:0:0:0:
256,192,18213,1,0,0:0:0:0:
256,192,18271,1,0,0:0:0:0:
256,192,18330,1,8,0:0:0:0:
256,192,18448,1,0,0:0:0:0:
256,192,18507,1,0,0:0:0:0:
256,192,18566,1,8,0:0:0:0:
256,192,18801,1,0,0:0:0:0:
256,192,19036,1,8,0:0:0:0:
256,192,19272,1,0,0:0:0:0:
256,192,19507,1,8,0:0:0:0:
256,192,19742,1,0,0:0:0:0:
256,192,19860,1,8,0:0:0:0:
256,192,20094,1,8,0:0:0:0:
256,192,20213,1,0,0:0:0:0:
256,192,20448,1,8,0:0:0:0:
256,192,20683,1,0,0:0:0:0:
256,192,20919,1,8,0:0:0:0:
256,192,21154,1,0,0:0:0:0:
256,192,21272,1,8,0:0:0:0:
256,192,21625,1,0,0:0:0:0:
256,192,21860,1,8,0:0:0:0:
256,192,22095,1,0,0:0:0:0:
256,192,22330,1,8,0:0:0:0:
256,192,22448,1,8,0:0:0:0:
256,192,22566,1,0,0:0:0:0:
256,192,22624,1,0,0:0:0:0:
256,192,22683,1,0,0:0:0:0:
256,192,22801,1,8,0:0:0:0:
256,192,22860,1,0,0:0:0:0:
256,192,22919,1,0,0:0:0:0:
256,192,23036,1,8,0:0:0:0:
256,192,23154,1,0,0:0:0:0:
256,192,23272,1,8,0:0:0:0:
256,192,23389,1,0,0:0:0:0:
256,192,23448,1,0,0:0:0:0:
256,192,23507,1,8,0:0:0:0:
256,192,23625,1,8,0:0:0:0:
256,192,23683,1,8,0:0:0:0:
256,192,23742,1,0,0:0:0:0:
256,192,23860,1,0,0:0:0:0:
256,192,23977,1,8,0:0:0:0:
256,192,24036,1,8,0:0:0:0:
256,192,24095,1,8,0:0:0:0:
256,192,24213,1,12,0:0:0:0:
256,192,24447,1,8,0:0:0:0:
256,192,24564,1,8,0:0:0:0:
256,192,24682,1,0,0:0:0:0:
256,192,24799,1,8,0:0:0:0:
256,192,24917,1,8,0:0:0:0:
256,192,25035,1,8,0:0:0:0:
256,192,25153,1,4,0:0:0:0:
256,192,25388,1,0,0:0:0:0:
256,192,25506,1,0,0:0:0:0:
256,192,25623,1,8,0:0:0:0:
256,192,25741,1,0,0:0:0:0:
256,192,25859,1,0,0:0:0:0:
256,192,25976,1,0,0:0:0:0:
256,192,26094,1,12,0:0:0:0:
256,192,26329,1,8,0:0:0:0:
256,192,26447,1,0,0:0:0:0:
256,192,26564,1,8,0:0:0:0:
256,192,26682,1,0,0:0:0:0:
256,192,26800,1,0,0:0:0:0:
256,192,26917,1,8,0:0:0:0:
256,192,27035,1,4,0:0:0:0:
256,192,27270,1,0,0:0:0:0:
256,192,27388,1,8,0:0:0:0:
256,192,27506,1,0,0:0:0:0:
256,192,27623,1,8,0:0:0:0:
256,192,27741,1,8,0:0:0:0:
256,192,27859,1,0,0:0:0:0:
256,192,27976,1,12,0:0:0:0:
256,192,28212,1,8,0:0:0:0:
256,192,28329,1,8,0:0:0:0:
256,192,28447,1,0,0:0:0:0:
256,192,28563,1,8,0:0:0:0:
256,192,28682,1,0,0:0:0:0:
256,192,28800,1,8,0:0:0:0:
256,192,28916,1,4,0:0:0:0:
256,192,29153,1,0,0:0:0:0:
256,192,29270,1,0,0:0:0:0:
256,192,29388,1,8,0:0:0:0:
256,192,29506,1,0,0:0:0:0:
256,192,29622,1,8,0:0:0:0:
256,192,29741,1,0,0:0:0:0:
256,192,29859,1,12,0:0:0:0:
256,192,30095,1,8,0:0:0:0:
256,192,30213,1,0,0:0:0:0:
256,192,30330,1,8,0:0:0:0:
256,192,30409,1,8,0:0:0:0:
256,192,30487,1,8,0:0:0:0:
256,192,30564,1,0,0:0:0:0:
256,192,30644,1,0,0:0:0:0:
256,192,30721,1,0,0:0:0:0:
256,192,30800,1,8,0:0:0:0:
256,192,30918,1,0,0:0:0:0:
256,192,31036,1,8,0:0:0:0:
256,192,31095,1,8,0:0:0:0:
256,192,31154,1,0,0:0:0:0:
256,192,31271,1,0,0:0:0:0:
256,192,31389,1,8,0:0:0:0:
256,192,31507,1,8,0:0:0:0:
256,192,31624,1,0,0:0:0:0:
256,192,31742,1,8,0:0:0:0:
256,192,31801,1,8,0:0:0:0:
256,192,31860,1,0,0:0:0:0:
256,192,31977,1,8,0:0:0:0:
256,192,32095,1,8,0:0:0:0:
256,192,32154,1,8,0:0:0:0:
256,192,32213,1,0,0:0:0:0:
256,192,32271,1,0,0:0:0:0:
256,192,32330,1,8,0:0:0:0:
256,192,32389,1,0,0:0:0:0:
256,192,32448,1,8,0:0:0:0:
256,192,32507,1,8,0:0:0:0:
256,192,32565,1,0,0:0:0:0:
256,192,32624,1,0,0:0:0:0:
256,192,32683,1,8,0:0:0:0:
256,192,32801,1,8,0:0:0:0:
256,192,32918,1,8,0:0:0:0:
256,192,33036,1,0,0:0:0:0:
256,192,33154,1,8,0:0:0:0:
256,192,33212,1,8,0:0:0:0:
256,192,33271,1,0,0:0:0:0:
256,192,33330,1,0,0:0:0:0:
256,192,33389,1,8,0:0:0:0:
256,192,33507,1,0,0:0:0:0:
256,192,33565,1,0,0:0:0:0:
256,192,33624,1,8,0:0:0:0:
256,192,33741,1,0,0:0:0:0:
256,192,33860,1,8,0:0:0:0:
256,192,33977,1,8,0:0:0:0:
256,192,34035,1,8,0:0:0:0:
256,192,34095,1,0,0:0:0:0:
256,192,34213,1,8,0:0:0:0:
256,192,34330,1,0,0:0:0:0:
256,192,34448,1,0,0:0:0:0:
256,192,34506,1,0,0:0:0:0:
256,192,34564,1,8,0:0:0:0:
256,192,34682,1,8,0:0:0:0:
256,192,34800,1,0,0:0:0:0:
256,192,34859,1,0,0:0:0:0:
256,192,34918,1,8,0:0:0:0:
256,192,35035,1,8,0:0:0:0:
256,192,35153,1,0,0:0:0:0:
256,192,35212,1,0,0:0:0:0:
256,192,35271,1,8,0:0:0:0:
256,192,35506,1,0,0:0:0:0:
256,192,35624,1,8,0:0:0:0:
256,192,35741,1,0,0:0:0:0:
256,192,35859,1,8,0:0:0:0:
256,192,35976,1,0,0:0:0:0:
256,192,36094,1,8,0:0:0:0:
256,192,36212,1,0,0:0:0:0:
256,192,36270,1,0,0:0:0:0:
256,192,36329,1,8,0:0:0:0:
256,192,36447,1,8,0:0:0:0:
256,192,36564,1,0,0:0:0:0:
256,192,36682,1,0,0:0:0:0:
256,192,36741,1,0,0:0:0:0:
256,192,36800,1,8,0:0:0:0:
256,192,36917,1,0,0:0:0:0:
256,192,36976,1,0,0:0:0:0:
256,192,37035,1,8,0:0:0:0:
256,192,37094,1,8,0:0:0:0:
256,192,37153,1,0,0:0:0:0:
256,192,37388,1,0,0:0:0:0:
256,192,37506,1,8,0:0:0:0:
256,192,37624,1,0,0:0:0:0:
256,192,37741,1,8,0:0:0:0:
256,192,37859,1,0,0:0:0:0:
256,192,37976,1,8,0:0:0:0:
256,192,38094,1,0,0:0:0:0:
256,192,38153,1,0,0:0:0:0:
256,192,38212,1,0,0:0:0:0:
256,192,38329,1,8,0:0:0:0:
256,192,38447,1,0,0:0:0:0:
256,192,38564,1,0,0:0:0:0:
256,192,38623,1,0,0:0:0:0:
256,192,38682,1,8,0:0:0:0:
256,192,38741,1,0,0:0:0:0:
256,192,38800,1,8,0:0:0:0:
256,192,38917,1,0,0:0:0:0:
256,192,39035,1,8,0:0:0:0:
256,192,39270,1,8,0:0:0:0:
256,192,39388,1,0,0:0:0:0:
256,192,39447,1,0,0:0:0:0:
256,192,39505,1,8,0:0:0:0:
256,192,39623,1,0,0:0:0:0:
256,192,39740,1,8,0:0:0:0:
256,192,39858,1,8,0:0:0:0:
256,192,39976,1,8,0:0:0:0:
256,192,40094,1,0,0:0:0:0:
256,192,40212,1,0,0:0:0:0:
256,192,40271,1,0,0:0:0:0:
256,192,40329,1,0,0:0:0:0:
256,192,40388,1,0,0:0:0:0:
256,192,40447,1,8,0:0:0:0:
256,192,40565,1,0,0:0:0:0:
256,192,40682,1,8,0:0:0:0:
256,192,40800,1,8,0:0:0:0:
256,192,40859,1,8,0:0:0:0:
256,192,40918,1,0,0:0:0:0:
256,192,41035,1,8,0:0:0:0:
256,192,41153,1,0,0:0:0:0:
256,192,41270,1,8,0:0:0:0:
256,192,41388,1,0,0:0:0:0:
256,192,41506,1,8,0:0:0:0:
256,192,41623,1,0,0:0:0:0:
256,192,41682,1,0,0:0:0:0:
256,192,41741,1,8,0:0:0:0:
256,192,41859,1,0,0:0:0:0:
256,192,41917,1,0,0:0:0:0:
256,192,41976,1,8,0:0:0:0:
256,192,42035,1,8,0:0:0:0:
256,192,42094,1,0,0:0:0:0:
256,192,42212,1,8,0:0:0:0:
256,192,42329,1,8,0:0:0:0:
256,192,42388,1,8,0:0:0:0:
256,192,42447,1,0,0:0:0:0:
256,192,42564,1,0,0:0:0:0:
256,192,42623,1,0,0:0:0:0:
256,192,42682,1,8,0:0:0:0:
256,192,42800,1,0,0:0:0:0:
256,192,42917,1,8,0:0:0:0:
256,192,43035,1,0,0:0:0:0:
256,192,43153,1,8,0:0:0:0:
256,192,43270,1,0,0:0:0:0:
256,192,43329,1,0,0:0:0:0:
256,192,43388,1,8,0:0:0:0:
256,192,43506,1,0,0:0:0:0:
256,192,43623,1,8,0:0:0:0:
256,192,43741,1,8,0:0:0:0:
256,192,43800,1,8,0:0:0:0:
256,192,43859,1,0,0:0:0:0:
256,192,43976,1,0,0:0:0:0:
256,192,44094,1,8,0:0:0:0:
256,192,44212,1,0,0:0:0:0:
256,192,44270,1,0,0:0:0:0:
256,192,44329,1,8,0:0:0:0:
256,192,44447,1,0,0:0:0:0:
256,192,44564,1,8,0:0:0:0:
256,192,44682,1,0,0:0:0:0:
256,192,44741,1,0,0:0:0:0:
256,192,44800,1,8,0:0:0:0:
256,192,44918,1,8,0:0:0:0:
256,192,44976,1,8,0:0:0:0:
256,192,45035,1,0,0:0:0:0:
256,192,45094,1,0,0:0:0:0:
256,192,45153,1,8,0:0:0:0:
256,192,45271,1,8,0:0:0:0:
256,192,45388,1,8,0:0:0:0:
256,192,45447,1,0,0:0:0:0:
256,192,45506,1,0,0:0:0:0:
256,192,45564,1,0,0:0:0:0:
256,192,45624,1,8,0:0:0:0:
256,192,45741,1,8,0:0:0:0:
256,192,45859,1,0,0:0:0:0:
256,192,45918,1,0,0:0:0:0:
256,192,45976,1,0,0:0:0:0:
256,192,46035,1,0,0:0:0:0:
256,192,46094,1,8,0:0:0:0:
256,192,46212,1,8,0:0:0:0:
256,192,46329,1,0,0:0:0:0:
256,192,46388,1,0,0:0:0:0:
256,192,46447,1,0,0:0:0:0:
256,192,46506,1,0,0:0:0:0:
256,192,46565,1,8,0:0:0:0:
256,192,46682,1,8,0:0:0:0:
256,192,46741,1,8,0:0:0:0:
256,192,46800,1,0,0:0:0:0:
256,192,46918,1,0,0:0:0:0:
256,192,47035,1,8,0:0:0:0:
256,192,47153,1,0,0:0:0:0:
256,192,47271,1,8,0:0:0:0:
256,192,47388,1,0,0:0:0:0:
256,192,47506,1,8,0:0:0:0:
256,192,47624,1,8,0:0:0:0:
256,192,47741,1,8,0:0:0:0:
256,192,47859,1,0,0:0:0:0:
256,192,47976,1,0,0:0:0:0:
256,192,48094,1,0,0:0:0:0:
256,192,48212,1,8,0:0:0:0:
256,192,48329,1,0,0:0:0:0:
256,192,48447,1,0,0:0:0:0:
256,192,48565,1,8,0:0:0:0:
256,192,48682,1,8,0:0:0:0:
256,192,48800,1,0,0:0:0:0:
256,192,48918,1,8,0:0:0:0:
256,192,49035,1,0,0:0:0:0:
256,192,49153,1,8,0:0:0:0:
256,192,49271,1,0,0:0:0:0:
256,192,49388,1,8,0:0:0:0:
256,192,49506,1,0,0:0:0:0:
256,192,49624,1,8,0:0:0:0:
256,192,49682,1,8,0:0:0:0:
256,192,49741,1,0,0:0:0:0:
256,192,49859,1,8,0:0:0:0:
256,192,49976,1,0,0:0:0:0:
256,192,50094,1,8,0:0:0:0:
256,192,50153,1,8,0:0:0:0:
256,192,50212,1,0,0:0:0:0:
256,192,50329,1,0,0:0:0:0:
256,192,50447,1,8,0:0:0:0:
256,192,50565,1,8,0:0:0:0:
256,192,50623,1,8,0:0:0:0:
256,192,50682,1,0,0:0:0:0:
256,192,50741,1,0,0:0:0:0:
256,192,50800,1,8,0:0:0:0:
256,192,50918,1,8,0:0:0:0:
256,192,51035,1,8,0:0:0:0:
256,192,51094,1,8,0:0:0:0:
256,192,51153,1,0,0:0:0:0:
256,192,51271,1,0,0:0:0:0:
256,192,51388,1,8,0:0:0:0:
256,192,51506,1,8,0:0:0:0:
256,192,51584,1,0,0:0:0:0:
256,192,51663,1,0,0:0:0:0:
256,192,51741,1,8,0:0:0:0:
256,192,51820,1,0,0:0:0:0:
256,192,51898,1,0,0:0:0:0:
256,192,51976,1,8,0:0:0:0:
256,192,52055,1,0,0:0:0:0:
256,192,52133,1,0,0:0:0:0:
256,192,52212,1,8,0:0:0:0:
256,192,52290,1,8,0:0:0:0:
256,192,52369,1,8,0:0:0:0:
256,192,52447,1,0,0:0:0:0:
256,192,52918,1,8,0:0:0:0:
256,192,53388,1,0,0:0:0:0:
256,192,53859,1,8,0:0:0:0:
256,192,53976,1,8,0:0:0:0:
256,192,54094,1,0,0:0:0:0:
256,192,54212,1,8,0:0:0:0:
256,192,54329,1,8,0:0:0:0:
256,192,54446,1,8,0:0:0:0:
256,192,54564,1,0,0:0:0:0:
256,192,54681,1,0,0:0:0:0:
256,192,54799,1,8,0:0:0:0:
256,192,54917,1,8,0:0:0:0:
256,192,55034,1,0,0:0:0:0:
256,192,55152,1,0,0:0:0:0:
256,192,55270,1,8,0:0:0:0:
256,192,55348,1,8,0:0:0:0:
256,192,55426,1,8,0:0:0:0:
256,192,55505,1,0,0:0:0:0:
256,192,55583,1,0,0:0:0:0:
256,192,55662,1,0,0:0:0:0:
256,192,55739,1,12,0:0:0:0:
256,192,55975,1,0,0:0:0:0:
256,192,56092,1,0,0:0:0:0:
256,192,56210,1,8,0:0:0:0:
256,192,56445,1,8,0:0:0:0:
256,192,56681,1,0,0:0:0:0:
256,192,56798,1,0,0:0:0:0:
256,192,56916,1,8,0:0:0:0:
256,192,57151,1,8,0:0:0:0:
256,192,57387,1,8,0:0:0:0:
256,192,57504,1,8,0:0:0:0:
256,192,57622,1,0,0:0:0:0:
256,192,57857,1,8,0:0:0:0:
256,192,58092,1,0,0:0:0:0:
256,192,58210,1,0,0:0:0:0:
256,192,58328,1,8,0:0:0:0:
256,192,58563,1,8,0:0:0:0:
256,192,58798,1,8,0:0:0:0:
256,192,58916,1,0,0:0:0:0:
256,192,59151,1,0,0:0:0:0:
256,192,59269,1,8,0:0:0:0:
256,192,59504,1,0,0:0:0:0:
256,192,59622,1,0,0:0:0:0:
256,192,59740,1,8,0:0:0:0:
256,192,59975,1,8,0:0:0:0:
256,192,60210,1,8,0:0:0:0:
256,192,60328,1,0,0:0:0:0:
256,192,60681,1,8,0:0:0:0:
256,192,60916,1,0,0:0:0:0:
256,192,61151,1,8,0:0:0:0:
256,192,61269,1,8,0:0:0:0:
256,192,61387,1,4,0:0:0:0:
256,192,61622,1,0,0:0:0:0:
256,192,61740,1,8,0:0:0:0:
256,192,61975,1,8,0:0:0:0:
256,192,62092,1,0,0:0:0:0:
256,192,62328,1,0,0:0:0:0:
256,192,62445,1,0,0:0:0:0:
256,192,62563,1,8,0:0:0:0:
256,192,62798,1,8,0:0:0:0:
256,192,63034,1,0,0:0:0:0:
256,192,63269,1,8,0:0:0:0:
256,192,63504,1,0,0:0:0:0:
256,192,63740,1,8,0:0:0:0:
256,192,63975,1,0,0:0:0:0:
256,192,64092,1,8,0:0:0:0:
256,192,64445,1,0,0:0:0:0:
256,192,64681,1,8,0:0:0:0:
256,192,64916,1,0,0:0:0:0:
256,192,65151,1,8,0:0:0:0:
256,192,65387,1,0,0:0:0:0:
256,192,65445,1,0,0:0:0:0:
256,192,65504,1,0,0:0:0:0:
256,192,65563,1,0,0:0:0:0:
256,192,65622,1,8,0:0:0:0:
256,192,65740,1,8,0:0:0:0:
256,192,65857,1,0,0:0:0:0:
256,192,65975,1,0,0:0:0:0:
256,192,66092,1,8,0:0:0:0:
256,192,66210,1,8,0:0:0:0:
256,192,66328,1,0,0:0:0:0:
256,192,66445,1,0,0:0:0:0:
256,192,66563,1,8,0:0:0:0:
256,192,66641,1,8,0:0:0:0:
256,192,66720,1,8,0:0:0:0:
256,192,66798,1,0,0:0:0:0:
256,192,66877,1,0,0:0:0:0:
256,192,66955,1,0,0:0:0:0:
256,192,67034,1,12,0:0:0:0:
256,192,67269,1,0,0:0:0:0:
256,192,67504,1,8,0:0:0:0:
256,192,67740,1,0,0:0:0:0:
256,192,67975,1,8,0:0:0:0:
256,192,68210,1,0,0:0:0:0:
256,192,68328,1,8,0:0:0:0:
256,192,68563,1,8,0:0:0:0:
256,192,68681,1,0,0:0:0:0:
256,192,68916,1,8,0:0:0:0:
256,192,69151,1,0,0:0:0:0:
256,192,69387,1,8,0:0:0:0:
256,192,69622,1,0,0:0:0:0:
256,192,69740,1,8,0:0:0:0:
256,192,70092,1,0,0:0:0:0:
256,192,70328,1,8,0:0:0:0:
256,192,70563,1,0,0:0:0:0:
256,192,70798,1,8,0:0:0:0:
256,192,71034,1,0,0:0:0:0:
256,192,71151,1,0,0:0:0:0:
256,192,71269,1,8,0:0:0:0:
256,192,71387,1,8,0:0:0:0:
256,192,71504,1,0,0:0:0:0:
256,192,71622,1,8,0:0:0:0:
256,192,71740,1,0,0:0:0:0:
256,192,71857,1,8,0:0:0:0:
256,192,71975,1,8,0:0:0:0:
256,192,72092,1,0,0:0:0:0:
256,192,72210,1,8,0:0:0:0:
256,192,72269,1,8,0:0:0:0:
256,192,72328,1,0,0:0:0:0:
256,192,72386,1,0,0:0:0:0:
256,192,72445,1,8,0:0:0:0:
256,192,72563,1,0,0:0:0:0:
256,192,72622,1,0,0:0:0:0:
256,192,72681,1,8,0:0:0:0:
256,192,72916,1,0,0:0:0:0:
256,192,73151,1,8,0:0:0:0:
256,192,73387,1,0,0:0:0:0:
256,192,73622,1,8,0:0:0:0:
256,192,73857,1,0,0:0:0:0:
256,192,73975,1,8,0:0:0:0:
256,192,74210,1,8,0:0:0:0:
256,192,74328,1,0,0:0:0:0:
256,192,74563,1,8,0:0:0:0:
256,192,74798,1,0,0:0:0:0:
256,192,75034,1,8,0:0:0:0:
256,192,75269,1,0,0:0:0:0:
256,192,75387,1,8,0:0:0:0:
256,192,75740,1,0,0:0:0:0:
256,192,75975,1,8,0:0:0:0:
256,192,76210,1,0,0:0:0:0:
256,192,76445,1,8,0:0:0:0:
256,192,76563,1,8,0:0:0:0:
256,192,76681,1,0,0:0:0:0:
256,192,76739,1,0,0:0:0:0:
256,192,76798,1,0,0:0:0:0:
256,192,76916,1,8,0:0:0:0:
256,192,76975,1,0,0:0:0:0:
256,192,77034,1,0,0:0:0:0:
256,192,77151,1,8,0:0:0:0:
256,192,77269,1,0,0:0:0:0:
256,192,77387,1,8,0:0:0:0:
256,192,77504,1,0,0:0:0:0:
256,192,77563,1,0,0:0:0:0:
256,192,77622,1,8,0:0:0:0:
256,192,77740,1,8,0:0:0:0:
256,192,77798,1,8,0:0:0:0:
256,192,77857,1,0,0:0:0:0:
256,192,77975,1,0,0:0:0:0:
256,192,78092,1,8,0:0:0:0:
256,192,78210,1,0,0:0:0:0:
256,192,78330,1,12,0:0:0:0:
256,192,78565,1,8,0:0:0:0:
256,192,78682,1,8,0:0:0:0:
256,192,78800,1,0,0:0:0:0:
256,192,78917,1,8,0:0:0:0:
256,192,79035,1,8,0:0:0:0:
256,192,79153,1,8,0:0:0:0:
256,192,79271,1,4,0:0:0:0:
256,192,79506,1,0,0:0:0:0:
256,192,79624,1,0,0:0:0:0:
256,192,79741,1,8,0:0:0:0:
256,192,79859,1,0,0:0:0:0:
256,192,79977,1,0,0:0:0:0:
256,192,80094,1,0,0:0:0:0:
256,192,80212,1,12,0:0:0:0:
256,192,80447,1,8,0:0:0:0:
256,192,80565,1,0,0:0:0:0:
256,192,80682,1,8,0:0:0:0:
256,192,80800,1,0,0:0:0:0:
256,192,80918,1,0,0:0:0:0:
256,192,81035,1,8,0:0:0:0:
256,192,81153,1,4,0:0:0:0:
256,192,81388,1,0,0:0:0:0:
256,192,81506,1,8,0:0:0:0:
256,192,81624,1,0,0:0:0:0:
256,192,81741,1,8,0:0:0:0:
256,192,81859,1,8,0:0:0:0:
256,192,81977,1,0,0:0:0:0:
256,192,82094,1,12,0:0:0:0:
256,192,82330,1,8,0:0:0:0:
256,192,82447,1,8,0:0:0:0:
256,192,82565,1,0,0:0:0:0:
256,192,82681,1,8,0:0:0:0:
256,192,82800,1,0,0:0:0:0:
256,192,82918,1,8,0:0:0:0:
256,192,83034,1,4,0:0:0:0:
256,192,83271,1,0,0:0:0:0:
256,192,83388,1,0,0:0:0:0:
256,192,83506,1,8,0:0:0:0:
256,192,83624,1,0,0:0:0:0:
256,192,83740,1,8,0:0:0:0:
256,192,83859,1,0,0:0:0:0:
256,192,83977,1,12,0:0:0:0:
256,192,84212,1,0,0:0:0:0:
256,192,84330,1,8,0:0:0:0:
256,192,84447,1,8,0:0:0:0:
256,192,84565,1,0,0:0:0:0:
256,192,84682,1,8,0:0:0:0:
256,192,84800,1,8,0:0:0:0:
256,192,84918,1,4,0:0:0:0:
256,192,85153,1,8,0:0:0:0:
256,192,85271,1,0,0:0:0:0:
256,192,85388,1,0,0:0:0:0:
256,192,85506,1,8,0:0:0:0:
256,192,85624,1,0,0:0:0:0:
256,192,85741,1,0,0:0:0:0:
256,192,85859,1,12,0:0:0:0:
256,192,86094,1,8,0:0:0:0:
256,192,86212,1,0,0:0:0:0:
256,192,86330,1,8,0:0:0:0:
256,192,86408,1,0,0:0:0:0:
256,192,86486,1,0,0:0:0:0:
256,192,86565,1,8,0:0:0:0:
256,192,86643,1,0,0:0:0:0:
256,192,86722,1,0,0:0:0:0:
256,192,86800,1,8,0:0:0:0:
256,192,86878,1,0,0:0:0:0:
256,192,86957,1,0,0:0:0:0:
256,192,87035,1,8,0:0:0:0:
256,192,87153,1,8,0:0:0:0:
256,192,87271,1,0,0:0:0:0:
256,192,87388,1,8,0:0:0:0:
256,192,87506,1,8,0:0:0:0:
256,192,87624,1,8,0:0:0:0:
256,192,87741,1,0,0:0:0:0:
256,192,87858,1,0,0:0:0:0:
256,192,87917,1,0,0:0:0:0:
256,192,87976,1,8,0:0:0:0:
256,192,88093,1,0,0:0:0:0:
256,192,88211,1,0,0:0:0:0:
256,192,88270,1,0,0:0:0:0:
256,192,88330,1,8,0:0:0:0:
256,192,88446,1,8,0:0:0:0:
256,192,88564,1,0,0:0:0:0:
256,192,88683,1,8,0:0:0:0:
256,192,88741,1,8,0:0:0:0:
256,192,88800,1,0,0:0:0:0:
256,192,88859,1,8,0:0:0:0:
256,192,88918,1,0,0:0:0:0:
256,192,89035,1,0,0:0:0:0:
256,192,89152,1,0,0:0:0:0:
256,192,89211,1,0,0:0:0:0:
256,192,89270,1,8,0:0:0:0:
256,192,89329,1,0,0:0:0:0:
256,192,89388,1,8,0:0:0:0:
256,192,89506,1,0,0:0:0:0:
256,192,89565,1,0,0:0:0:0:
256,192,89624,1,8,0:0:0:0:
256,192,89741,1,0,0:0:0:0:
256,192,89859,1,8,0:0:0:0:
256,192,89977,1,0,0:0:0:0:
256,192,90094,1,8,0:0:0:0:
256,192,90211,1,8,0:0:0:0:
256,192,90329,1,0,0:0:0:0:
256,192,90388,1,0,0:0:0:0:
256,192,90446,1,8,0:0:0:0:
256,192,90564,1,0,0:0:0:0:
256,192,90623,1,0,0:0:0:0:
256,192,90682,1,8,0:0:0:0:
256,192,90799,1,8,0:0:0:0:
256,192,90918,1,0,0:0:0:0:
256,192,91035,1,8,0:0:0:0:
256,192,91152,1,8,0:0:0:0:
256,192,91270,1,0,0:0:0:0:
256,192,91329,1,0,0:0:0:0:
256,192,91388,1,8,0:0:0:0:
256,192,91505,1,0,0:0:0:0:
256,192,91564,1,0,0:0:0:0:
256,192,91623,1,8,0:0:0:0:
256,192,91741,1,8,0:0:0:0:
256,192,91858,1,0,0:0:0:0:
256,192,91976,1,8,0:0:0:0:
256,192,92093,1,8,0:0:0:0:
256,192,92211,1,0,0:0:0:0:
256,192,92270,1,0,0:0:0:0:
256,192,92329,1,8,0:0:0:0:
256,192,92446,1,0,0:0:0:0:
256,192,92505,1,0,0:0:0:0:
256,192,92564,1,8,0:0:0:0:
256,192,92681,1,8,0:0:0:0:
256,192,92799,1,0,0:0:0:0:
256,192,92916,1,8,0:0:0:0:
256,192,93034,1,8,0:0:0:0:
256,192,93152,1,0,0:0:0:0:
256,192,93210,1,0,0:0:0:0:
256,192,93270,1,8,0:0:0:0:
256,192,93388,1,0,0:0:0:0:
256,192,93446,1,0,0:0:0:0:
256,192,93505,1,8,0:0:0:0:
256,192,93564,1,0,0:0:0:0:
256,192,93624,1,8,0:0:0:0:
256,192,93740,1,0,0:0:0:0:
256,192,93858,1,8,0:0:0:0:
256,192,93917,1,8,0:0:0:0:
256,192,93976,1,0,0:0:0:0:
256,192,94035,1,0,0:0:0:0:
256,192,94093,1,8,0:0:0:0:
256,192,94211,1,0,0:0:0:0:
256,192,94329,1,8,0:0:0:0:
256,192,94388,1,8,0:0:0:0:
256,192,94446,1,0,0:0:0:0:
256,192,94563,1,8,0:0:0:0:
256,192,94682,1,0,0:0:0:0:
256,192,94799,1,8,0:0:0:0:
256,192,94858,1,8,0:0:0:0:
256,192,94917,1,0,0:0:0:0:
256,192,94976,1,0,0:0:0:0:
256,192,95035,1,8,0:0:0:0:
256,192,95093,1,8,0:0:0:0:
256,192,95152,1,0,0:0:0:0:
256,192,95270,1,8,0:0:0:0:
256,192,95348,1,0,0:0:0:0:
256,192,95427,1,0,0:0:0:0:
256,192,95505,1,8,0:0:0:0:
256,192,95584,1,0,0:0:0:0:
256,192,95662,1,0,0:0:0:0:
256,192,95741,1,8,0:0:0:0:
256,192,95819,1,0,0:0:0:0:
256,192,95897,1,0,0:0:0:0:
256,192,95976,1,8,0:0:0:0:
256,192,96054,1,0,0:0:0:0:
256,192,96133,1,0,0:0:0:0:
256,192,96211,1,8,0:0:0:0:
256,192,96270,1,8,0:0:0:0:
256,192,96329,1,8,0:0:0:0:
256,192,96388,1,0,0:0:0:0:
256,192,96446,1,8,0:0:0:0:
256,192,96505,1,0,0:0:0:0:
256,192,96564,1,0,0:0:0:0:
256,192,96623,1,0,0:0:0:0:
256,192,96682,1,8,0:0:0:0:
256,192,96741,1,8,0:0:0:0:
256,192,96799,1,0,0:0:0:0:
256,192,96858,1,0,0:0:0:0:
256,192,96917,1,8,0:0:0:0:
256,192,96976,1,0,0:0:0:0:
256,192,97035,1,0,0:0:0:0:
256,192,97093,1,0,0:0:0:0:
256,192,97152,1,8,0:0:0:0:
256,192,97623,1,0,0:0:0:0:
256,192,98093,1,8,0:0:0:0:
256,192,98446,1,8,0:0:0:0:
256,192,98564,1,0,0:0:0:0:
256,192,98799,1,12,0:0:0:0:
256,192,99035,1,0,0:0:0:0:
256,192,99505,1,0,0:0:0:0:
256,192,99976,1,8,0:0:0:0:
256,192,100329,1,8,0:0:0:0:
256,192,100447,1,0,0:0:0:0:
256,192,100682,1,12,0:0:0:0:
256,192,100918,1,0,0:0:0:0:
256,192,101388,1,0,0:0:0:0:
256,192,101859,1,8,0:0:0:0:
256,192,102212,1,0,0:0:0:0:
256,192,102329,1,8,0:0:0:0:
256,192,102564,1,12,0:0:0:0:
256,192,102799,1,0,0:0:0:0:
256,192,103270,1,0,0:0:0:0:
256,192,103740,1,8,0:0:0:0:
256,192,104211,1,0,0:0:0:0:
256,192,104446,1,8,0:0:0:0:
256,192,104564,1,8,0:0:0:0:
256,192,104682,1,8,0:0:0:0:
256,192,104799,1,0,0:0:0:0:
256,192,104917,1,8,0:0:0:0:
256,192,105035,1,0,0:0:0:0:
256,192,105152,1,0,0:0:0:0:
256,192,105231,1,8,0:0:0:0:
256,192,105309,1,8,0:0:0:0:
256,192,105388,1,0,0:0:0:0:
256,192,105505,1,8,0:0:0:0:
256,192,105623,1,8,0:0:0:0:
256,192,105701,1,0,0:0:0:0:
256,192,105780,1,0,0:0:0:0:
256,192,105858,1,0,0:0:0:0:
256,192,105976,1,8,0:0:0:0:
256,192,106093,1,0,0:0:0:0:
256,192,106211,1,8,0:0:0:0:
256,192,106270,1,8,0:0:0:0:
256,192,106329,1,0,0:0:0:0:
256,192,106446,1,8,0:0:0:0:
256,192,106564,1,0,0:0:0:0:
256,192,106642,1,0,0:0:0:0:
256,192,106721,1,8,0:0:0:0:
256,192,106799,1,0,0:0:0:0:
256,192,106878,1,0,0:0:0:0:
256,192,106956,1,8,0:0:0:0:
256,192,107035,1,0,0:0:0:0:
256,192,107093,1,0,0:0:0:0:
256,192,107152,1,8,0:0:0:0:
256,192,107211,1,0,0:0:0:0:
256,192,107270,1,8,0:0:0:0:
256,192,107329,1,8,0:0:0:0:
256,192,107388,1,0,0:0:0:0:
256,192,107446,1,0,0:0:0:0:
256,192,107505,1,8,0:0:0:0:
256,192,107741,1,0,0:0:0:0:
256,192,107976,1,0,0:0:0:0:
256,192,108093,1,8,0:0:0:0:
256,192,108152,1,8,0:0:0:0:
256,192,108211,1,0,0:0:0:0:
256,192,108329,1,0,0:0:0:0:
256,192,108446,1,8,0:0:0:0:
256,192,108564,1,8,0:0:0:0:
256,192,108681,1,0,0:0:0:0:
256,192,108799,1,8,0:0:0:0:
256,192,109034,1,0,0:0:0:0:
256,192,109152,1,0,0:0:0:0:
256,192,109270,1,8,0:0:0:0:
256,192,109387,1,8,0:0:0:0:
256,192,109505,1,8,0:0:0:0:
256,192,109623,1,0,0:0:0:0:
256,192,109740,1,8,0:0:0:0:
256,192,109858,1,8,0:0:0:0:
256,192,109975,1,0,0:0:0:0:
256,192,110093,1,8,0:0:0:0:
256,192,110211,1,8,0:0:0:0:
256,192,110329,1,8,0:0:0:0:
256,192,110407,1,0,0:0:0:0:
256,192,110486,1,0,0:0:0:0:
256,192,110564,1,8,0:0:0:0:
256,192,110642,1,0,0:0:0:0:
256,192,110721,1,0,0:0:0:0:
256,192,110799,1,8,0:0:0:0:
256,192,110917,1,8,0:0:0:0:
256,192,111034,1,0,0:0:0:0:
256,192,111152,1,0,0:0:0:0:
256,192,111270,1,8,0:0:0:0:
256,192,111328,1,0,0:0:0:0:
256,192,111387,1,8,0:0:0:0:
256,192,111446,1,0,0:0:0:0:
256,192,111505,1,8,0:0:0:0:
256,192,111741,1,8,0:0:0:0:
256,192,111975,1,0,0:0:0:0:
256,192,112092,1,0,0:0:0:0:
256,192,112211,1,8,0:0:0:0:
256,192,112270,1,8,0:0:0:0:
256,192,112328,1,8,0:0:0:0:
256,192,112446,1,0,0:0:0:0:
256,192,112564,1,8,0:0:0:0:
256,192,112798,1,0,0:0:0:0:
256,192,112917,1,0,0:0:0:0:
256,192,113034,1,8,0:0:0:0:
256,192,113152,1,8,0:0:0:0:
256,192,113388,1,8,0:0:0:0:
256,192,113446,1,0,0:0:0:0:
256,192,113624,1,8,0:0:0:0:
256,192,113859,1,0,0:0:0:0:
256,192,114094,1,8,0:0:0:0:
256,192,114329,1,8,0:0:0:0:
256,192,114446,1,0,0:0:0:0:
256,192,114564,1,0,0:0:0:0:
256,192,114799,1,8,0:0:0:0:
256,192,114858,1,0,0:0:0:0:
256,192,114917,1,0,0:0:0:0:
256,192,114976,1,0,0:0:0:0:
256,192,115035,1,8,0:0:0:0:
256,192,115271,1,8,0:0:0:0:
256,192,115388,1,8,0:0:0:0:
256,192,115506,1,8,0:0:0:0:
256,192,115624,1,0,0:0:0:0:
256,192,115741,1,0,0:0:0:0:
256,192,115859,1,8,0:0:0:0:
256,192,115976,1,8,0:0:0:0:
256,192,116094,1,8,0:0:0:0:
256,192,116212,1,0,0:0:0:0:
256,192,116329,1,8,0:0:0:0:
256,192,116565,1,0,0:0:0:0:
256,192,116682,1,0,0:0:0:0:
256,192,116800,1,8,0:0:0:0:
256,192,116918,1,8,0:0:0:0:
256,192,117035,1,8,0:0:0:0:
256,192,117153,1,0,0:0:0:0:
256,192,117271,1,8,0:0:0:0:
256,192,117506,1,0,0:0:0:0:
256,192,117624,1,0,0:0:0:0:
256,192,117741,1,8,0:0:0:0:
256,192,117859,1,8,0:0:0:0:
256,192,117937,1,8,0:0:0:0:
256,192,118016,1,0,0:0:0:0:
256,192,118094,1,8,0:0:0:0:
256,192,118173,1,0,0:0:0:0:
256,192,118251,1,0,0:0:0:0:
256,192,118329,1,8,0:0:0:0:
256,192,118447,1,0,0:0:0:0:
256,192,118565,1,0,0:0:0:0:
256,192,118682,1,8,0:0:0:0:
256,192,118800,1,8,0:0:0:0:
256,192,119034,1,0,0:0:0:0:
256,192,119271,1,8,0:0:0:0:
256,192,119506,1,0,0:0:0:0:
256,192,119741,1,8,0:0:0:0:
256,192,119859,1,0,0:0:0:0:
256,192,119976,1,8,0:0:0:0:
256,192,120055,1,8,0:0:0:0:
256,192,120133,1,8,0:0:0:0:
256,192,120212,1,0,0:0:0:0:
256,192,120271,1,0,0:0:0:0:
256,192,120329,1,0,0:0:0:0:
256,192,120447,1,8,0:0:0:0:
256,192,120565,1,8,0:0:0:0:
256,192,120682,1,8,0:0:0:0:
256,192,120741,1,8,0:0:0:0:
256,192,120800,1,0,0:0:0:0:
256,192,120918,1,8,0:0:0:0:
256,192,120976,1,8,0:0:0:0:
256,192,121035,1,0,0:0:0:0:
256,192,121153,1,8,0:0:0:0:
256,192,121270,1,0,0:0:0:0:
256,192,121388,1,8,0:0:0:0:
256,192,121446,1,8,0:0:0:0:
256,192,121506,1,0,0:0:0:0:
256,192,121624,1,0,0:0:0:0:
256,192,121859,1,0,0:0:0:0:
256,192,122094,1,0,0:0:0:0:
256,192,122329,1,0,0:0:0:0:
256,192,122447,1,0,0:0:0:0:
256,192,122682,1,0,0:0:0:0:
256,192,122918,1,0,0:0:0:0:
256,192,123034,1,8,0:0:0:0:
256,192,123268,1,8,0:0:0:0:
256,192,123503,1,8,0:0:0:0:
256,192,123738,1,8,0:0:0:0:
256,192,123856,1,0,0:0:0:0:
256,192,124091,1,0,0:0:0:0:
256,192,124209,1,8,0:0:0:0:
256,192,124444,1,8,0:0:0:0:
256,192,124680,1,8,0:0:0:0:
256,192,124916,1,8,0:0:0:0:
256,192,125034,1,0,0:0:0:0:
256,192,125269,1,8,0:0:0:0:
256,192,125387,1,8,0:0:0:0:
256,192,125503,1,0,0:0:0:0:
256,192,125621,1,8,0:0:0:0:
256,192,125738,1,0,0:0:0:0:
256,192,125856,1,8,0:0:0:0:
256,192,126091,1,8,0:0:0:0:
256,192,126328,1,0,0:0:0:0:
256,192,126444,1,8,0:0:0:0:
256,192,126562,1,0,0:0:0:0:
256,192,126679,1,8,0:0:0:0:
256,192,126916,1,0,0:0:0:0:
256,192,127033,1,0,0:0:0:0:
256,192,127091,1,0,0:0:0:0:
256,192,127150,1,8,0:0:0:0:
256,192,127268,1,8,0:0:0:0:
256,192,127385,1,0,0:0:0:0:
256,192,127503,1,8,0:0:0:0:
256,192,127562,1,8,0:0:0:0:
256,192,127621,1,0,0:0:0:0:
256,192,127738,1,8,0:0:0:0:
256,192,127855,1,0,0:0:0:0:
256,192,127914,1,0,0:0:0:0:
256,192,127973,1,8,0:0:0:0:
256,192,128090,1,0,0:0:0:0:
256,192,128208,1,0,0:0:0:0:
256,192,128267,1,0,0:0:0:0:
256,192,128326,1,8,0:0:0:0:
256,192,128443,1,8,0:0:0:0:
256,192,128561,1,0,0:0:0:0:
256,192,128679,1,8,0:0:0:0:
256,192,128796,1,8,0:0:0:0:
256,192,128855,1,8,0:0:0:0:
256,192,128915,1,0,0:0:0:0:
256,192,129032,1,8,0:0:0:0:
256,192,129150,1,0,0:0:0:0:
256,192,129267,1,0,0:0:0:0:
256,192,129326,1,0,0:0:0:0:
256,192,129385,1,0,0:0:0:0:
256,192,129503,1,8,0:0:0:0:
256,192,129562,1,8,0:0:0:0:
256,192,129620,1,8,0:0:0:0:
256,192,129738,1,0,0:0:0:0:
256,192,129855,1,0,0:0:0:0:
256,192,129913,1,0,0:0:0:0:
256,192,129972,1,8,0:0:0:0:
256,192,130090,1,8,0:0:0:0:
256,192,130207,1,0,0:0:0:0:
256,192,130325,1,0,0:0:0:0:
256,192,130384,1,0,0:0:0:0:
256,192,130443,1,0,0:0:0:0:
256,192,130560,1,8,0:0:0:0:
256,192,130619,1,8,0:0:0:0:
256,192,130678,1,8,0:0:0:0:
256,192,130796,1,0,0:0:0:0:
256,192,130913,1,8,0:0:0:0:
256,192,131031,1,8,0:0:0:0:
256,192,131090,1,8,0:0:0:0:
256,192,131149,1,0,0:0:0:0:
256,192,131266,1,0,0:0:0:0:
256,192,131325,1,0,0:0:0:0:
256,192,131384,1,8,0:0:0:0:
256,192,131502,1,8,0:0:0:0:
256,192,131560,1,8,0:0:0:0:
256,192,131619,1,0,0:0:0:0:
256,192,131678,1,0,0:0:0:0:
256,192,131738,1,0,0:0:0:0:
256,192,131973,1,8,0:0:0:0:
256,192,132208,1,0,0:0:0:0:
256,192,132443,1,8,0:0:0:0:
256,192,132561,1,8,0:0:0:0:
256,192,132679,1,0,0:0:0:0:
256,192,132914,1,8,0:0:0:0:
256,192,133149,1,0,0:0:0:0:
256,192,133267,1,0,0:0:0:0:
256,192,133385,1,12,0:0:0:0:
256,192,133502,1,0,0:0:0:0:
256,192,133738,1,8,0:0:0:0:
256,192,133855,1,0,0:0:0:0:
256,192,134090,1,8,0:0:0:0:
256,192,134208,1,0,0:0:0:0:
256,192,134326,1,8,0:0:0:0:
256,192,134561,1,8,0:0:0:0:
256,192,134679,1,0,0:0:0:0:
256,192,134796,1,8,0:0:0:0:
256,192,134914,1,0,0:0:0:0:
256,192,135033,1,12,0:0:0:0:
256,192,135150,1,0,0:0:0:0:
256,192,135386,1,8,0:0:0:0:
256,192,135504,1,0,0:0:0:0:
256,192,135739,1,0,0:0:0:0:
256,192,135857,1,0,0:0:0:0:
256,192,135974,1,12,0:0:0:0:
256,192,136328,1,8,0:0:0:0:
256,192,136445,1,0,0:0:0:0:
256,192,136680,1,8,0:0:0:0:
256,192,136915,1,12,0:0:0:0:
256,192,137033,1,0,0:0:0:0:
256,192,137268,1,0,0:0:0:0:
256,192,137386,1,8,0:0:0:0:
256,192,137622,1,0,0:0:0:0:
256,192,137680,1,0,0:0:0:0:
256,192,137739,1,8,0:0:0:0:
256,192,137857,1,8,0:0:0:0:
256,192,137916,1,8,0:0:0:0:
256,192,137974,1,0,0:0:0:0:
256,192,138092,1,8,0:0:0:0:
256,192,138151,1,8,0:0:0:0:
256,192,138210,1,8,0:0:0:0:
256,192,138327,1,12,0:0:0:0:
256,192,138563,1,0,0:0:0:0:
256,192,138798,1,8,0:0:0:0:
256,192,139033,1,0,0:0:0:0:
256,192,139269,1,8,0:0:0:0:
256,192,139504,1,0,0:0:0:0:
256,192,139622,1,0,0:0:0:0:
256,192,139739,1,12,0:0:0:0:
256,192,139974,1,0,0:0:0:0:
256,192,140210,1,8,0:0:0:0:
256,192,140445,1,0,0:0:0:0:
256,192,140680,1,8,0:0:0:0:
256,192,140916,1,0,0:0:0:0:
256,192,141033,1,0,0:0:0:0:
256,192,141151,1,12,0:0:0:0:
256,192,141386,1,0,0:0:0:0:
256,192,141622,1,8,0:0:0:0:
256,192,141857,1,0,0:0:0:0:
256,192,142092,1,8,0:0:0:0:
256,192,142327,1,0,0:0:0:0:
256,192,142445,1,8,0:0:0:0:
256,192,142563,1,8,0:0:0:0:
256,192,142680,1,0,0:0:0:0:
256,192,142798,1,0,0:0:0:0:
256,192,142916,1,8,0:0:0:0:
256,192,143033,1,8,0:0:0:0:
256,192,143151,1,0,0:0:0:0:
256,192,143269,1,8,0:0:0:0:
256,192,143386,1,0,0:0:0:0:
256,192,143504,1,8,0:0:0:0:
256,192,143739,1,0,0:0:0:0:
256,192,143974,1,12,0:0:0:0:
256,192,144210,1,0,0:0:0:0:
256,192,144444,1,8,0:0:0:0:
256,192,144679,1,0,0:0:0:0:
256,192,144915,1,8,0:0:0:0:
256,192,145151,1,0,0:0:0:0:
256,192,145268,1,0,0:0:0:0:
256,192,145386,1,12,0:0:0:0:
256,192,145621,1,0,0:0:0:0:
256,192,145856,1,8,0:0:0:0:
256,192,146091,1,0,0:0:0:0:
256,192,146326,1,8,0:0:0:0:
256,192,146562,1,0,0:0:0:0:
256,192,146679,1,0,0:0:0:0:
256,192,146797,1,12,0:0:0:0:
256,192,147032,1,0,0:0:0:0:
256,192,147268,1,8,0:0:0:0:
256,192,147503,1,0,0:0:0:0:
256,192,147738,1,8,0:0:0:0:
256,192,147973,1,0,0:0:0:0:
256,192,148209,1,8,0:0:0:0:
256,192,148326,1,8,0:0:0:0:
256,192,148445,1,8,0:0:0:0:
256,192,148562,1,0,0:0:0:0:
256,192,148679,1,0,0:0:0:0:
256,192,148798,1,0,0:0:0:0:
256,192,148915,1,8,0:0:0:0:
256,192,149150,1,0,0:0:0:0:
256,192,149268,1,0,0:0:0:0:
256,192,149386,1,8,0:0:0:0:
256,192,149445,1,8,0:0:0:0:
256,192,149504,1,8,0:0:0:0:
256,192,149563,1,8,0:0:0:0:
256,192,149622,5,0,0:0:0:0:
256,192,149739,1,0,0:0:0:0:
256,192,149857,1,0,0:0:0:0:
256,192,149974,1,0,0:0:0:0:
256,192,150092,1,0,0:0:0:0:
256,192,150210,1,8,0:0:0:0:
256,192,150327,1,0,0:0:0:0:
256,192,150445,1,0,0:0:0:0:
256,192,150563,1,0,0:0:0:0:
256,192,150680,1,0,0:0:0:0:
256,192,150798,1,0,0:0:0:0:
256,192,150916,1,8,0:0:0:0:
256,192,151033,1,0,0:0:0:0:
256,192,151151,1,0,0:0:0:0:
256,192,151269,1,0,0:0:0:0:
256,192,151386,1,0,0:0:0:0:
256,192,151504,1,0,0:0:0:0:
256,192,151622,1,8,0:0:0:0:
256,192,151739,1,0,0:0:0:0:
256,192,151857,1,8,0:0:0:0:
256,192,151974,1,0,0:0:0:0:
256,192,152033,1,8,0:0:0:0:
256,192,152092,1,0,0:0:0:0:
256,192,152210,1,8,0:0:0:0:
256,192,152327,1,8,0:0:0:0:
256,192,152445,1,0,0:0:0:0:
256,192,152563,1,0,0:0:0:0:
256,192,152680,1,0,0:0:0:0:
256,192,152798,1,0,0:0:0:0:
256,192,152916,1,0,0:0:0:0:
256,192,153033,1,8,0:0:0:0:
256,192,153151,1,0,0:0:0:0:
256,192,153269,1,0,0:0:0:0:
256,192,153386,1,0,0:0:0:0:
256,192,153504,1,0,0:0:0:0:
256,192,153622,1,0,0:0:0:0:
256,192,153739,1,8,0:0:0:0:
256,192,153857,1,0,0:0:0:0:
256,192,153974,1,0,0:0:0:0:
256,192,154092,1,0,0:0:0:0:
256,192,154210,1,0,0:0:0:0:
256,192,154327,1,0,0:0:0:0:
256,192,154445,1,8,0:0:0:0:
256,192,154563,1,0,0:0:0:0:
256,192,154680,1,8,0:0:0:0:
256,192,154798,1,0,0:0:0:0:
256,192,154857,1,8,0:0:0:0:
256,192,154916,1,0,0:0:0:0:
256,192,155033,1,8,0:0:0:0:
256,192,155151,1,0,0:0:0:0:
256,192,155269,1,8,0:0:0:0:
256,192,155386,1,0,0:0:0:0:
256,192,155504,1,0,0:0:0:0:
256,192,155622,1,8,0:0:0:0:
256,192,155740,1,0,0:0:0:0:
256,192,155858,1,0,0:0:0:0:
256,192,155975,1,8,0:0:0:0:
256,192,156093,1,0,0:0:0:0:
256,192,156211,1,0,0:0:0:0:
256,192,156328,1,8,0:0:0:0:
256,192,156446,1,0,0:0:0:0:
256,192,156564,1,8,0:0:0:0:
256,192,156681,1,8,0:0:0:0:
256,192,156799,1,0,0:0:0:0:
256,192,156917,1,0,0:0:0:0:
256,192,157034,1,8,0:0:0:0:
256,192,157152,1,0,0:0:0:0:
256,192,157270,1,8,0:0:0:0:
256,192,157387,1,0,0:0:0:0:
256,192,157505,1,8,0:0:0:0:
256,192,157623,1,0,0:0:0:0:
256,192,157681,1,8,0:0:0:0:
256,192,157740,1,0,0:0:0:0:
256,192,157858,1,8,0:0:0:0:
256,192,157975,1,0,0:0:0:0:
256,192,158093,1,8,0:0:0:0:
256,192,158211,1,0,0:0:0:0:
256,192,158328,1,0,0:0:0:0:
256,192,158446,1,8,0:0:0:0:
256,192,158564,1,0,0:0:0:0:
256,192,158681,1,0,0:0:0:0:
256,192,158799,1,8,0:0:0:0:
256,192,158917,1,0,0:0:0:0:
256,192,159034,1,0,0:0:0:0:
256,192,159152,1,8,0:0:0:0:
256,192,159270,1,0,0:0:0:0:
256,192,159387,1,8,0:0:0:0:
256,192,159505,1,12,0:0:0:0:
256,192,159623,1,0,0:0:0:0:
256,192,159740,1,0,0:0:0:0:
256,192,159858,1,12,0:0:0:0:
256,192,159975,1,0,0:0:0:0:
256,192,160093,1,8,0:0:0:0:
256,192,160211,1,4,0:0:0:0:
256,192,160328,1,8,0:0:0:0:
256,192,160387,1,8,0:0:0:0:
256,192,160446,1,8,0:0:0:0:
256,192,160564,1,8,0:0:0:0:
256,192,160681,1,8,0:0:0:0:
256,192,160799,1,8,0:0:0:0:
256,192,160916,1,4,0:0:0:0:
256,192,161151,1,0,0:0:0:0:
256,192,161269,1,8,0:0:0:0:
256,192,161504,1,8,0:0:0:0:
256,192,161622,1,0,0:0:0:0:
256,192,161857,1,0,0:0:0:0:
256,192,161974,1,8,0:0:0:0:
256,192,162210,1,8,0:0:0:0:
256,192,162327,1,0,0:0:0:0:
256,192,162563,1,0,0:0:0:0:
256,192,162680,1,8,0:0:0:0:
256,192,162916,1,0,0:0:0:0:
256,192,162974,1,0,0:0:0:0:
256,192,163033,1,0,0:0:0:0:
256,192,163151,1,8,0:0:0:0:
256,192,163269,1,0,0:0:0:0:
256,192,163326,1,0,0:0:0:0:
256,192,163386,1,8,0:0:0:0:
256,192,163504,1,8,0:0:0:0:
256,192,163622,1,8,0:0:0:0:
256,192,163739,1,0,0:0:0:0:
256,192,163974,1,0,0:0:0:0:
256,192,164092,1,8,0:0:0:0:
256,192,164327,1,8,0:0:0:0:
256,192,164445,1,0,0:0:0:0:
256,192,164680,1,0,0:0:0:0:
256,192,164798,1,8,0:0:0:0:
256,192,165033,1,8,0:0:0:0:
256,192,165151,1,0,0:0:0:0:
256,192,165386,1,0,0:0:0:0:
256,192,165504,1,8,0:0:0:0:
256,192,165739,1,0,0:0:0:0:
256,192,165798,1,0,0:0:0:0:
256,192,165857,1,0,0:0:0:0:
256,192,165974,1,8,0:0:0:0:
256,192,166091,1,0,0:0:0:0:
256,192,166150,1,0,0:0:0:0:
256,192,166209,1,8,0:0:0:0:
256,192,166327,1,8,0:0:0:0:
256,192,166386,1,8,0:0:0:0:
256,192,166445,1,8,0:0:0:0:
256,192,166503,1,8,0:0:0:0:
256,192,166563,1,0,0:0:0:0:
256,192,166798,1,0,0:0:0:0:
256,192,166916,1,8,0:0:0:0:
256,192,167151,1,8,0:0:0:0:
256,192,167269,1,0,0:0:0:0:
256,192,167504,1,0,0:0:0:0:
256,192,167621,1,8,0:0:0:0:
256,192,167857,1,8,0:0:0:0:
256,192,167974,1,0,0:0:0:0:
256,192,168210,1,0,0:0:0:0:
256,192,168327,1,8,0:0:0:0:
256,192,168563,1,0,0:0:0:0:
256,192,168621,1,0,0:0:0:0:
256,192,168680,1,0,0:0:0:0:
256,192,168798,1,8,0:0:0:0:
256,192,168916,1,0,0:0:0:0:
256,192,168973,1,0,0:0:0:0:
256,192,169033,1,8,0:0:0:0:
256,192,169151,1,8,0:0:0:0:
256,192,169269,1,8,0:0:0:0:
256,192,169386,1,0,0:0:0:0:
256,192,169622,1,0,0:0:0:0:
256,192,169738,1,8,0:0:0:0:
256,192,169973,1,8,0:0:0:0:
256,192,170091,1,0,0:0:0:0:
256,192,170326,1,0,0:0:0:0:
256,192,170445,1,8,0:0:0:0:
256,192,170679,1,8,0:0:0:0:
256,192,170798,1,0,0:0:0:0:
256,192,171032,1,0,0:0:0:0:
256,192,171151,1,8,0:0:0:0:
256,192,171386,1,0,0:0:0:0:
256,192,171445,1,0,0:0:0:0:
256,192,171504,1,0,0:0:0:0:
256,192,171622,1,8,0:0:0:0:
256,192,171739,1,0,0:0:0:0:
256,192,171857,1,8,0:0:0:0:
256,192,171916,1,8,0:0:0:0:
256,192,171974,1,8,0:0:0:0:
256,192,172033,1,8,0:0:0:0:
256,192,172092,1,8,0:0:0:0:
256,192,172210,1,4,0:0:0:0:
256,192,172563,1,8,0:0:0:0:
256,192,172622,1,8,0:0:0:0:
256,192,172680,1,8,0:0:0:0:
256,192,172798,1,0,0:0:0:0:
256,192,172916,1,8,0:0:0:0:
256,192,173033,1,8,0:0:0:0:
256,192,173092,1,0,0:0:0:0:
256,192,173151,1,8,0:0:0:0:
256,192,173269,1,8,0:0:0:0:
256,192,173386,1,8,0:0:0:0:
256,192,173504,1,8,0:0:0:0:
256,192,173623,1,0,0:0:0:0:
256,192,173858,1,0,0:0:0:0:
256,192,173917,1,0,0:0:0:0:
256,192,173975,1,8,0:0:0:0:
256,192,174093,1,0,0:0:0:0:
256,192,174211,1,0,0:0:0:0:
256,192,174328,1,8,0:0:0:0:
256,192,174446,1,8,0:0:0:0:
256,192,174564,1,8,0:0:0:0:
256,192,174681,1,8,0:0:0:0:
256,192,174739,1,8,0:0:0:0:
256,192,174798,1,0,0:0:0:0:
256,192,174857,1,0,0:0:0:0:
256,192,174916,1,8,0:0:0:0:
256,192,175032,1,8,0:0:0:0:
256,192,175151,1,0,0:0:0:0:
256,192,175210,1,0,0:0:0:0:
256,192,175269,1,8,0:0:0:0:
256,192,175386,1,8,0:0:0:0:
256,192,175621,1,0,0:0:0:0:
256,192,175680,1,0,0:0:0:0:
256,192,175739,1,8,0:0:0:0:
256,192,175857,1,8,0:0:0:0:
256,192,175974,1,0,0:0:0:0:
256,192,176092,1,8,0:0:0:0:
256,192,176210,1,0,0:0:0:0:
256,192,176327,1,8,0:0:0:0:
256,192,176563,1,8,0:0:0:0:
256,192,176621,1,0,0:0:0:0:
256,192,176680,1,0,0:0:0:0:
256,192,176798,1,8,0:0:0:0:
256,192,176916,1,0,0:0:0:0:
256,192,177033,1,0,0:0:0:0:
256,192,177091,1,0,0:0:0:0:
256,192,177151,1,8,0:0:0:0:
256,192,177268,1,8,0:0:0:0:
256,192,177386,1,0,0:0:0:0:
256,192,177504,1,8,0:0:0:0:
256,192,177622,1,8,0:0:0:0:
256,192,177680,1,8,0:0:0:0:
256,192,177739,1,0,0:0:0:0:
256,192,177797,1,0,0:0:0:0:
256,192,177857,1,8,0:0:0:0:
256,192,177974,1,8,0:0:0:0:
256,192,178092,1,0,0:0:0:0:
256,192,178210,1,8,0:0:0:0:
256,192,178269,1,8,0:0:0:0:
256,192,178327,1,8,0:0:0:0:
256,192,178445,1,0,0:0:0:0:
256,192,178563,1,0,0:0:0:0:
256,192,178621,1,0,0:0:0:0:
256,192,178680,1,8,0:0:0:0:
256,192,178798,1,0,0:0:0:0:
256,192,178916,1,0,0:0:0:0:
256,192,178973,1,0,0:0:0:0:
256,192,179033,1,8,0:0:0:0:
256,192,179151,1,0,0:0:0:0:
256,192,179270,1,8,0:0:0:0:
256,192,179505,1,0,0:0:0:0:
256,192,179564,1,0,0:0:0:0:
256,192,179622,1,8,0:0:0:0:
256,192,179681,1,8,0:0:0:0:
256,192,179740,1,8,0:0:0:0:
256,192,179858,1,0,0:0:0:0:
256,192,179917,1,0,0:0:0:0:
256,192,179976,1,8,0:0:0:0:
256,192,180093,1,0,0:0:0:0:
256,192,180212,1,0,0:0:0:0:
256,192,180329,1,8,0:0:0:0:
256,192,180388,1,0,0:0:0:0:
256,192,180447,1,8,0:0:0:0:
256,192,180564,1,8,0:0:0:0:
256,192,180681,1,8,0:0:0:0:
256,192,180739,1,8,0:0:0:0:
256,192,180798,1,0,0:0:0:0:
256,192,180916,1,8,0:0:0:0:
256,192,181033,1,0,0:0:0:0:
256,192,181269,1,0,0:0:0:0:
256,192,181328,1,8,0:0:0:0:
256,192,181386,1,0,0:0:0:0:
256,192,181504,1,0,0:0:0:0:
256,192,181622,1,0,0:0:0:0:
256,192,181680,1,0,0:0:0:0:
256,192,181739,1,8,0:0:0:0:
256,192,181857,1,0,0:0:0:0:
256,192,181974,1,0,0:0:0:0:
256,192,182092,1,8,0:0:0:0:
256,192,182210,1,0,0:0:0:0:
256,192,182327,1,0,0:0:0:0:
256,192,182386,1,0,0:0:0:0:
256,192,182445,1,8,0:0:0:0:
256,192,182563,1,8,0:0:0:0:
256,192,182680,1,0,0:0:0:0:
160,192,182798,2,0,L|160:96,8,70
256,192,183856,1,8,0:0:0:0:
256,192,183974,1,8,0:0:0:0:
256,192,184092,1,0,0:0:0:0:
256,192,184209,1,0,0:0:0:0:
256,192,184327,1,8,0:0:0:0:
256,192,184445,1,0,0:0:0:0:
256,192,184562,1,0,0:0:0:0:
256,192,184680,1,8,0:0:0:0:
160,192,184798,2,0,L|160:96,10,70
256,192,186092,1,8,0:0:0:0:
256,192,186327,1,8,0:0:0:0:
256,192,186445,1,0,0:0:0:0:
256,192,186562,1,8,0:0:0:0:
256,192,186680,1,0,0:0:0:0:
256,192,186798,1,8,0:0:0:0:
256,192,186915,1,0,0:0:0:0:
256,192,186974,1,0,0:0:0:0:
256,192,187033,1,8,0:0:0:0:
256,192,187150,1,0,0:0:0:0:
256,192,187209,1,0,0:0:0:0:
256,192,187268,1,8,0:0:0:0:
256,192,187327,1,8,0:0:0:0:
256,192,187386,1,0,0:0:0:0:
256,192,187445,1,0,0:0:0:0:
256,192,187503,1,8,0:0:0:0:
256,192,187562,1,0,0:0:0:0:
256,192,187621,1,0,0:0:0:0:
256,192,187680,1,0,0:0:0:0:
256,192,187739,1,8,0:0:0:0:
256,192,187798,1,8,0:0:0:0:
256,192,187856,1,0,0:0:0:0:
256,192,187915,1,0,0:0:0:0:
256,192,187974,1,8,0:0:0:0:
256,192,188209,1,8,0:0:0:0:
256,192,188327,1,8,0:0:0:0:
256,192,188445,1,0,0:0:0:0:
256,192,188562,1,0,0:0:0:0:
256,192,188680,1,8,0:0:0:0:
256,192,188798,1,0,0:0:0:0:
256,192,188915,1,8,0:0:0:0:
256,192,189150,1,0,0:0:0:0:
256,192,189268,1,0,0:0:0:0:
192,192,189385,2,0,L|192:96,8,70
256,192,190562,1,0,0:0:0:0:
256,192,190650,1,0,0:0:0:0:
256,192,190739,1,8,0:0:0:0:
256,192,190827,1,8,0:0:0:0:
256,192,190915,1,0,0:0:0:0:
256,192,191003,1,0,0:0:0:0:
256,192,191092,1,8,0:0:0:0:
256,192,191180,1,8,0:0:0:0:
256,192,191268,1,0,0:0:0:0:
256,192,191356,1,0,0:0:0:0:
256,192,191445,1,8,0:0:0:0:
256,192,191533,1,8,0:0:0:0:
256,192,191621,1,8,0:0:0:0:
256,192,191709,1,0,0:0:0:0:
256,192,191798,1,0,0:0:0:0:
256,192,191886,1,0,0:0:0:0:
256,192,191974,1,8,0:0:0:0:
256,192,192062,1,0,0:0:0:0:
256,192,192150,1,0,0:0:0:0:
256,192,192239,1,0,0:0:0:0:
256,192,192327,1,8,0:0:0:0:
256,192,192415,1,0,0:0:0:0:
256,192,192503,1,8,0:0:0:0:
256,192,192592,1,0,0:0:0:0:
256,192,192680,1,8,0:0:0:0:
256,192,192798,1,0,0:0:0:0:
256,192,192856,1,0,0:0:0:0:
256,192,192915,1,8,0:0:0:0:
256,192,193033,1,8,0:0:0:0:
256,192,193092,1,0,0:0:0:0:
256,192,193150,1,0,0:0:0:0:
256,192,193268,1,0,0:0:0:0:
256,192,193386,1,8,0:0:0:0:
256,192,193503,1,0,0:0:0:0:
256,192,193562,1,0,0:0:0:0:
256,192,193621,1,8,0:0:0:0:
256,192,193739,1,8,0:0:0:0:
256,192,193798,1,0,0:0:0:0:
256,192,193856,1,0,0:0:0:0:
256,192,193974,1,0,0:0:0:0:
256,192,194092,1,8,0:0:0:0:
256,192,194150,1,0,0:0:0:0:
256,192,194209,1,8,0:0:0:0:
256,192,194327,1,0,0:0:0:0:
256,192,194445,1,8,0:0:0:0:
256,192,194503,1,0,0:0:0:0:
256,192,194562,1,8,0:0:0:0:
256,192,194621,1,8,0:0:0:0:
256,192,194680,1,0,0:0:0:0:
256,192,194798,1,8,0:0:0:0:
256,192,194856,1,8,0:0:0:0:
256,192,194915,1,0,0:0:0:0:
256,192,195033,1,0,0:0:0:0:
256,192,195150,1,8,0:0:0:0:
256,192,195268,1,0,0:0:0:0:
256,192,195386,1,8,0:0:0:0:
256,192,195445,1,0,0:0:0:0:
256,192,195503,1,0,0:0:0:0:
256,192,195562,1,0,0:0:0:0:
256,192,195621,1,8,0:0:0:0:
256,192,195739,12,0,198680,0:0:0:0:
256,192,198798,5,8,0:0:0:0:
256,192,198915,1,0,0:0:0:0:
256,192,199033,1,0,0:0:0:0:
256,192,199150,1,0,0:0:0:0:
256,192,199268,1,0,0:0:0:0:
256,192,199386,1,8,0:0:0:0:
256,192,199503,1,8,0:0:0:0:
256,192,199621,1,0,0:0:0:0:
256,192,199739,1,0,0:0:0:0:
256,192,199856,1,0,0:0:0:0:
256,192,199974,1,0,0:0:0:0:
256,192,200092,1,8,0:0:0:0:
256,192,200209,1,8,0:0:0:0:
256,192,200327,1,0,0:0:0:0:
256,192,200445,1,0,0:0:0:0:
256,192,200562,1,0,0:0:0:0:
256,192,200680,1,0,0:0:0:0:
256,192,200798,1,8,0:0:0:0:
256,192,200915,1,0,0:0:0:0:
256,192,201033,1,8,0:0:0:0:
256,192,201150,1,0,0:0:0:0:
256,192,201209,1,8,0:0:0:0:
256,192,201268,1,0,0:0:0:0:
256,192,201386,1,0,0:0:0:0:
256,192,201503,1,8,0:0:0:0:
256,192,201621,1,8,0:0:0:0:
256,192,201739,1,0,0:0:0:0:
256,192,201856,1,0,0:0:0:0:
256,192,201974,1,8,0:0:0:0:
256,192,202092,1,0,0:0:0:0:
256,192,202209,1,8,0:0:0:0:
256,192,202327,1,8,0:0:0:0:
256,192,202445,1,0,0:0:0:0:
256,192,202562,1,0,0:0:0:0:
256,192,202680,1,8,0:0:0:0:
256,192,202798,1,0,0:0:0:0:
256,192,202915,1,8,0:0:0:0:
256,192,203033,1,8,0:0:0:0:
256,192,203092,1,8,0:0:0:0:
256,192,203150,1,0,0:0:0:0:
256,192,203209,1,0,0:0:0:0:
256,192,203268,1,8,0:0:0:0:
256,192,203327,1,0,0:0:0:0:
256,192,203386,1,0,0:0:0:0:
256,192,203445,1,8,0:0:0:0:
256,192,203503,1,8,0:0:0:0:
256,192,203562,1,0,0:0:0:0:
256,192,203621,1,0,0:0:0:0:
256,192,203680,1,8,0:0:0:0:
256,192,203739,1,0,0:0:0:0:
256,192,203798,1,8,0:0:0:0:
256,192,203856,1,8,0:0:0:0:
256,192,203915,1,0,0:0:0:0:
256,192,203974,1,0,0:0:0:0:
256,192,204033,1,8,0:0:0:0:
256,192,204092,1,0,0:0:0:0:
256,192,204150,1,0,0:0:0:0:
256,192,204209,1,8,0:0:0:0:
256,192,204268,1,0,0:0:0:0:
256,192,204327,1,0,0:0:0:0:
256,192,204386,1,8,0:0:0:0:
256,192,204445,1,0,0:0:0:0:
256,192,204562,1,0,0:0:0:0:
256,192,204680,1,8,0:0:0:0:
256,192,204798,1,8,0:0:0:0:
256,192,204915,1,0,0:0:0:0:
256,192,205033,1,8,0:0:0:0:
256,192,205150,1,8,0:0:0:0:
256,192,205268,1,0,0:0:0:0:
256,192,205386,1,8,0:0:0:0:
256,192,205503,1,8,0:0:0:0:
256,192,205621,1,0,0:0:0:0:
256,192,205739,1,8,0:0:0:0:
256,192,205856,1,8,0:0:0:0:
256,192,205974,1,0,0:0:0:0:
256,192,206092,1,0,0:0:0:0:
256,192,206209,1,8,0:0:0:0:
256,192,206327,1,0,0:0:0:0:
256,192,206445,1,0,0:0:0:0:
256,192,206562,1,8,0:0:0:0:
256,192,206717,1,8,0:0:0:0:
256,192,206795,1,0,0:0:0:0:
256,192,206873,1,0,0:0:0:0:
256,192,206952,1,8,0:0:0:0:
256,192,207030,1,0,0:0:0:0:
256,192,207109,1,8,0:0:0:0:
256,192,207187,1,8,0:0:0:0:
256,192,207268,1,8,0:0:0:0:
256,192,207385,1,8,0:0:0:0:
256,192,207503,1,0,0:0:0:0:
256,192,207621,1,8,0:0:0:0:
256,192,207739,1,8,0:0:0:0:
256,192,207856,1,0,0:0:0:0:
256,192,207974,1,8,0:0:0:0:
256,192,208092,1,0,0:0:0:0:
256,192,208209,1,8,0:0:0:0:
256,192,208327,1,8,0:0:0:0:
256,192,208445,1,8,0:0:0:0:
256,192,208562,1,0,0:0:0:0:
256,192,208680,1,8,0:0:0:0:
256,192,208798,1,8,0:0:0:0:
256,192,208915,1,0,0:0:0:0:
256,192,209033,1,8,0:0:0:0:
256,192,209150,1,0,0:0:0:0:
256,192,209268,1,0,0:0:0:0:
256,192,209386,1,8,0:0:0:0:
256,192,209503,1,0,0:0:0:0:
256,192,209621,1,0,0:0:0:0:
256,192,209739,1,8,0:0:0:0:
256,192,209797,1,8,0:0:0:0:
256,192,209856,1,8,0:0:0:0:
256,192,209974,1,0,0:0:0:0:
256,192,210092,1,8,0:0:0:0:
256,192,210209,1,0,0:0:0:0:
256,192,210327,1,0,0:0:0:0:
256,192,210444,1,8,0:0:0:0:
256,192,210532,1,8,0:0:0:0:
256,192,210620,1,0,0:0:0:0:
256,192,210709,1,0,0:0:0:0:
256,192,210797,1,8,0:0:0:0:
256,192,210885,1,0,0:0:0:0:
256,192,210973,1,8,0:0:0:0:
256,192,211062,1,8,0:0:0:0:
256,192,211150,1,0,0:0:0:0:
256,192,211238,1,8,0:0:0:0:
256,192,211326,1,0,0:0:0:0:
256,192,211415,1,0,0:0:0:0:
256,192,211503,1,8,0:0:0:0:
256,192,211620,1,0,0:0:0:0:
256,192,211739,1,0,0:0:0:0:
256,192,211856,1,8,0:0:0:0:
256,192,211974,1,8,0:0:0:0:
256,192,212092,1,8,0:0:0:0:
256,192,212209,1,0,0:0:0:0:
256,192,212445,1,0,0:0:0:0:
256,192,212562,1,8,0:0:0:0:
256,192,212798,1,0,0:0:0:0:
256,192,212915,1,0,0:0:0:0:
256,192,213033,1,8,0:0:0:0:
256,192,213150,1,0,0:0:0:0:
256,192,213268,1,8,0:0:0:0:
256,192,213503,1,0,0:0:0:0:
256,192,213621,1,8,0:0:0:0:
256,192,213680,1,8,0:0:0:0:
256,192,213739,1,8,0:0:0:0:
256,192,213856,1,0,0:0:0:0:
256,192,213974,1,8,0:0:0:0:
256,192,214092,1,0,0:0:0:0:
256,192,214150,1,0,0:0:0:0:
256,192,214209,1,0,0:0:0:0:
256,192,214268,1,0,0:0:0:0:
256,192,214327,1,8,0:0:0:0:
256,192,214445,1,0,0:0:0:0:
256,192,214563,1,0,0:0:0:0:
256,192,214680,1,8,0:0:0:0:
256,192,214798,1,8,0:0:0:0:
256,192,214916,1,0,0:0:0:0:
256,192,215033,1,8,0:0:0:0:
256,192,215092,1,8,0:0:0:0:
256,192,215151,1,0,0:0:0:0:
256,192,215210,1,0,0:0:0:0:
256,192,215269,1,8,0:0:0:0:
256,192,215386,1,8,0:0:0:0:
256,192,215504,1,0,0:0:0:0:
256,192,215622,1,8,0:0:0:0:
256,192,215680,1,0,0:0:0:0:
256,192,215739,1,8,0:0:0:0:
256,192,215857,1,0,0:0:0:0:
256,192,215975,1,8,0:0:0:0:
256,192,216092,1,0,0:0:0:0:
256,192,216209,1,8,0:0:0:0:
256,192,216326,1,0,0:0:0:0:
256,192,216444,1,8,0:0:0:0:
256,192,216561,1,8,0:0:0:0:
256,192,216650,1,8,0:0:0:0:
256,192,216738,1,0,0:0:0:0:
256,192,216826,1,0,0:0:0:0:
256,192,216914,1,8,0:0:0:0:
256,192,216993,1,8,0:0:0:0:
256,192,217071,1,0,0:0:0:0:
256,192,217150,1,8,0:0:0:0:
256,192,217268,1,8,0:0:0:0:
256,192,217385,1,0,0:0:0:0:
256,192,217503,1,0,0:0:0:0:
256,192,217621,1,8,0:0:0:0:
256,192,217739,1,0,0:0:0:0:
256,192,217856,1,8,0:0:0:0:
256,192,217915,1,8,0:0:0:0:
256,192,217974,1,0,0:0:0:0:
256,192,218091,1,0,0:0:0:0:
256,192,218150,1,0,0:0:0:0:
256,192,218209,1,8,0:0:0:0:
256,192,218327,1,8,0:0:0:0:
256,192,218444,1,0,0:0:0:0:
256,192,218562,1,8,0:0:0:0:
256,192,218640,1,8,0:0:0:0:
256,192,218719,1,0,0:0:0:0:
256,192,218797,1,8,0:0:0:0:
256,192,218876,1,8,0:0:0:0:
256,192,218954,1,0,0:0:0:0:
256,192,219032,1,8,0:0:0:0:
256,192,219111,1,8,0:0:0:0:
256,192,219189,1,0,0:0:0:0:
256,192,219268,1,8,0:0:0:0:
256,192,219327,1,8,0:0:0:0:
256,192,219385,1,0,0:0:0:0:
256,192,219503,1,0,0:0:0:0:
256,192,219562,1,0,0:0:0:0:
256,192,219621,1,8,0:0:0:0:
256,192,219738,1,8,0:0:0:0:
256,192,219797,1,8,0:0:0:0:
256,192,219856,1,0,0:0:0:0:
256,192,219974,1,12,0:0:0:0:
256,192,220091,1,0,0:0:0:0:
256,192,220209,1,0,0:0:0:0:
256,192,220327,1,12,0:0:0:0:
256,192,220444,1,0,0:0:0:0:
256,192,220503,1,0,0:0:0:0:
256,192,220562,1,0,0:0:0:0:
256,192,220679,1,8,0:0:0:0:
256,192,220798,1,8,0:0:0:0:
256,192,220915,1,0,0:0:0:0:
256,192,221033,1,8,0:0:0:0:
256,192,221150,1,0,0:0:0:0:
256,192,221209,1,0,0:0:0:0:
256,192,221268,1,0,0:0:0:0:
256,192,221386,1,8,0:0:0:0:
256,192,221503,1,0,0:0:0:0:
256,192,221621,1,0,0:0:0:0:
256,192,221739,1,8,0:0:0:0:
256,192,221856,1,0,0:0:0:0:
256,192,221915,1,0,0:0:0:0:
256,192,221974,1,0,0:0:0:0:
256,192,222091,1,8,0:0:0:0:
256,192,222209,1,0,0:0:0:0:
256,192,222268,1,0,0:0:0:0:
256,192,222327,1,0,0:0:0:0:
256,192,222445,1,8,0:0:0:0:
256,192,222562,1,0,0:0:0:0:
256,192,222621,1,0,0:0:0:0:
256,192,222679,1,0,0:0:0:0:
256,192,222738,1,0,0:0:0:0:
256,192,222797,1,8,0:0:0:0:
256,192,222875,1,0,0:0:0:0:
256,192,222954,1,0,0:0:0:0:
256,192,223032,1,8,0:0:0:0:
256,192,223150,1,8,0:0:0:0:
256,192,223268,1,8,0:0:0:0:
256,192,223326,1,8,0:0:0:0:
256,192,223385,1,0,0:0:0:0:
256,192,223503,1,8,0:0:0:0:
256,192,223621,1,8,0:0:0:0:
256,192,223739,1,0,0:0:0:0:
256,192,223856,1,8,0:0:0:0:
256,192,223974,1,8,0:0:0:0:
256,192,224032,1,8,0:0:0:0:
256,192,224092,1,0,0:0:0:0:
256,192,224209,1,8,0:0:0:0:
256,192,224327,1,8,0:0:0:0:
256,192,224445,1,0,0:0:0:0:
256,192,224562,1,8,0:0:0:0:
256,192,224680,1,0,0:0:0:0:
256,192,224739,1,0,0:0:0:0:
256,192,224798,1,0,0:0:0:0:
256,192,224856,1,0,0:0:0:0:
256,192,224915,1,8,0:0:0:0:
256,192,225033,1,8,0:0:0:0:
256,192,225150,1,0,0:0:0:0:
256,192,225268,1,8,0:0:0:0:
256,192,225386,1,0,0:0:0:0:
256,192,225445,1,0,0:0:0:0:
256,192,225503,1,0,0:0:0:0:
256,192,225562,1,0,0:0:0:0:
256,192,225621,1,8,0:0:0:0:
256,192,225699,1,0,0:0:0:0:
256,192,225777,1,0,0:0:0:0:
256,192,225856,1,8,0:0:0:0:
256,192,225974,1,8,0:0:0:0:
256,192,226091,1,0,0:0:0:0:
256,192,226209,1,8,0:0:0:0:
256,192,226268,1,8,0:0:0:0:
256,192,226326,1,8,0:0:0:0:
256,192,226444,1,0,0:0:0:0:
256,192,226561,1,8,0:0:0:0:
256,192,226679,1,8,0:0:0:0:
256,192,226797,1,0,0:0:0:0:
256,192,227032,1,8,0:0:0:0:
256,192,227149,1,0,0:0:0:0:
256,192,227209,1,0,0:0:0:0:
256,192,227267,1,0,0:0:0:0:
256,192,227385,1,8,0:0:0:0:
256,192,227503,1,0,0:0:0:0:
256,192,227737,1,8,0:0:0:0:
256,192,227855,1,0,0:0:0:0:
256,192,227915,1,0,0:0:0:0:
256,192,227973,1,8,0:0:0:0:
256,192,228091,1,8,0:0:0:0:
256,192,228209,1,0,0:0:0:0:
256,192,228444,1,8,0:0:0:0:
256,192,228561,1,0,0:0:0:0:
256,192,228679,1,0,0:0:0:0:
256,192,228797,1,8,0:0:0:0:
256,192,228914,1,8,0:0:0:0:
256,192,229032,1,0,0:0:0:0:
256,192,229149,1,8,0:0:0:0:
256,192,229267,1,0,0:0:0:0:
256,192,229385,1,8,0:0:0:0:
256,192,229502,1,8,0:0:0:0:
256,192,229620,1,0,0:0:0:0:
256,192,229738,1,0,0:0:0:0:
256,192,229858,1,8,0:0:0:0:
256,192,229975,1,8,0:0:0:0:
256,192,230093,1,0,0:0:0:0:
256,192,230210,1,0,0:0:0:0:
256,192,230328,1,8,0:0:0:0:
256,192,230407,1,0,0:0:0:0:
256,192,230485,1,0,0:0:0:0:
256,192,230563,1,8,0:0:0:0:
256,192,230642,1,0,0:0:0:0:
256,192,230720,1,0,0:0:0:0:
256,192,230799,1,12,0:0:0:0:
256,192,231151,1,8,0:0:0:0:
256,192,231269,1,8,0:0:0:0:
256,192,231387,1,0,0:0:0:0:
256,192,231504,1,12,0:0:0:0:
256,192,231622,1,0,0:0:0:0:
256,192,231740,1,0,0:0:0:0:
256,192,231857,1,8,0:0:0:0:
256,192,231975,1,0,0:0:0:0:
256,192,232093,1,0,0:0:0:0:
256,192,232210,1,12,0:0:0:0:
256,192,232445,1,0,0:0:0:0:
256,192,232503,1,0,0:0:0:0:
256,192,232562,1,0,0:0:0:0:
256,192,232915,1,8,0:0:0:0:
256,192,233032,1,8,0:0:0:0:
256,192,233091,1,8,0:0:0:0:
256,192,233150,1,0,0:0:0:0:
256,192,233209,1,0,0:0:0:0:
256,192,233267,1,0,0:0:0:0:
256,192,233326,1,0,0:0:0:0:
256,192,233385,1,8,0:0:0:0:
256,192,233464,1,0,0:0:0:0:
256,192,233542,1,0,0:0:0:0:
256,192,233620,1,8,0:0:0:0:
256,192,233699,1,0,0:0:0:0:
256,192,233777,1,0,0:0:0:0:
256,192,233856,1,8,0:0:0:0:
256,192,233973,1,0,0:0:0:0:
256,192,234207,1,8,0:0:0:0:
256,192,234266,1,0,0:0:0:0:
256,192,234325,1,8,0:0:0:0:
256,192,234443,1,0,0:0:0:0:
256,192,234560,1,8,0:0:0:0:
256,192,234795,1,0,0:0:0:0:
256,192,234913,1,0,0:0:0:0:
256,192,235031,1,8,0:0:0:0:
256,192,235266,1,0,0:0:0:0:
256,192,235501,1,8,0:0:0:0:
256,192,235736,1,0,0:0:0:0:
256,192,235854,1,0,0:0:0:0:
256,192,235972,1,8,0:0:0:0:
256,192,236207,1,0,0:0:0:0:
256,192,236325,1,0,0:0:0:0:
256,192,236442,1,8,0:0:0:0:
256,192,236678,1,0,0:0:0:0:
256,192,236913,1,8,0:0:0:0:
256,192,237148,1,8,0:0:0:0:
256,192,237266,1,0,0:0:0:0:
256,192,237384,1,8,0:0:0:0:
256,192,237501,1,0,0:0:0:0:
256,192,237619,1,8,0:0:0:0:
256,192,237854,1,8,0:0:0:0:
256,192,238089,1,8,0:0:0:0:
256,192,238207,1,0,0:0:0:0:
256,192,238442,1,8,0:0:0:0:
256,192,238678,1,0,0:0:0:0:
256,192,238913,1,8,0:0:0:0:
256,192,239148,1,0,0:0:0:0:
256,192,239384,1,8,0:0:0:0:
256,192,239619,1,0,0:0:0:0:
256,192,239854,1,8,0:0:0:0:
256,192,239972,1,8,0:0:0:0:
256,192,240089,1,0,0:0:0:0:
256,192,240325,1,8,0:0:0:0:
256,192,240442,1,8,0:0:0:0:
256,192,240560,1,0,0:0:0:0:
256,192,240678,1,8,0:0:0:0:
256,192,240795,1,8,0:0:0:0:
256,192,240913,1,0,0:0:0:0:
256,192,241148,1,0,0:0:0:0:
256,192,241266,1,8,0:0:0:0:
256,192,241384,1,8,0:0:0:0:
256,192,241501,1,0,0:0:0:0:
256,192,241619,1,8,0:0:0:0:
256,192,241678,1,8,0:0:0:0:
256,192,241736,1,8,0:0:0:0:
256,192,241854,1,0,0:0:0:0:
256,192,241972,1,0,0:0:0:0:
256,192,242031,1,0,0:0:0:0:
256,192,242089,1,0,0:0:0:0:
256,192,242207,1,0,0:0:0:0:
256,192,242325,1,8,0:0:0:0:
256,192,242442,1,8,0:0:0:0:
256,192,242501,1,8,0:0:0:0:
256,192,242560,1,8,0:0:0:0:
256,192,242678,1,0,0:0:0:0:
256,192,242795,1,8,0:0:0:0:
256,192,242913,1,0,0:0:0:0:
256,192,242972,1,0,0:0:0:0:
256,192,243031,1,0,0:0:0:0:
256,192,243148,1,0,0:0:0:0:
256,192,243266,1,8,0:0:0:0:
256,192,243384,1,8,0:0:0:0:
256,192,243442,1,0,0:0:0:0:
256,192,243501,1,0,0:0:0:0:
256,192,243619,1,0,0:0:0:0:
256,192,243678,1,0,0:0:0:0:
256,192,243736,1,8,0:0:0:0:
256,192,243854,1,8,0:0:0:0:
256,192,243913,1,8,0:0:0:0:
256,192,243972,1,8,0:0:0:0:
256,192,244089,1,0,0:0:0:0:
256,192,244207,1,0,0:0:0:0:
256,192,244325,1,8,0:0:0:0:
256,192,244384,1,8,0:0:0:0:
256,192,244442,1,8,0:0:0:0:
256,192,244560,1,8,0:0:0:0:
256,192,244619,1,0,0:0:0:0:
256,192,244678,1,0,0:0:0:0:
256,192,244796,1,0,0:0:0:0:
256,192,244854,1,0,0:0:0:0:
256,192,244913,1,8,0:0:0:0:
256,192,245031,1,0,0:0:0:0:
256,192,245148,1,0,0:0:0:0:
256,192,245266,1,8,0:0:0:0:
256,192,245325,1,8,0:0:0:0:
256,192,245384,1,8,0:0:0:0:
256,192,245501,1,0,0:0:0:0:
256,192,245619,1,8,0:0:0:0:
256,192,245737,1,8,0:0:0:0:
256,192,245796,1,0,0:0:0:0:
256,192,245854,1,0,0:0:0:0:
256,192,245972,1,0,0:0:0:0:
256,192,246090,1,8,0:0:0:0:
256,192,246207,1,0,0:0:0:0:
256,192,246266,1,0,0:0:0:0:
256,192,246325,1,0,0:0:0:0:
256,192,246443,1,8,0:0:0:0:
256,192,246560,1,0,0:0:0:0:
256,192,246678,1,0,0:0:0:0:
256,192,246737,1,0,0:0:0:0:
256,192,246796,1,0,0:0:0:0:
256,192,246913,1,0,0:0:0:0:
256,192,247031,1,8,0:0:0:0:
256,192,247148,1,8,0:0:0:0:
256,192,247207,1,0,0:0:0:0:
256,192,247266,1,0,0:0:0:0:
256,192,247384,1,0,0:0:0:0:
256,192,247501,1,8,0:0:0:0:
256,192,247619,1,8,0:0:0:0:
256,192,247678,1,8,0:0:0:0:
256,192,247737,1,0,0:0:0:0:
256,192,247796,1,0,0:0:0:0:
256,192,247854,1,8,0:0:0:0:
256,192,247972,1,0,0:0:0:0:
256,192,248090,1,8,0:0:0:0:
256,192,248148,1,8,0:0:0:0:
256,192,248207,1,0,0:0:0:0:
256,192,248266,1,0,0:0:0:0:
256,192,248325,1,8,0:0:0:0:
256,192,248443,1,0,0:0:0:0:
256,192,248560,1,8,0:0:0:0:
256,192,248678,1,0,0:0:0:0:
256,192,248737,1,0,0:0:0:0:
256,192,248796,1,8,0:0:0:0:
256,192,248913,1,0,0:0:0:0:
256,192,248972,1,0,0:0:0:0:
256,192,249031,1,8,0:0:0:0:
256,192,249148,1,0,0:0:0:0:
256,192,249266,1,8,0:0:0:0:
256,192,249325,1,8,0:0:0:0:
256,192,249384,1,0,0:0:0:0:
256,192,249443,1,0,0:0:0:0:
256,192,249502,1,0,0:0:0:0:
256,192,249854,1,0,0:0:0:0:
256,192,249972,1,0,0:0:0:0:
256,192,250090,1,0,0:0:0:0:
256,192,250207,1,12,0:0:0:0:
256,192,250325,1,0,0:0:0:0:
256,192,250443,1,0,0:0:0:0:
256,192,250560,1,0,0:0:0:0:
256,192,250678,1,0,0:0:0:0:
256,192,250796,1,0,0:0:0:0:
256,192,250913,1,4,0:0:0:0:
256,192,251148,1,0,0:0:0:0:
256,192,251207,1,0,0:0:0:0:
256,192,251266,1,0,0:0:0:0:
256,192,251618,1,8,0:0:0:0:
256,192,251736,1,8,0:0:0:0:
256,192,251854,1,8,0:0:0:0:
256,192,251971,1,4,0:0:0:0:
256,192,252090,1,0,0:0:0:0:
256,192,252208,1,0,0:0:0:0:
256,192,252324,1,0,0:0:0:0:
256,192,252443,1,0,0:0:0:0:
256,192,252561,1,0,0:0:0:0:
256,192,252679,1,12,0:0:0:0:
256,192,252914,1,0,0:0:0:0:
256,192,252973,1,0,0:0:0:0:
256,192,253031,1,0,0:0:0:0:
256,192,253090,1,0,0:0:0:0:
256,192,253149,1,8,0:0:0:0:
256,192,253384,1,0,0:0:0:0:
256,192,253443,1,0,0:0:0:0:
256,192,253502,1,8,0:0:0:0:
256,192,253620,1,8,0:0:0:0:
256,192,253737,1,8,0:0:0:0:
256,192,253855,1,8,0:0:0:0:
256,192,253973,1,0,0:0:0:0:
256,192,254091,1,8,0:0:0:0:
256,192,254208,1,8,0:0:0:0:
256,192,254326,1,0,0:0:0:0:
256,192,254444,1,0,0:0:0:0:
256,192,254561,1,8,0:0:0:0:
256,192,254679,1,8,0:0:0:0:
256,192,254796,1,0,0:0:0:0:
256,192,254914,1,0,0:0:0:0:
256,192,255032,1,8,0:0:0:0:
256,192,255110,1,0,0:0:0:0:
256,192,255189,1,0,0:0:0:0:
256,192,255267,1,8,0:0:0:0:
256,192,255346,1,0,0:0:0:0:
256,192,255424,1,0,0:0:0:0:
256,192,255502,1,8,0:0:0:0:
256,192,255620,1,8,0:0:0:0:
256,192,255738,1,0,0:0:0:0:
256,192,255855,1,0,0:0:0:0:
256,192,255973,1,8,0:0:0:0:
256,192,256091,1,8,0:0:0:0:
256,192,256208,1,0,0:0:0:0:
256,192,256326,1,0,0:0:0:0:
256,192,256443,1,8,0:0:0:0:
256,192,256522,1,0,0:0:0:0:
256,192,256600,1,0,0:0:0:0:
256,192,256678,1,8,0:0:0:0:
256,192,256757,1,0,0:0:0:0:
256,192,256836,1,0,0:0:0:0:
256,192,256914,5,12,0:0:0:0:
256,192,257149,1,0,0:0:0:0:
256,192,257266,1,0,0:0:0:0:
256,192,257384,1,8,0:0:0:0:
256,192,257619,1,8,0:0:0:0:
256,192,257855,1,0,0:0:0:0:
256,192,257972,1,0,0:0:0:0:
256,192,258089,1,8,0:0:0:0:
256,192,258325,1,8,0:0:0:0:
256,192,258560,1,8,0:0:0:0:
256,192,258678,1,8,0:0:0:0:
256,192,258795,1,0,0:0:0:0:
256,192,259030,1,8,0:0:0:0:
256,192,259265,1,0,0:0:0:0:
256,192,259383,1,0,0:0:0:0:
256,192,259501,1,8,0:0:0:0:
256,192,259736,1,8,0:0:0:0:
256,192,259971,1,8,0:0:0:0:
256,192,260089,1,0,0:0:0:0:
256,192,260325,1,0,0:0:0:0:
256,192,260442,1,8,0:0:0:0:
256,192,260677,1,0,0:0:0:0:
256,192,260795,1,0,0:0:0:0:
256,192,260913,1,8,0:0:0:0:
256,192,261148,1,8,0:0:0:0:
256,192,261383,1,8,0:0:0:0:
256,192,261501,1,0,0:0:0:0:
256,192,261854,1,8,0:0:0:0:
256,192,262090,1,0,0:0:0:0:
256,192,262325,1,8,0:0:0:0:
256,192,262443,1,8,0:0:0:0:
256,192,262561,1,4,0:0:0:0:
256,192,262796,1,0,0:0:0:0:
256,192,262914,1,8,0:0:0:0:
256,192,263149,1,8,0:0:0:0:
256,192,263266,1,0,0:0:0:0:
256,192,263502,1,0,0:0:0:0:
256,192,263619,1,0,0:0:0:0:
256,192,263737,1,8,0:0:0:0:
256,192,263972,1,8,0:0:0:0:
256,192,264208,1,0,0:0:0:0:
256,192,264443,1,8,0:0:0:0:
256,192,264678,1,0,0:0:0:0:
256,192,264914,1,8,0:0:0:0:
256,192,265149,1,0,0:0:0:0:
256,192,265266,1,8,0:0:0:0:
256,192,265619,1,0,0:0:0:0:
256,192,265855,1,8,0:0:0:0:
256,192,266090,1,0,0:0:0:0:
256,192,266325,1,8,0:0:0:0:
256,192,266561,1,0,0:0:0:0:
256,192,266619,1,0,0:0:0:0:
256,192,266678,1,0,0:0:0:0:
256,192,266737,1,0,0:0:0:0:
256,192,266796,1,8,0:0:0:0:
256,192,266914,1,8,0:0:0:0:
256,192,267031,1,0,0:0:0:0:
256,192,267149,1,0,0:0:0:0:
256,192,267266,1,8,0:0:0:0:
256,192,267384,1,8,0:0:0:0:
256,192,267502,1,0,0:0:0:0:
256,192,267619,1,0,0:0:0:0:
256,192,267737,1,8,0:0:0:0:
256,192,267815,1,8,0:0:0:0:
256,192,267894,1,8,0:0:0:0:
256,192,267972,1,0,0:0:0:0:
256,192,268051,1,0,0:0:0:0:
256,192,268129,1,0,0:0:0:0:
256,192,268208,1,12,0:0:0:0:
256,192,268443,1,0,0:0:0:0:
256,192,268678,1,8,0:0:0:0:
256,192,268914,1,0,0:0:0:0:
256,192,269149,1,8,0:0:0:0:
256,192,269384,1,0,0:0:0:0:
256,192,269502,1,8,0:0:0:0:
256,192,269737,1,8,0:0:0:0:
256,192,269855,1,0,0:0:0:0:
256,192,270090,1,8,0:0:0:0:
256,192,270325,1,0,0:0:0:0:
256,192,270561,1,8,0:0:0:0:
256,192,270796,1,0,0:0:0:0:
256,192,270914,1,8,0:0:0:0:
256,192,271266,1,0,0:0:0:0:
256,192,271502,1,8,0:0:0:0:
256,192,271737,1,0,0:0:0:0:
256,192,271972,1,8,0:0:0:0:
256,192,272208,1,0,0:0:0:0:
256,192,272325,1,0,0:0:0:0:
256,192,272443,1,8,0:0:0:0:
256,192,272561,1,8,0:0:0:0:
256,192,272678,1,0,0:0:0:0:
256,192,272796,1,8,0:0:0:0:
256,192,272914,1,0,0:0:0:0:
256,192,273031,1,8,0:0:0:0:
256,192,273149,1,8,0:0:0:0:
256,192,273266,1,0,0:0:0:0:
256,192,273384,1,8,0:0:0:0:
256,192,273443,1,8,0:0:0:0:
256,192,273502,1,0,0:0:0:0:
256,192,273560,1,0,0:0:0:0:
256,192,273619,1,8,0:0:0:0:
256,192,273737,1,0,0:0:0:0:
256,192,273796,1,0,0:0:0:0:
256,192,273855,1,8,0:0:0:0:
256,192,274090,1,0,0:0:0:0:
256,192,274325,1,8,0:0:0:0:
256,192,274561,1,0,0:0:0:0:
256,192,274796,1,8,0:0:0:0:
256,192,275031,1,0,0:0:0:0:
256,192,275149,1,8,0:0:0:0:
256,192,275384,1,8,0:0:0:0:
256,192,275502,1,0,0:0:0:0:
256,192,275737,1,8,0:0:0:0:
256,192,275972,1,0,0:0:0:0:
256,192,276208,1,8,0:0:0:0:
256,192,276443,1,0,0:0:0:0:
256,192,276561,1,8,0:0:0:0:
256,192,276914,1,0,0:0:0:0:
256,192,277149,1,8,0:0:0:0:
256,192,277384,1,0,0:0:0:0:
256,192,277619,1,8,0:0:0:0:
256,192,277737,1,8,0:0:0:0:
256,192,277855,1,0,0:0:0:0:
256,192,277914,1,0,0:0:0:0:
256,192,277972,1,0,0:0:0:0:
256,192,278090,1,8,0:0:0:0:
256,192,278149,1,0,0:0:0:0:
256,192,278208,1,0,0:0:0:0:
256,192,278326,1,8,0:0:0:0:
256,192,278444,1,0,0:0:0:0:
256,192,278562,1,8,0:0:0:0:
256,192,278679,1,0,0:0:0:0:
256,192,278738,1,0,0:0:0:0:
256,192,278797,1,8,0:0:0:0:
256,192,278915,1,8,0:0:0:0:
256,192,278973,1,8,0:0:0:0:
256,192,279032,1,0,0:0:0:0:
256,192,279150,1,0,0:0:0:0:
256,192,279267,1,8,0:0:0:0:
256,192,279385,1,0,0:0:0:0:
256,192,279502,1,12,0:0:0:0:
256,192,279737,1,0,0:0:0:0:
256,192,279972,1,0,0:0:0:0:
256,192,280208,1,8,0:0:0:0:
256,192,280443,1,0,0:0:0:0:
256,192,280678,1,0,0:0:0:0:
256,192,280796,1,8,0:0:0:0:
256,192,281149,1,0,0:0:0:0:
256,192,281384,1,8,0:0:0:0:
256,192,281619,1,0,0:0:0:0:
256,192,281855,1,8,0:0:0:0:
256,192,282090,1,0,0:0:0:0:
256,192,282208,1,8,0:0:0:0:
256,192,282443,1,8,0:0:0:0:
256,192,282561,1,0,0:0:0:0:
256,192,282678,1,8,0:0:0:0:
256,192,282796,1,0,0:0:0:0:
256,192,282914,1,8,0:0:0:0:
256,192,283031,1,0,0:0:0:0:
256,192,283149,1,8,0:0:0:0:
256,192,283266,1,8,0:0:0:0:
256,192,283502,1,0,0:0:0:0:
256,192,283619,1,8,0:0:0:0:
256,192,283855,1,8,0:0:0:0:
256,192,283972,1,0,0:0:0:0:
256,192,284090,1,8,0:0:0:0:
256,192,284208,1,0,0:0:0:0:
256,192,284325,1,0,0:0:0:0:
256,192,284443,1,8,0:0:0:0:
256,192,284561,1,0,0:0:0:0:
256,192,284678,1,0,0:0:0:0:
256,192,284796,1,8,0:0:0:0:
256,192,284914,1,0,0:0:0:0:
256,192,285149,1,8,0:0:0:0:
256,192,285384,1,0,0:0:0:0:
256,192,285619,1,8,0:0:0:0:
256,192,285854,1,0,0:0:0:0:
256,192,286089,1,8,0:0:0:0:
256,192,286324,1,0,0:0:0:0:
256,192,286442,1,8,0:0:0:0:
256,192,286795,1,0,0:0:0:0:
256,192,287030,1,8,0:0:0:0:
256,192,287265,1,0,0:0:0:0:
256,192,287501,1,8,0:0:0:0:
256,192,287736,1,0,0:0:0:0:
256,192,287854,1,8,0:0:0:0:
256,192,288207,1,0,0:0:0:0:
256,192,288442,1,8,0:0:0:0:
256,192,288677,1,0,0:0:0:0:
256,192,288913,1,8,0:0:0:0:
256,192,289148,1,0,0:0:0:0:
256,192,289383,1,8,0:0:0:0:
256,192,289501,1,8,0:0:0:0:
256,192,289618,1,8,0:0:0:0:
256,192,289736,1,0,0:0:0:0:
256,192,289854,1,0,0:0:0:0:
256,192,289972,1,0,0:0:0:0:
256,192,290031,1,0,0:0:0:0:
256,192,290090,1,8,0:0:0:0:
256,192,290208,1,8,0:0:0:0:
256,192,290325,1,0,0:0:0:0:
256,192,290443,1,0,0:0:0:0:
256,192,290502,1,0,0:0:0:0:
256,192,290561,1,8,0:0:0:0:
256,192,290678,1,0,0:0:0:0:
256,192,290796,1,12,0:0:0:0:
256,192,291031,1,8,0:0:0:0:
256,192,291148,1,8,0:0:0:0:
256,192,291266,1,0,0:0:0:0:
256,192,291383,1,8,0:0:0:0:
256,192,291501,1,8,0:0:0:0:
256,192,291619,1,8,0:0:0:0:
256,192,291737,1,4,0:0:0:0:
256,192,291972,1,0,0:0:0:0:
256,192,292090,1,0,0:0:0:0:
256,192,292207,1,8,0:0:0:0:
256,192,292325,1,0,0:0:0:0:
256,192,292443,1,0,0:0:0:0:
256,192,292560,1,0,0:0:0:0:
256,192,292678,1,12,0:0:0:0:
256,192,292913,1,8,0:0:0:0:
256,192,293031,1,0,0:0:0:0:
256,192,293148,1,8,0:0:0:0:
256,192,293266,1,0,0:0:0:0:
256,192,293384,1,0,0:0:0:0:
256,192,293501,1,8,0:0:0:0:
256,192,293619,1,4,0:0:0:0:
256,192,293854,1,0,0:0:0:0:
256,192,293972,1,8,0:0:0:0:
256,192,294090,1,0,0:0:0:0:
256,192,294207,1,8,0:0:0:0:
256,192,294325,1,8,0:0:0:0:
256,192,294443,1,0,0:0:0:0:
256,192,294560,1,12,0:0:0:0:
256,192,294796,1,8,0:0:0:0:
256,192,294913,1,8,0:0:0:0:
256,192,295031,1,0,0:0:0:0:
256,192,295147,1,8,0:0:0:0:
256,192,295266,1,0,0:0:0:0:
256,192,295384,1,8,0:0:0:0:
256,192,295500,1,4,0:0:0:0:
256,192,295737,1,0,0:0:0:0:
256,192,295854,1,0,0:0:0:0:
256,192,295972,1,8,0:0:0:0:
256,192,296090,1,0,0:0:0:0:
256,192,296206,1,8,0:0:0:0:
256,192,296325,1,0,0:0:0:0:
256,192,296443,1,12,0:0:0:0:
256,192,296678,1,0,0:0:0:0:
256,192,296796,1,8,0:0:0:0:
256,192,296913,1,8,0:0:0:0:
256,192,297031,1,0,0:0:0:0:
256,192,297148,1,8,0:0:0:0:
256,192,297266,1,8,0:0:0:0:
256,192,297384,1,4,0:0:0:0:
256,192,297619,1,8,0:0:0:0:
256,192,297737,1,0,0:0:0:0:
256,192,297854,1,0,0:0:0:0:
256,192,297972,1,8,0:0:0:0:
256,192,298090,1,0,0:0:0:0:
256,192,298207,1,0,0:0:0:0:
256,192,298325,1,12,0:0:0:0:
256,192,298560,1,8,0:0:0:0:
256,192,298677,1,0,0:0:0:0:
256,192,298796,1,8,0:0:0:0:
256,192,298874,1,0,0:0:0:0:
256,192,298952,1,0,0:0:0:0:
256,192,299031,1,8,0:0:0:0:
256,192,299109,1,0,0:0:0:0:
256,192,299188,1,0,0:0:0:0:
256,192,299266,1,8,0:0:0:0:
256,192,299345,1,0,0:0:0:0:
256,192,299423,1,0,0:0:0:0:
256,192,299501,1,8,0:0:0:0:
256,192,299619,1,8,0:0:0:0:
256,192,299737,1,0,0:0:0:0:
256,192,299854,1,8,0:0:0:0:
256,192,299972,1,8,0:0:0:0:
256,192,300090,1,8,0:0:0:0:
256,192,300207,1,0,0:0:0:0:
256,192,300325,1,0,0:0:0:0:
256,192,300384,1,0,0:0:0:0:
256,192,300442,1,8,0:0:0:0:
256,192,300560,1,0,0:0:0:0:
256,192,300678,1,8,0:0:0:0:
256,192,300795,1,8,0:0:0:0:
256,192,300854,1,8,0:0:0:0:
256,192,300913,1,0,0:0:0:0:
256,192,301031,1,0,0:0:0:0:
256,192,301148,1,8,0:0:0:0:
256,192,301206,1,8,0:0:0:0:
256,192,301265,1,0,0:0:0:0:
256,192,301324,1,8,0:0:0:0:
256,192,301383,1,0,0:0:0:0:
256,192,301500,1,0,0:0:0:0:
256,192,301619,1,0,0:0:0:0:
256,192,301678,1,0,0:0:0:0:
256,192,301737,1,8,0:0:0:0:
256,192,301796,1,0,0:0:0:0:
256,192,301853,1,8,0:0:0:0:
256,192,301972,1,0,0:0:0:0:
256,192,302031,1,0,0:0:0:0:
256,192,302090,1,8,0:0:0:0:
256,192,302207,1,0,0:0:0:0:
256,192,302325,1,8,0:0:0:0:
256,192,302443,1,0,0:0:0:0:
256,192,302560,1,8,0:0:0:0:
256,192,302678,1,8,0:0:0:0:
256,192,302796,1,0,0:0:0:0:
256,192,302913,1,8,0:0:0:0:
256,192,303031,1,0,0:0:0:0:
256,192,303148,1,8,0:0:0:0:
256,192,303266,1,8,0:0:0:0:
256,192,303384,1,0,0:0:0:0:
256,192,303501,1,8,0:0:0:0:
256,192,303618,1,8,0:0:0:0:
256,192,303737,1,0,0:0:0:0:
256,192,303854,1,8,0:0:0:0:
256,192,303972,1,0,0:0:0:0:
256,192,304090,1,8,0:0:0:0:
256,192,304207,1,8,0:0:0:0:
256,192,304325,1,0,0:0:0:0:
256,192,304443,1,8,0:0:0:0:
256,192,304560,1,8,0:0:0:0:
256,192,304678,1,0,0:0:0:0:
256,192,304796,1,8,0:0:0:0:
256,192,304912,1,0,0:0:0:0:
256,192,305030,1,8,0:0:0:0:
256,192,305148,1,8,0:0:0:0:
256,192,305265,1,0,0:0:0:0:
256,192,305383,1,8,0:0:0:0:
256,192,305501,1,8,0:0:0:0:
256,192,305618,1,0,0:0:0:0:
256,192,305737,1,8,0:0:0:0:
256,192,305854,1,0,0:0:0:0:
256,192,305972,1,8,0:0:0:0:
256,192,306090,1,8,0:0:0:0:
256,192,306208,1,0,0:0:0:0:
256,192,306325,1,8,0:0:0:0:
256,192,306443,1,8,0:0:0:0:
256,192,306561,1,0,0:0:0:0:
256,192,306678,1,8,0:0:0:0:
256,192,306796,1,8,0:0:0:0:
256,192,306874,1,0,0:0:0:0:
256,192,306953,1,0,0:0:0:0:
256,192,307031,1,8,0:0:0:0:
256,192,307110,1,0,0:0:0:0:
256,192,307188,1,0,0:0:0:0:
256,192,307266,1,8,0:0:0:0:
256,192,307345,1,0,0:0:0:0:
256,192,307423,1,0,0:0:0:0:
256,192,307502,1,8,0:0:0:0:
256,192,307580,1,0,0:0:0:0:
256,192,307658,1,0,0:0:0:0:
256,192,307737,1,8,0:0:0:0:
256,192,307854,1,8,0:0:0:0:
256,192,307972,1,8,0:0:0:0:
256,192,308090,1,0,0:0:0:0:
256,192,308207,1,8,0:0:0:0:
256,192,308326,1,8,0:0:0:0:
256,192,308443,1,0,0:0:0:0:
256,192,308501,1,0,0:0:0:0:
256,192,308561,1,8,0:0:0:0:
256,192,308679,1,0,0:0:0:0:
256,192,308737,1,0,0:0:0:0:
256,192,308796,1,8,0:0:0:0:
256,192,308914,1,8,0:0:0:0:
256,192,309031,1,0,0:0:0:0:
256,192,309149,1,8,0:0:0:0:
256,192,309267,1,8,0:0:0:0:
256,192,309385,1,0,0:0:0:0:
256,192,309443,1,0,0:0:0:0:
256,192,309502,1,8,0:0:0:0:
256,192,309620,1,0,0:0:0:0:
256,192,309678,1,0,0:0:0:0:
256,192,309737,1,8,0:0:0:0:
256,192,309855,1,8,0:0:0:0:
256,192,309973,1,0,0:0:0:0:
256,192,310090,1,8,0:0:0:0:
256,192,310208,1,8,0:0:0:0:
256,192,310326,1,0,0:0:0:0:
256,192,310384,1,0,0:0:0:0:
256,192,310443,1,8,0:0:0:0:
256,192,310561,1,0,0:0:0:0:
256,192,310619,1,0,0:0:0:0:
256,192,310679,1,8,0:0:0:0:
256,192,310796,1,8,0:0:0:0:
256,192,310914,1,0,0:0:0:0:
256,192,311031,1,8,0:0:0:0:
256,192,311149,1,0,0:0:0:0:
256,192,311207,1,0,0:0:0:0:
256,192,311266,1,8,0:0:0:0:
256,192,311384,1,0,0:0:0:0:
256,192,311502,1,8,0:0:0:0:
256,192,311619,1,0,0:0:0:0:
256,192,311678,1,0,0:0:0:0:
256,192,311737,1,8,0:0:0:0:
256,192,311855,1,0,0:0:0:0:
256,192,311972,1,0,0:0:0:0:
256,192,312090,1,8,0:0:0:0:
256,192,312208,1,8,0:0:0:0:
256,192,312266,1,8,0:0:0:0:
256,192,312325,1,0,0:0:0:0:
256,192,312443,1,8,0:0:0:0:
256,192,312561,1,8,0:0:0:0:
256,192,312619,1,8,0:0:0:0:
256,192,312678,1,8,0:0:0:0:
256,192,312796,1,0,0:0:0:0:
256,192,312914,1,8,0:0:0:0:
256,192,313031,1,8,0:0:0:0:
256,192,313090,1,8,0:0:0:0:
256,192,313149,1,0,0:0:0:0:
256,192,313266,1,0,0:0:0:0:
256,192,313325,1,0,0:0:0:0:
256,192,313384,1,8,0:0:0:0:
256,192,313736,1,8,0:0:0:0:
256,192,313854,1,8,0:0:0:0:
256,192,313972,1,8,0:0:0:0:
256,192,314089,1,4,0:0:0:0:
256,192,314207,1,0,0:0:0:0:
256,192,314325,1,0,0:0:0:0:
256,192,314442,1,0,0:0:0:0:
256,192,314560,1,0,0:0:0:0:
256,192,314678,1,0,0:0:0:0:
256,192,314795,1,12,0:0:0:0:
256,192,315031,1,0,0:0:0:0:
256,192,315089,1,0,0:0:0:0:
256,192,315148,1,0,0:0:0:0:
256,192,315501,1,8,0:0:0:0:
256,192,315560,1,8,0:0:0:0:
256,192,315619,1,8,0:0:0:0:
256,192,315736,1,8,0:0:0:0:
256,192,315854,1,8,0:0:0:0:
256,192,315913,1,8,0:0:0:0:
256,192,315971,1,0,0:0:0:0:
256,192,316089,1,0,0:0:0:0:
256,192,316207,1,8,0:0:0:0:
256,192,316324,1,0,0:0:0:0:
256,192,316383,1,0,0:0:0:0:
256,192,316442,1,8,0:0:0:0:
256,192,316501,1,8,0:0:0:0:
256,192,316560,1,8,0:0:0:0:
256,192,316795,1,0,0:0:0:0:
256,192,316854,1,0,0:0:0:0:
256,192,316912,1,0,0:0:0:0:
256,192,317147,1,8,0:0:0:0:
256,192,317206,1,8,0:0:0:0:
256,192,317264,1,8,0:0:0:0:
256,192,317382,1,0,0:0:0:0:
256,192,317500,1,0,0:0:0:0:
256,192,317559,1,0,0:0:0:0:
256,192,317617,1,0,0:0:0:0:
256,192,317735,1,0,0:0:0:0:
256,192,317853,1,8,0:0:0:0:
256,192,317970,1,8,0:0:0:0:
256,192,318029,1,8,0:0:0:0:
256,192,318088,1,8,0:0:0:0:
256,192,318206,1,8,0:0:0:0:
256,192,318323,1,8,0:0:0:0:
256,192,318441,1,8,0:0:0:0:
256,192,318559,1,0,0:0:0:0:
256,192,318676,1,0,0:0:0:0:
256,192,318794,1,0,0:0:0:0:
256,192,318912,1,8,0:0:0:0:
256,192,318970,1,8,0:0:0:0:
256,192,319029,1,0,0:0:0:0:
256,192,319088,1,0,0:0:0:0:
256,192,319147,1,8,0:0:0:0:
256,192,319264,1,0,0:0:0:0:
256,192,319382,1,8,0:0:0:0:
256,192,319500,1,8,0:0:0:0:
256,192,319559,1,8,0:0:0:0:
256,192,319617,1,8,0:0:0:0:
256,192,319676,1,8,0:0:0:0:
256,192,319735,1,0,0:0:0:0:
256,192,319853,1,8,0:0:0:0:
256,192,319970,1,8,0:0:0:0:
256,192,320088,1,0,0:0:0:0:
256,192,320206,1,8,0:0:0:0:
256,192,320323,1,0,0:0:0:0:
256,192,320441,1,0,0:0:0:0:
256,192,320559,1,8,0:0:0:0:
256,192,320676,1,0,0:0:0:0:
256,192,320794,1,8,0:0:0:0:
256,192,320853,1,8,0:0:0:0:
256,192,320912,1,8,0:0:0:0:
256,192,321029,1,8,0:0:0:0:
256,192,321147,1,8,0:0:0:0:
256,192,321264,1,0,0:0:0:0:
256,192,321382,1,0,0:0:0:0:
256,192,321500,1,8,0:0:0:0:
256,192,321559,1,8,0:0:0:0:
256,192,321617,1,0,0:0:0:0:
256,192,321735,1,0,0:0:0:0:
256,192,321853,1,0,0:0:0:0:
256,192,321970,1,0,0:0:0:0:
256,192,322088,1,8,0:0:0:0:
256,192,322147,1,8,0:0:0:0:
256,192,322206,1,8,0:0:0:0:
256,192,322323,1,0,0:0:0:0:
256,192,322441,1,0,0:0:0:0:
256,192,322559,1,0,0:0:0:0:
256,192,322676,1,8,0:0:0:0:
256,192,322794,1,0,0:0:0:0:
256,192,322912,1,0,0:0:0:0:
256,192,323029,1,8,0:0:0:0:
256,192,323264,1,0,0:0:0:0:
256,192,323382,1,8,0:0:0:0:
256,192,323500,1,0,0:0:0:0:
256,192,323617,1,8,0:0:0:0:
256,192,323676,1,8,0:0:0:0:
256,192,323735,1,8,0:0:0:0:
256,192,323853,1,0,0:0:0:0:
256,192,323970,1,8,0:0:0:0:
256,192,324088,1,0,0:0:0:0:
256,192,324206,1,8,0:0:0:0:
256,192,324264,1,8,0:0:0:0:
256,192,324323,1,8,0:0:0:0:
160,192,324441,2,0,L|160:96,5,70
256,192,325147,1,8,0:0:0:0:
256,192,325235,1,8,0:0:0:0:
256,192,325323,1,0,0:0:0:0:
256,192,325412,1,8,0:0:0:0:
256,192,325500,1,0,0:0:0:0:
256,192,325588,1,0,0:0:0:0:
256,192,325676,1,0,0:0:0:0:
256,192,325764,1,0,0:0:0:0:
256,192,325853,1,8,0:0:0:0:
256,192,326088,1,8,0:0:0:0:
256,192,326323,1,8,0:0:0:0:
256,192,326441,1,0,0:0:0:0:
256,192,326559,1,0,0:0:0:0:
256,192,326676,1,8,0:0:0:0:
256,192,326794,1,0,0:0:0:0:
256,192,326912,1,0,0:0:0:0:
256,192,327029,1,8,0:0:0:0:
256,192,327147,1,0,0:0:0:0:
256,192,327264,1,0,0:0:0:0:
256,192,327382,1,8,0:0:0:0:
256,192,327500,1,0,0:0:0:0:
256,192,327617,1,0,0:0:0:0:
256,192,327735,1,8,0:0:0:0:
256,192,327970,1,8,0:0:0:0:
256,192,328206,1,8,0:0:0:0:
256,192,328323,5,8,0:0:0:0:
256,192,328441,1,8,0:0:0:0:
256,192,328500,1,0,0:0:0:0:
256,192,328559,1,0,0:0:0:0:
256,192,328676,1,0,0:0:0:0:
256,192,328794,1,8,0:0:0:0:
256,192,328853,1,0,0:0:0:0:
256,192,328912,1,0,0:0:0:0:
256,192,329029,1,0,0:0:0:0:
256,192,329147,1,8,0:0:0:0:
256,192,329206,1,8,0:0:0:0:
256,192,329264,1,0,0:0:0:0:
256,192,329382,1,8,0:0:0:0:
256,192,329441,1,8,0:0:0:0:
256,192,329500,1,0,0:0:0:0:
256,192,329617,1,8,0:0:0:0:
256,192,329676,1,8,0:0:0:0:
256,192,329735,1,0,0:0:0:0:
256,192,329853,1,0,0:0:0:0:
256,192,329970,1,0,0:0:0:0:
256,192,330029,1,8,0:0:0:0:
256,192,330088,1,0,0:0:0:0:
256,192,330206,1,8,0:0:0:0:
256,192,330323,1,8,0:0:0:0:
256,192,330382,1,0,0:0:0:0:
256,192,330441,1,8,0:0:0:0:
256,192,330559,1,0,0:0:0:0:
256,192,330637,1,0,0:0:0:0:
256,192,330715,1,8,0:0:0:0:
256,192,330794,1,0,0:0:0:0:
256,192,330872,1,8,0:0:0:0:
256,192,330951,1,0,0:0:0:0:
256,192,331029,1,8,0:0:0:0:
256,192,331108,1,0,0:0:0:0:
256,192,331186,1,8,0:0:0:0:
256,192,331264,1,0,0:0:0:0:
256,192,331343,1,8,0:0:0:0:
256,192,331421,1,0,0:0:0:0:
256,192,331500,1,8,0:0:0:0:
256,192,331578,1,0,0:0:0:0:
256,192,331657,1,8,0:0:0:0:
256,192,331853,1,8,0:0:0:0:
256,192,331970,1,0,0:0:0:0:
256,192,332088,1,0,0:0:0:0:
256,192,332206,1,8,0:0:0:0:
256,192,332323,1,0,0:0:0:0:
256,192,332441,1,8,0:0:0:0:
256,192,332559,1,0,0:0:0:0:
256,192,332676,1,8,0:0:0:0:
256,192,332794,1,0,0:0:0:0:
256,192,332912,1,8,0:0:0:0:
256,192,333029,1,8,0:0:0:0:
256,192,333147,1,8,0:0:0:0:
256,192,333264,1,0,0:0:0:0:
256,192,333382,1,8,0:0:0:0:
256,192,333500,1,0,0:0:0:0:
256,192,333617,1,8,0:0:0:0:
256,192,333735,1,8,0:0:0:0:
256,192,333853,1,0,0:0:0:0:
256,192,333970,1,0,0:0:0:0:
256,192,334088,1,8,0:0:0:0:
256,192,334206,1,0,0:0:0:0:
256,192,334323,1,8,0:0:0:0:
256,192,334441,1,0,0:0:0:0:
256,192,334559,1,8,0:0:0:0:
256,192,334676,1,8,0:0:0:0:
256,192,334794,1,8,0:0:0:0:
256,192,334912,1,0,0:0:0:0:
256,192,335029,1,8,0:0:0:0:
256,192,335147,1,0,0:0:0:0:
256,192,335264,1,8,0:0:0:0:
256,192,335382,1,0,0:0:0:0:
256,192,335500,1,8,0:0:0:0:
256,192,335559,1,0,0:0:0:0:
256,192,335617,1,8,0:0:0:0:
256,192,335735,1,8,0:0:0:0:
256,192,335813,1,0,0:0:0:0:
256,192,335892,1,0,0:0:0:0:
256,192,335970,1,8,0:0:0:0:
256,192,336049,1,0,0:0:0:0:
256,192,336127,1,0,0:0:0:0:
256,192,336206,1,8,0:0:0:0:
256,192,336284,1,0,0:0:0:0:
256,192,336362,1,8,0:0:0:0:
256,192,336441,1,8,0:0:0:0:
256,192,336519,1,8,0:0:0:0:
256,192,336598,1,0,0:0:0:0:
256,192,336676,1,8,0:0:0:0:
256,192,336755,1,8,0:0:0:0:
256,192,336833,1,0,0:0:0:0:
256,192,336912,1,8,0:0:0:0:
256,192,336990,1,0,0:0:0:0:
256,192,337068,1,0,0:0:0:0:
256,192,337147,1,8,0:0:0:0:
256,192,337225,1,0,0:0:0:0:
256,192,337304,1,8,0:0:0:0:
256,192,337382,1,8,0:0:0:0:
160,192,337500,2,0,L|160:128,14,35
256,192,338442,1,8,0:0:0:0:
256,192,338560,1,8,0:0:0:0:
256,192,338677,1,0,0:0:0:0:
256,192,338795,1,8,0:0:0:0:
256,192,338913,1,0,0:0:0:0:
256,192,339030,1,8,0:0:0:0:
256,192,339148,1,0,0:0:0:0:
256,192,339265,1,8,0:0:0:0:
256,192,339383,1,0,0:0:0:0:
256,192,339501,1,8,0:0:0:0:
256,192,339618,1,8,0:0:0:0:
256,192,339736,1,0,0:0:0:0:
256,192,339854,1,8,0:0:0:0:
256,192,339971,1,0,0:0:0:0:
256,192,340089,1,0,0:0:0:0:
256,192,340207,1,8,0:0:0:0:
256,192,340324,1,0,0:0:0:0:
256,192,340442,1,0,0:0:0:0:
256,192,340560,1,8,0:0:0:0:
256,192,340677,1,0,0:0:0:0:
256,192,340794,1,8,0:0:0:0:
256,192,340912,1,8,0:0:0:0:
256,192,341029,1,0,0:0:0:0:
256,192,341147,1,0,0:0:0:0:
256,192,341206,1,0,0:0:0:0:
256,192,341264,1,8,0:0:0:0:
256,192,341323,1,0,0:0:0:0:
256,192,341382,1,8,0:0:0:0:
256,192,341500,1,8,0:0:0:0:
256,192,341617,1,0,0:0:0:0:
256,192,341735,1,8,0:0:0:0:
256,192,341853,1,0,0:0:0:0:
256,192,341970,1,8,0:0:0:0:
256,192,342088,1,0,0:0:0:0:
256,192,342205,1,8,0:0:0:0:
256,192,342322,1,0,0:0:0:0:
256,192,342440,1,8,0:0:0:0:
256,192,342558,1,0,0:0:0:0:
256,192,342675,1,8,0:0:0:0:
160,192,342794,2,0,L|160:128,6,35
256,192,343264,1,0,0:0:0:0:
256,192,343323,1,0,0:0:0:0:
256,192,343382,1,0,0:0:0:0:
256,192,343441,1,8,0:0:0:0:
256,192,343500,1,0,0:0:0:0:
256,192,343559,1,8,0:0:0:0:
256,192,343617,1,8,0:0:0:0:
256,192,343676,1,8,0:0:0:0:
256,192,343735,1,0,0:0:0:0:
256,192,343794,1,8,0:0:0:0:
256,192,343853,1,0,0:0:0:0:
256,192,343912,1,8,0:0:0:0:
256,192,343970,1,0,0:0:0:0:
256,192,344029,1,8,0:0:0:0:
256,192,344088,1,8,0:0:0:0:
256,192,344147,1,8,0:0:0:0:
256,192,344206,1,0,0:0:0:0:
256,192,344382,1,8,0:0:0:0:
256,192,344559,1,8,0:0:0:0:
256,192,344676,1,8,0:0:0:0:
256,192,344794,1,0,0:0:0:0:
256,192,344912,1,8,0:0:0:0:
256,192,344970,1,8,0:0:0:0:
256,192,345029,1,0,0:0:0:0:
256,192,345147,1,8,0:0:0:0:
256,192,345382,1,0,0:0:0:0:
256,192,345500,1,8,0:0:0:0:
256,192,345735,1,0,0:0:0:0:
256,192,345853,1,8,0:0:0:0:
256,192,345970,1,8,0:0:0:0:
256,192,346088,1,0,0:0:0:0:
256,192,346206,1,8,0:0:0:0:
256,192,346323,1,0,0:0:0:0:
256,192,346441,1,0,0:0:0:0:
256,192,346559,1,8,0:0:0:0:
192,192,346676,2,0,L|192:96,2,70
256,192,347029,5,12,0:0:0:0:
256,192,347382,1,4,0:0:0:0:
256,192,347735,1,12,0:0:0:0:
256,192,348088,1,4,0:0:0:0:
256,192,348441,1,12,0:0:0:0:
256,192,348793,1,12,0:0:0:0:
256,192,349146,1,12,0:0:0:0:
256,192,349499,1,12,0:0:0:0:
256,192,349852,1,8,0:0:0:0:
256,192,349930,1,8,0:0:0:0:
256,192,350009,1,8,0:0:0:0:
256,192,350087,1,8,0:0:0:0:
256,192,350205,1,0,0:0:0:0:
256,192,350322,1,8,0:0:0:0:
256,192,350440,1,8,0:0:0:0:
256,192,350558,1,0,0:0:0:0:
256,192,350675,1,0,0:0:0:0:
256,192,350793,1,8,0:0:0:0:
256,192,350911,1,8,0:0:0:0:
256,192,350969,1,8,0:0:0:0:
256,192,351028,1,0,0:0:0:0:
256,192,351146,1,0,0:0:0:0:
256,192,351205,1,0,0:0:0:0:
256,192,351263,1,8,0:0:0:0:
256,192,351381,1,8,0:0:0:0:
256,192,351499,1,0,0:0:0:0:
256,192,351616,1,0,0:0:0:0:
256,192,351734,1,8,0:0:0:0:
256,192,351851,1,8,0:0:0:0:
256,192,351910,1,8,0:0:0:0:
256,192,351969,1,0,0:0:0:0:
256,192,352087,1,0,0:0:0:0:
256,192,352146,1,0,0:0:0:0:
256,192,352204,1,8,0:0:0:0:
256,192,352322,1,8,0:0:0:0:
256,192,352440,1,0,0:0:0:0:
256,192,352557,1,0,0:0:0:0:
256,192,352675,1,0,0:0:0:0:
256,192,352754,1,0,0:0:0:0:
256,192,352832,1,0,0:0:0:0:
256,192,352911,1,0,0:0:0:0:
256,192,352989,1,0,0:0:0:0:
256,192,353067,1,0,0:0:0:0:
256,192,353145,1,8,0:0:0:0:
256,192,353262,1,8,0:0:0:0:
256,192,353380,1,0,0:0:0:0:
256,192,353497,1,0,0:0:0:0:
256,192,353615,1,8,0:0:0:0:
256,192,353732,1,0,0:0:0:0:
256,192,353792,1,0,0:0:0:0:
256,192,353850,1,8,0:0:0:0:
256,192,353967,1,0,0:0:0:0:
256,192,354026,1,0,0:0:0:0:
256,192,354085,1,8,0:0:0:0:
256,192,354203,1,8,0:0:0:0:
256,192,354320,1,0,0:0:0:0:
256,192,354438,1,0,0:0:0:0:
256,192,354556,1,8,0:0:0:0:
256,192,354673,1,8,0:0:0:0:
256,192,354791,1,0,0:0:0:0:
256,192,354909,1,0,0:0:0:0:
256,192,355027,1,8,0:0:0:0:
256,192,355086,1,8,0:0:0:0:
256,192,355144,1,0,0:0:0:0:
256,192,355203,1,0,0:0:0:0:
256,192,355261,1,8,0:0:0:0:
256,192,355379,1,8,0:0:0:0:
256,192,355497,1,0,0:0:0:0:
256,192,355556,1,0,0:0:0:0:
256,192,355614,1,0,0:0:0:0:
256,192,355673,1,0,0:0:0:0:
256,192,355732,1,8,0:0:0:0:
256,192,355850,1,8,0:0:0:0:
256,192,355909,1,8,0:0:0:0:
256,192,355968,1,0,0:0:0:0:
256,192,357380,1,0,0:0:0:0:
256,192,357615,1,8,0:0:0:0:
256,192,357851,1,8,0:0:0:0:
256,192,358086,1,0,0:0:0:0:
256,192,359262,1,8,0:0:0:0:
256,192,359615,1,0,0:0:0:0:
256,192,359968,1,0,0:0:0:0:
256,192,360438,1,0,0:0:0:0:
256,192,360673,1,8,0:0:0:0:
256,192,360909,1,8,0:0:0:0:
256,192,361144,1,8,0:0:0:0:
256,192,361261,1,0,0:0:0:0:
256,192,361614,1,8,0:0:0:0:
256,192,361850,1,8,0:0:0:0:
256,192,362085,1,0,0:0:0:0:
256,192,362320,1,8,0:0:0:0:
256,192,362556,1,0,0:0:0:0:
256,192,362909,1,0,0:0:0:0:
256,192,363968,1,0,0:0:0:0:
256,192,364203,1,8,0:0:0:0:
256,192,364438,1,0,0:0:0:0:
256,192,364673,1,8,0:0:0:0:
256,192,364909,1,0,0:0:0:0:
256,192,365144,1,8,0:0:0:0:
256,192,365379,1,0,0:0:0:0:
256,192,365615,1,0,0:0:0:0:
256,192,365732,1,8,0:0:0:0:
256,192,366085,1,0,0:0:0:0:
256,192,366320,1,8,0:0:0:0:
256,192,366555,1,0,0:0:0:0:
256,192,366791,1,8,0:0:0:0:
256,192,367026,1,0,0:0:0:0:
256,192,367144,1,8,0:0:0:0:
256,192,367496,1,0,0:0:0:0:
256,192,367731,1,8,0:0:0:0:
256,192,367966,1,0,0:0:0:0:
256,192,368202,1,8,0:0:0:0:
256,192,368437,1,0,0:0:0:0:
256,192,368496,1,0,0:0:0:0:
256,192,368555,1,0,0:0:0:0:
256,192,368672,1,8,0:0:0:0:
256,192,368731,1,8,0:0:0:0:
256,192,368790,1,8,0:0:0:0:
256,192,368908,1,0,0:0:0:0:
256,192,369025,1,0,0:0:0:0:
256,192,369143,1,8,0:0:0:0:
256,192,369378,1,0,0:0:0:0:
256,192,369613,1,8,0:0:0:0:
256,192,369849,1,0,0:0:0:0:
256,192,369966,1,0,0:0:0:0:
256,192,370084,1,8,0:0:0:0:
256,192,370319,1,0,0:0:0:0:
256,192,370555,1,8,0:0:0:0:
256,192,370672,1,0,0:0:0:0:
256,192,370790,1,0,0:0:0:0:
256,192,371025,1,8,0:0:0:0:
256,192,371260,1,0,0:0:0:0:
256,192,371378,1,0,0:0:0:0:
256,192,371496,1,8,0:0:0:0:
256,192,371731,1,0,0:0:0:0:
256,192,371849,1,0,0:0:0:0:
256,192,371966,1,8,0:0:0:0:
256,192,372084,1,0,0:0:0:0:
256,192,372202,1,0,0:0:0:0:
256,192,372319,1,0,0:0:0:0:
256,192,372437,1,8,0:0:0:0:
256,192,372672,1,8,0:0:0:0:
256,192,372790,1,8,0:0:0:0:
256,192,372908,1,8,0:0:0:0:
256,192,372966,1,8,0:0:0:0:
256,192,373025,1,0,0:0:0:0:
256,192,373143,1,8,0:0:0:0:
256,192,373202,1,0,0:0:0:0:
256,192,373260,1,0,0:0:0:0:
256,192,373378,1,8,0:0:0:0:
256,192,373496,1,8,0:0:0:0:
256,192,373613,1,0,0:0:0:0:
256,192,373731,1,0,0:0:0:0:
256,192,373966,1,0,0:0:0:0:
256,192,374084,1,0,0:0:0:0:
256,192,374202,1,0,0:0:0:0:
256,192,374319,1,0,0:0:0:0:
256,192,374437,1,8,0:0:0:0:
256,192,374496,1,8,0:0:0:0:
256,192,374555,1,0,0:0:0:0:
256,192,374672,12,0,376319,0:0:0:0:
256,192,376437,5,0,0:0:0:0:
256,192,376555,1,8,0:0:0:0:
256,192,376672,1,0,0:0:0:0:
256,192,376790,1,8,0:0:0:0:
256,192,376908,1,0,0:0:0:0:
256,192,377025,1,8,0:0:0:0:
256,192,377143,1,8,0:0:0:0:
256,192,377260,1,0,0:0:0:0:
256,192,377378,1,0,0:0:0:0:
256,192,377496,1,8,0:0:0:0:
256,192,377613,1,0,0:0:0:0:
256,192,377731,1,8,0:0:0:0:
256,192,377849,1,0,0:0:0:0:
256,192,377966,1,8,0:0:0:0:
256,192,378084,1,8,0:0:0:0:
256,192,378143,1,8,0:0:0:0:
256,192,378202,1,8,0:0:0:0:
256,192,378260,1,8,0:0:0:0:
256,192,378319,1,0,0:0:0:0:
256,192,378436,1,8,0:0:0:0:
256,192,378555,1,0,0:0:0:0:
256,192,378671,1,8,0:0:0:0:
256,192,378789,1,0,0:0:0:0:
256,192,378906,1,8,0:0:0:0:
256,192,379024,1,8,0:0:0:0:
256,192,379143,1,0,0:0:0:0:
256,192,379259,1,0,0:0:0:0:
256,192,379377,1,8,0:0:0:0:
256,192,379496,1,0,0:0:0:0:
256,192,379612,1,8,0:0:0:0:
256,192,379730,1,0,0:0:0:0:
256,192,379849,1,8,0:0:0:0:
256,192,379965,1,8,0:0:0:0:
256,192,380083,1,0,0:0:0:0:
256,192,380201,1,0,0:0:0:0:
256,192,380318,1,8,0:0:0:0:
256,192,380436,1,0,0:0:0:0:
256,192,380554,1,8,0:0:0:0:
256,192,380671,1,0,0:0:0:0:
256,192,380789,1,0,0:0:0:0:
256,192,380848,1,0,0:0:0:0:
256,192,380907,1,8,0:0:0:0:
256,192,381025,1,8,0:0:0:0:
256,192,381084,1,8,0:0:0:0:
256,192,381143,1,0,0:0:0:0:
256,192,381260,1,8,0:0:0:0:
256,192,381378,1,0,0:0:0:0:
256,192,381496,1,8,0:0:0:0:
256,192,381613,1,0,0:0:0:0:
256,192,381731,1,8,0:0:0:0:
256,192,381849,1,8,0:0:0:0:
256,192,381966,1,8,0:0:0:0:
256,192,382084,1,0,0:0:0:0:
256,192,382318,1,0,0:0:0:0:
256,192,382554,1,0,0:0:0:0:
256,192,382671,1,8,0:0:0:0:
256,192,382789,1,0,0:0:0:0:
256,192,382907,1,8,0:0:0:0:
256,192,383024,1,0,0:0:0:0:
256,192,383142,1,8,0:0:0:0:
256,192,383259,1,8,0:0:0:0:
256,192,383377,1,8,0:0:0:0:
256,192,383495,1,0,0:0:0:0:
256,192,383731,1,0,0:0:0:0:
256,192,383965,1,0,0:0:0:0:
256,192,384083,1,8,0:0:0:0:
256,192,384201,1,0,0:0:0:0:
256,192,384318,1,8,0:0:0:0:
256,192,384436,1,0,0:0:0:0:
256,192,384554,1,8,0:0:0:0:
256,192,384671,1,8,0:0:0:0:
256,192,384789,1,8,0:0:0:0:
256,192,384907,1,0,0:0:0:0:
256,192,385142,1,0,0:0:0:0:
256,192,385377,1,0,0:0:0:0:
256,192,385495,1,8,0:0:0:0:
256,192,385612,1,0,0:0:0:0:
256,192,385730,1,8,0:0:0:0:
256,192,385848,1,0,0:0:0:0:
256,192,385965,1,8,0:0:0:0:
256,192,386083,1,8,0:0:0:0:
256,192,386201,1,8,0:0:0:0:
256,192,386319,1,0,0:0:0:0:
256,192,386554,1,8,0:0:0:0:
256,192,386612,1,8,0:0:0:0:
256,192,386671,1,8,0:0:0:0:
256,192,386730,1,8,0:0:0:0:
256,192,386789,1,0,0:0:0:0:
256,192,386907,1,8,0:0:0:0:
256,192,387024,1,0,0:0:0:0:
256,192,387142,1,8,0:0:0:0:
256,192,387259,1,0,0:0:0:0:
256,192,387377,1,8,0:0:0:0:
256,192,387495,1,8,0:0:0:0:
256,192,387612,1,8,0:0:0:0:
256,192,387730,1,0,0:0:0:0:
256,192,387808,1,0,0:0:0:0:
256,192,387887,1,0,0:0:0:0:
256,192,387965,1,8,0:0:0:0:
256,192,388044,1,8,0:0:0:0:
256,192,388122,1,8,0:0:0:0:
256,192,388201,1,0,0:0:0:0:
256,192,388318,1,8,0:0:0:0:
256,192,388436,1,0,0:0:0:0:
256,192,388554,1,8,0:0:0:0:
256,192,388671,1,0,0:0:0:0:
256,192,388789,1,8,0:0:0:0:
256,192,388907,1,8,0:0:0:0:
256,192,389024,1,8,0:0:0:0:
256,192,389142,1,0,0:0:0:0:
256,192,389220,1,8,0:0:0:0:
256,192,389299,1,8,0:0:0:0:
256,192,389377,1,0,0:0:0:0:
256,192,389456,1,8,0:0:0:0:
256,192,389534,1,8,0:0:0:0:
256,192,389612,1,0,0:0:0:0:
256,192,389730,1,8,0:0:0:0:
256,192,389848,1,0,0:0:0:0:
256,192,389965,1,8,0:0:0:0:
256,192,390083,1,0,0:0:0:0:
256,192,390201,1,8,0:0:0:0:
256,192,390318,1,8,0:0:0:0:
256,192,390436,1,8,0:0:0:0:
256,192,390554,1,0,0:0:0:0:
256,192,390632,1,0,0:0:0:0:
256,192,390710,1,0,0:0:0:0:
256,192,390789,1,8,0:0:0:0:
256,192,390867,1,8,0:0:0:0:
256,192,390946,1,8,0:0:0:0:
256,192,391024,1,0,0:0:0:0:
256,192,391142,1,8,0:0:0:0:
256,192,391201,1,8,0:0:0:0:
256,192,391259,1,0,0:0:0:0:
256,192,391377,1,0,0:0:0:0:
256,192,391495,1,8,0:0:0:0:
256,192,391612,1,8,0:0:0:0:
256,192,391672,1,8,0:0:0:0:
256,192,391730,1,8,0:0:0:0:
256,192,391848,1,8,0:0:0:0:
256,192,391965,1,0,0:0:0:0:
256,192,392024,1,0,0:0:0:0:
256,192,392083,1,0,0:0:0:0:
256,192,392142,1,0,0:0:0:0:
256,192,392201,1,8,0:0:0:0:
256,192,392259,1,8,0:0:0:0:
256,192,392318,1,8,0:0:0:0:
256,192,392377,1,8,0:0:0:0:
256,192,392436,1,0,0:0:0:0:
256,192,392554,1,8,0:0:0:0:
256,192,392671,1,0,0:0:0:0:
256,192,392789,1,8,0:0:0:0:
256,192,392907,1,0,0:0:0:0:
256,192,393024,1,8,0:0:0:0:
256,192,393084,1,8,0:0:0:0:
256,192,393142,1,8,0:0:0:0:
256,192,393259,1,8,0:0:0:0:
256,192,393377,1,4,0:0:0:0:
256,192,393612,1,4,0:0:0:0:
256,192,393848,1,0,0:0:0:0:
256,192,393965,1,8,0:0:0:0:
256,192,394025,1,8,0:0:0:0:
256,192,394083,1,0,0:0:0:0:
256,192,394201,1,8,0:0:0:0:
256,192,394318,1,0,0:0:0:0:
256,192,394436,1,8,0:0:0:0:
256,192,394495,1,8,0:0:0:0:
256,192,394554,1,8,0:0:0:0:
256,192,394671,1,8,0:0:0:0:
256,192,394789,1,4,0:0:0:0:
256,192,395025,1,4,0:0:0:0:
256,192,395259,1,0,0:0:0:0:
256,192,395377,1,8,0:0:0:0:
256,192,395436,1,8,0:0:0:0:
256,192,395495,1,0,0:0:0:0:
256,192,395612,1,8,0:0:0:0:
256,192,395730,1,0,0:0:0:0:
256,192,395848,1,8,0:0:0:0:
256,192,395907,1,8,0:0:0:0:
256,192,395965,1,8,0:0:0:0:
256,192,396083,1,8,0:0:0:0:
256,192,396201,1,4,0:0:0:0:
256,192,396436,1,4,0:0:0:0:
256,192,396671,1,0,0:0:0:0:
256,192,396731,1,0,0:0:0:0:
256,192,396789,1,8,0:0:0:0:
256,192,396848,1,8,0:0:0:0:
256,192,396907,1,0,0:0:0:0:
256,192,397024,1,8,0:0:0:0:
256,192,397142,1,0,0:0:0:0:
256,192,397201,1,0,0:0:0:0:
256,192,397259,1,8,0:0:0:0:
256,192,397377,1,8,0:0:0:0:
256,192,397495,1,8,0:0:0:0:
256,192,397612,1,4,0:0:0:0:
256,192,397848,1,4,0:0:0:0:
256,192,398083,1,0,0:0:0:0:
256,192,398142,1,0,0:0:0:0:
256,192,398201,1,8,0:0:0:0:
256,192,398260,1,8,0:0:0:0:
256,192,398318,1,0,0:0:0:0:
256,192,398436,1,8,0:0:0:0:
256,192,398554,1,0,0:0:0:0:
256,192,398671,1,8,0:0:0:0:
256,192,398731,1,8,0:0:0:0:
256,192,398789,1,8,0:0:0:0:
256,192,398907,1,8,0:0:0:0:
160,192,399025,2,12,L|160:96,3,70
256,192,399495,1,0,0:0:0:0:
256,192,399612,1,8,0:0:0:0:
256,192,399672,1,8,0:0:0:0:
256,192,399730,1,0,0:0:0:0:
256,192,399848,1,8,0:0:0:0:
256,192,399907,1,8,0:0:0:0:
256,192,399965,1,0,0:0:0:0:
256,192,400025,1,0,0:0:0:0:
256,192,400083,1,8,0:0:0:0:
256,192,400201,1,8,0:0:0:0:
256,192,400318,1,8,0:0:0:0:
256,192,400436,1,4,0:0:0:0:
256,192,400671,1,4,0:0:0:0:
256,192,400907,1,0,0:0:0:0:
256,192,400966,1,0,0:0:0:0:
256,192,401024,1,8,0:0:0:0:
256,192,401084,1,8,0:0:0:0:
256,192,401142,1,0,0:0:0:0:
256,192,401259,1,8,0:0:0:0:
256,192,401319,1,8,0:0:0:0:
256,192,401377,1,0,0:0:0:0:
256,192,401495,1,8,0:0:0:0:
256,192,401554,1,0,0:0:0:0:
256,192,401612,1,8,0:0:0:0:
256,192,401672,1,0,0:0:0:0:
256,192,401730,1,8,0:0:0:0:
160,192,401848,2,4,L|160:96,3,70,0|0|0|0,0:0|0:0|0:0|0:0,0:0:0:0:
256,192,402318,1,0,0:0:0:0:
256,192,402378,1,0,0:0:0:0:
256,192,402436,1,8,0:0:0:0:
256,192,402495,1,8,0:0:0:0:
256,192,402554,1,0,0:0:0:0:
256,192,402613,1,0,0:0:0:0:
256,192,402671,1,8,0:0:0:0:
256,192,402731,1,0,0:0:0:0:
256,192,402789,1,0,0:0:0:0:
256,192,402848,1,0,0:0:0:0:
256,192,402907,1,8,0:0:0:0:
256,192,402966,1,0,0:0:0:0:
256,192,403024,1,8,0:0:0:0:
256,192,403142,1,8,0:0:0:0:
256,192,403259,1,4,0:0:0:0:
256,192,403495,1,4,0:0:0:0:
