osu file format v14

[General]
AudioFilename: audio.mp3
AudioLeadIn: 0
PreviewTime: 7923
Countdown: 0
SampleSet: Soft
StackLeniency: 0.3
Mode: 0
LetterboxInBreaks: 0
WidescreenStoryboard: 1

[Editor]
Bookmarks: 8048,20048,24048,40048,56048,68048,72048,88048,104048
DistanceSpacing: 0.2
BeatDivisor: 8
GridSize: 32
TimelineZoom: 3.399999

[Metadata]
Title:CHAMPION OF DEATH
TitleUnicode:CHAMPION OF DEATH
Artist:$UICIDEBOY$ x GETTER
ArtistUnicode:$UICIDEBOY$ x GETTER
Creator:melleganol
Version:EXTRA x MIZUJIN
Source:
Tags:suicideboys english hip-hop hiphop hip hop rap dark emo shadow trap Ruby Da Cherry $crim Scrim g59 Yung Plague $carecrow Budd Dwyer Radical $uicide ftp grey 59 SuicideChrist yungxrist suicideLEOPARD Mizujin - aqua -_Aqua AqUa_M1X Lurumic LeomineXD
BeatmapID:4036813
BeatmapSetID:1935146

[Difficulty]
HPDrainRate:5.5
CircleSize:4.2
OverallDifficulty:8.6
ApproachRate:9.3
SliderMultiplier:2.99999990463257
SliderTickRate:0.5

[Events]
//Background and Video events
0,0,"championofdeath.png",0,0
//Break Periods
2,84498,87244
//Storyboard Layer 0 (Background)
//Storyboard Layer 1 (Fail)
//Storyboard Layer 2 (Pass)
//Storyboard Layer 3 (Foreground)
//Storyboard Layer 4 (Overlay)
//Storyboard Sound Samples

[TimingPoints]
48,500,4,2,77,50,1,0
8048,-55.5555555555556,4,2,77,80,0,1
8235,-55.5555555555556,4,2,77,5,0,1
8298,-100,4,2,77,80,0,1
8485,-100,4,2,77,5,0,1
8548,-100,4,2,77,80,0,1
9485,-100,4,2,77,5,0,1
9548,-55.5555555555556,4,2,77,80,0,1
11173,-100,4,2,77,80,0,1
11798,-55.5555555555556,4,2,77,80,0,1
12673,-100,4,2,77,80,0,1
15298,-55.5555555555556,4,2,77,80,0,1
15485,-55.5555555555556,4,2,77,5,0,1
15548,-55.5555555555556,4,2,77,80,0,1
16235,-55.5555555555556,4,2,77,5,0,1
16298,-100,4,2,77,80,0,1
16485,-100,4,2,77,5,0,1
16548,-100,4,2,77,80,0,1
17485,-100,4,2,77,5,0,1
17548,-55.5555555555556,4,2,77,80,0,1
19048,-100,4,2,77,80,0,1
19798,-55.5555555555556,4,2,77,80,0,1
20048,-111.111111111111,4,2,77,60,0,0
24048,-100,4,2,77,70,0,0
24860,-200,4,2,77,60,0,0
25298,-100,4,2,77,70,0,0
25485,-100,4,2,77,5,0,0
25548,-83.3333333333333,4,2,77,70,0,0
26048,-100,4,2,77,70,0,0
26485,-83.3333333333333,4,2,77,70,0,0
27048,-100,4,2,77,70,0,0
28048,-83.3333333333333,4,2,77,70,0,0
28485,-100,4,2,77,70,0,0
30485,-83.3333333333333,4,2,77,70,0,0
31048,-100,4,2,77,70,0,0
33548,-90.9090909090909,4,2,77,70,0,0
34048,-100,4,2,77,70,0,0
34548,-90.9090909090909,4,2,77,70,0,0
35048,-100,4,2,77,70,0,0
38548,-90.9090909090909,4,2,77,70,0,0
39048,-100,4,2,77,70,0,0
39548,-90.9090909090909,4,2,77,70,0,0
39798,-83.3333333333333,4,2,77,70,0,0
40048,-166.666666666667,4,2,77,70,0,0
41548,-71.4285714285714,4,2,77,70,0,0
42048,-100,4,2,77,70,0,0
42548,-71.4285714285714,4,2,77,70,0,0
42798,-100,4,2,77,70,0,0
42985,-100,4,2,77,5,0,0
43048,-100,4,2,77,70,0,0
44048,-71.4285714285714,4,2,77,70,0,0
44235,-71.4285714285714,4,2,77,5,0,0
44298,-71.4285714285714,4,2,77,70,0,0
46048,-100,4,2,77,70,0,0
46485,-100,4,2,77,5,0,0
46548,-71.4285714285714,4,2,77,70,0,0
47298,-100,4,2,77,70,0,0
47485,-100,4,2,77,5,0,0
47548,-100,4,2,77,70,0,0
48048,-71.4285714285714,4,2,77,70,0,0
49048,-100,4,2,77,70,0,0
49548,-71.4285714285714,4,2,77,70,0,0
50048,-100,4,2,77,70,0,0
52048,-71.4285714285714,4,2,77,70,0,0
52298,-100,4,2,77,70,0,0
53548,-71.4285714285714,4,2,77,70,0,0
54048,-100,4,2,77,70,0,0
54485,-100,4,2,77,5,0,0
54548,-71.4285714285714,4,2,77,70,0,0
55298,-100,4,2,77,70,0,0
55485,-100,4,2,77,5,0,0
55548,-100,4,2,77,70,0,0
56048,-55.5555555555556,4,2,77,80,0,1
56235,-55.5555555555556,4,2,77,5,0,1
56298,-100,4,2,77,80,0,1
56485,-100,4,2,77,5,0,1
56548,-125,4,2,77,80,0,1
57485,-100,4,2,77,5,0,1
57548,-55.5555555555556,4,2,77,80,0,1
59173,-100,4,2,77,80,0,1
59798,-55.5555555555556,4,2,77,80,0,1
60673,-100,4,2,77,80,0,1
63298,-55.5555555555556,4,2,77,80,0,1
63485,-55.5555555555556,4,2,77,5,0,1
63548,-55.5555555555556,4,2,77,80,0,1
64298,-100,4,2,77,80,0,1
64485,-100,4,2,77,5,0,1
64548,-100,4,2,77,80,0,1
65485,-100,4,2,77,5,0,1
65548,-55.5555555555556,4,2,77,80,0,1
67048,-100,4,2,77,80,0,1
67798,-55.5555555555556,4,2,77,80,0,1
68048,-111.111111111111,4,2,77,60,0,0
72048,-200,4,2,77,70,0,0
73298,-100,4,2,77,70,0,0
73485,-100,4,2,77,5,0,0
73548,-76.9230769230769,4,2,77,70,0,0
73798,-100,4,2,77,70,0,0
74485,-100,4,2,77,5,0,0
74548,-76.9230769230769,4,2,77,70,0,0
75048,-100,4,2,77,70,0,0
75985,-100,4,2,77,5,0,0
76048,-76.9230769230769,4,2,77,70,0,0
76298,-100,4,2,77,70,0,0
76985,-100,4,2,77,5,0,0
77048,-90.9090909090909,4,2,77,70,0,0
77548,-100,4,2,77,70,0,0
78485,-100,4,2,77,5,0,0
78548,-76.9230769230769,4,2,77,70,0,0
79048,-100,4,2,77,70,0,0
79798,-76.9230769230769,4,2,77,70,0,0
80235,-100,4,2,77,5,0,0
80298,-100,4,2,77,70,0,0
80485,-100,4,2,77,5,0,0
80548,-100,4,2,77,70,0,0
80985,-100,4,2,77,5,0,0
81048,-90.9090909090909,4,2,77,70,0,0
81548,-76.9230769230769,4,2,77,70,0,0
81735,-100,4,2,77,5,0,0
81798,-100,4,2,77,70,0,0
81985,-100,4,2,77,5,0,0
82048,-90.9090909090909,4,2,77,70,0,0
82235,-100,4,2,77,5,0,0
82298,-90.9090909090909,4,2,77,70,0,0
82485,-100,4,2,77,5,0,0
82548,-76.9230769230769,4,2,77,70,0,0
83048,-100,4,2,77,70,0,0
83985,-100,4,2,77,5,0,0
84048,-76.9230769230769,4,2,77,70,0,0
84235,-100,4,2,77,5,0,0
84298,-100,4,2,77,70,0,0
84423,-100,4,2,77,5,0,0
87798,-100,4,2,77,70,0,0
88048,-62.5,4,2,77,70,0,0
88985,-83.3333333333333,4,2,77,5,0,0
89048,-83.3333333333333,4,2,77,70,0,0
92048,-62.5,4,2,77,70,0,0
92235,-62.5,4,2,77,5,0,0
92298,-62.5,4,2,77,70,0,0
92485,-62.5,4,2,77,5,0,0
92548,-62.5,4,2,77,70,0,0
93048,-83.3333333333333,4,2,77,70,0,0
93235,-83.3333333333333,4,2,77,5,0,0
93298,-83.3333333333333,4,2,77,70,0,0
93548,-62.5,4,2,77,70,0,0
94048,-83.3333333333333,4,2,77,70,0,0
96048,-62.5,4,2,77,70,0,0
96548,-83.3333333333333,4,2,77,70,0,0
97735,-83.3333333333333,4,2,77,5,0,0
97798,-83.3333333333333,4,2,77,70,0,0
98735,-83.3333333333333,4,2,77,5,0,0
98798,-83.3333333333333,4,2,77,70,0,0
100048,-62.5,4,2,77,70,0,0
101048,-83.3333333333333,4,2,77,70,0,0
101235,-83.3333333333333,4,2,77,5,0,0
101298,-83.3333333333333,4,2,77,70,0,0
101548,-62.5,4,2,77,70,0,0
102048,-83.3333333333333,4,2,77,70,0,0
102548,-62.5,4,2,77,70,0,0
102735,-62.5,4,2,77,5,0,0
102798,-83.3333333333333,4,2,77,70,0,0
102985,-83.3333333333333,4,2,77,5,0,0
103048,-83.3333333333333,4,2,77,70,0,0

[Colours]
Combo1 : 95,95,95
Combo2 : 85,102,255

[HitObjects]
512,68,8048,6,0,B|456:40|397:71|436:101|387:137|331:112,1,202.499987382889,6|0,3:2|0:0,0:0:0:0:
264,74,8298,2,0,B|276:57|276:57|303:146,1,112.499996423721,2|0,1:2|0:0,0:0:0:0:
363,196,8548,1,2,1:2:0:0:
361,207,8610,1,0,1:0:0:0:
359,218,8673,1,0,1:0:0:0:
358,229,8735,1,0,1:0:0:0:
356,240,8798,2,0,B|339:250|339:250|285:227,1,74.9999976158143,2|2,1:2|2:0,0:0:0:0:
228,175,9048,5,10,2:0:0:0:
302,144,9173,1,2,2:0:0:0:
217,180,9298,2,0,L|97:146,1,112.499996423721,2|0,1:2|0:0,0:0:0:0:
37,185,9548,6,0,B|16:150|16:150|65:48,2,134.999991588593,6|0|0,3:2|1:0|1:0,0:0:0:0:
226,367,10048,5,2,1:2:0:0:
232,353,10173,1,2,2:0:0:0:
139,284,10298,5,2,1:2:0:0:
152,321,10423,1,2,2:0:0:0:
256,251,10548,5,6,3:2:0:0:
248,225,10673,1,2,2:0:0:0:
240,199,10798,1,2,1:2:0:0:
232,172,10923,1,2,2:0:0:0:
329,109,11048,5,10,2:0:0:0:
339,113,11110,1,0,1:0:0:0:
348,118,11173,1,0,1:0:0:0:
431,211,11298,5,2,2:0:0:0:
441,207,11360,1,0,1:0:0:0:
450,202,11423,1,0,1:0:0:0:
512,126,11548,5,2,1:2:0:0:
505,113,11673,1,0,1:0:0:0:
436,51,11798,5,0,3:0:0:0:
431,63,11923,1,0,1:0:0:0:
348,118,12048,6,0,B|318:134|318:134|210:102,1,134.999991588593,6|2,3:2|2:0,0:0:0:0:
170,44,12298,1,2,1:2:0:0:
157,51,12423,1,2,2:0:0:0:
81,123,12548,1,2,1:2:0:0:
73,121,12610,1,0,1:0:0:0:
65,119,12673,1,2,1:2:0:0:
57,117,12735,1,0,1:0:0:0:
49,115,12798,2,0,B|36:97|36:97|66:42,1,74.9999976158143,2|2,1:2|2:0,0:0:0:0:
159,173,13048,6,0,B|169:192|169:192|148:252,1,74.9999976158143,10|0,2:0|0:0,0:0:0:0:
12,185,13298,2,0,B|2:204|2:204|23:264,1,74.9999976158143,2|0,1:2|1:0,0:0:0:0:
71,352,13548,1,2,3:2:0:0:
78,350,13610,1,0,1:0:0:0:
85,348,13673,1,0,1:0:0:0:
92,346,13735,1,0,1:0:0:0:
99,345,13798,2,0,L|153:330,3,37.4999988079071,8|0|0|0,1:2|1:0|1:0|1:0,0:0:0:0:
219,293,14048,5,2,1:2:0:0:
232,299,14173,1,2,1:2:0:0:
291,362,14298,5,10,2:0:0:0:
304,356,14423,1,2,2:0:0:0:
368,272,14548,5,2,3:2:0:0:
419,296,14673,1,2,2:0:0:0:
404,336,14798,1,2,1:2:0:0:
431,364,14923,1,2,2:0:0:0:
368,272,15048,6,0,B|349:263|349:263|294:281,1,74.9999976158143,10|0,2:0|1:0,0:0:0:0:
188,200,15298,2,0,B|227:228|227:228|376:178,1,202.499987382889,6|0,3:2|0:0,0:0:0:0:
445,145,15548,5,10,2:0:0:0:
266,50,15673,5,10,2:0:0:0:
472,0,15798,5,10,3:2:0:0:
472,0,16048,6,0,L|428:199,1,202.499987382889,6|0,3:2|0:0,0:0:0:0:
498,238,16298,2,0,B|473:221|473:221|391:257,1,112.499996423721,2|0,1:2|0:0,0:0:0:0:
344,194,16548,1,2,1:2:0:0:
333,197,16610,1,0,1:0:0:0:
322,200,16673,1,0,1:0:0:0:
311,202,16735,1,0,1:0:0:0:
299,204,16798,2,0,B|280:232|280:232|314:296,1,74.9999976158143,2|2,1:2|2:0,0:0:0:0:
387,363,17048,5,10,2:0:0:0:
459,326,17173,1,2,2:0:0:0:
376,369,17298,2,0,L|252:335,1,112.499996423721,2|0,2:0|0:0,0:0:0:0:
185,315,17548,6,0,B|136:334|136:334|122:364|122:364|66:390,2,134.999991588593,6|0|0,3:2|1:0|1:0,0:0:0:0:
316,150,18048,5,2,1:2:0:0:
324,167,18173,1,2,2:0:0:0:
263,252,18298,5,2,1:2:0:0:
256,241,18423,1,2,2:0:0:0:
169,189,18548,5,6,3:2:0:0:
186,169,18673,1,2,2:0:0:0:
170,132,18798,1,2,1:2:0:0:
208,100,18923,1,2,2:0:0:0:
181,15,19048,5,10,2:0:0:0:
170,19,19110,1,0,1:0:0:0:
159,23,19173,1,0,1:0:0:0:
78,49,19298,5,2,2:0:0:0:
67,45,19360,1,0,1:0:0:0:
56,41,19423,1,0,1:0:0:0:
92,134,19548,5,2,1:2:0:0:
88,147,19673,1,0,1:0:0:0:
22,191,19798,5,2,3:2:0:0:
26,200,19923,1,0,1:0:0:0:
101,260,20048,6,0,B|131:280|131:280|306:234,1,202.499987382889,8|2,0:1|2:0,0:0:0:0:
358,132,20548,6,0,B|349:156|349:156|363:199,1,67.4999957942964,8|2,0:1|2:0,0:0:0:0:
268,102,20798,6,0,B|277:126|277:126|263:169,1,67.4999957942964,8|2,0:1|2:0,0:0:0:0:
369,276,21048,6,0,L|442:261,1,67.4999957942964,8|0,0:1|0:0,0:0:0:0:
311,351,21298,1,2,2:0:0:0:
311,351,21548,6,0,L|389:370,1,67.4999957942964,8|0,0:1|0:0,0:0:0:0:
280,274,21798,6,0,L|202:293,1,67.4999957942964,8|0,0:1|0:0,0:0:0:0:
323,197,22048,6,0,L|401:216,1,67.4999957942964,8|2,0:1|2:0,0:0:0:0:
499,127,22298,6,0,L|421:146,1,67.4999957942964,8|2,0:1|2:0,0:0:0:0:
364,102,22548,1,2,2:0:0:0:
358,90,22673,1,2,2:0:0:0:
450,0,22798,6,0,B|456:27|456:27|431:68,1,67.4999957942964,8|2,0:1|2:0,0:0:0:0:
338,0,23048,1,2,2:0:0:0:
338,0,23298,6,0,L|321:75,1,67.4999957942964,8|0,0:1|0:0,0:0:0:0:
253,146,23548,6,0,L|236:71,1,67.4999957942964,8|0,0:1|0:0,0:0:0:0:
165,0,23798,6,0,L|148:75,1,67.4999957942964,8|0,0:1|0:0,0:0:0:0:
35,233,24048,6,0,B|12:204|-13:203|-13:203|37:192|93:240|41:269|83:316|138:314,1,262.49999165535,6|2,3:2|2:0,0:0:0:0:
193,365,24548,1,0,1:0:0:0:
193,365,24860,2,0,P|210:343|212:316,1,56.2499982118607,2|8,2:0|2:0,0:0:0:0:
292,99,25298,6,0,L|401:123,1,112.499996423721,4|0,3:2|0:0,0:0:0:0:
491,52,25548,6,0,B|468:32|468:32|410:48,1,89.9999943923952,4|0,3:2|1:0,0:0:0:0:
324,12,25798,1,2,1:2:0:0:
320,21,25923,1,2,2:0:0:0:
235,172,26048,6,0,P|166:186|130:125,1,149.999995231629,2|2,2:0|2:0,0:0:0:0:
88,64,26485,1,0,0:0:0:0:
88,64,26548,6,0,B|67:19|67:19|47:147,1,179.99998878479,6|2,3:2|2:0,0:0:0:0:
92,308,27048,5,8,1:2:0:0:
102,310,27110,1,0,1:0:0:0:
112,313,27173,1,0,1:0:0:0:
173,372,27298,5,0,1:0:0:0:
184,369,27360,1,0,1:0:0:0:
195,366,27423,1,0,1:0:0:0:
250,296,27548,5,0,1:0:0:0:
199,237,27673,1,0,1:0:0:0:
250,304,27798,5,2,3:2:0:0:
313,255,27923,1,0,1:0:0:0:
393,358,28048,6,0,B|381:381|456:406|496:314|423:253,1,179.99998878479,6|2,3:2|2:0,0:0:0:0:
378,207,28486,1,2,2:0:0:0:
378,207,28548,6,0,B|350:102|350:102|378:70,1,149.999995231629,0|2,1:0|2:0,0:0:0:0:
445,125,29048,6,0,L|297:100,1,149.999995231629,8|0,2:0|1:0,0:0:0:0:
223,127,29423,1,0,1:0:0:0:
152,75,29548,5,6,3:2:0:0:
150,64,29610,1,0,1:0:0:0:
148,53,29673,1,0,1:0:0:0:
223,127,29798,5,10,2:0:0:0:
221,138,29860,1,0,1:0:0:0:
218,149,29923,1,0,1:0:0:0:
216,160,29985,1,0,1:0:0:0:
213,171,30048,2,0,B|192:182|192:182|145:163,1,74.9999976158143,2|0,1:2|1:0,0:0:0:0:
75,123,30298,1,8,2:0:0:0:
9,189,30485,5,2,2:0:0:0:
9,189,30548,2,0,L|36:366,1,179.99998878479,4|2,3:2|2:0,0:0:0:0:
209,313,31048,5,8,2:0:0:0:
219,310,31110,1,0,1:0:0:0:
229,307,31173,1,0,1:0:0:0:
174,379,31298,1,0,1:0:0:0:
213,171,31548,5,8,3:2:0:0:
338,237,31673,5,8,2:0:0:0:
455,124,31798,5,8,3:2:0:0:
360,79,31923,5,0,3:0:0:0:
361,89,31985,1,0,3:0:0:0:
363,99,32048,6,0,B|390:76|390:76|368:1,2,112.499996423721,6|2|2,3:2|2:0|2:0,0:0:0:0:
241,96,32548,5,2,1:2:0:0:
231,92,32610,1,0,1:0:0:0:
221,88,32673,2,0,L|184:96,2,37.4999988079071,0|2|0,1:0|1:2|1:0,0:0:0:0:
291,33,32923,1,2,2:0:0:0:
138,27,33048,6,0,P|95:59|104:112,2,112.499996423721,10|2|2,2:0|2:0|2:0,0:0:0:0:
213,171,33548,6,0,B|153:187|153:187|132:225|132:225|74:241,1,164.999999790192,4|0,3:2|1:0,0:0:0:0:
174,379,34048,6,0,P|220:351|216:298,2,112.499996423721,2|2|2,2:0|2:0|2:0,0:0:0:0:
270,233,34548,6,0,L|432:258,1,164.999999790192,6|2,3:2|2:0,0:0:0:0:
504,220,34923,1,2,2:0:0:0:
459,106,35048,6,0,B|440:94|440:94|388:108,1,74.9999976158143,10|0,2:0|1:0,0:0:0:0:
423,182,35298,5,0,1:0:0:0:
433,179,35360,1,0,1:0:0:0:
444,177,35423,1,2,1:2:0:0:
433,258,35548,5,0,1:0:0:0:
496,307,35673,1,0,1:0:0:0:
430,370,35798,5,0,3:0:0:0:
504,304,35923,1,0,1:0:0:0:
363,316,36048,6,0,L|251:298,2,112.499996423721,6|2|2,3:2|2:0|2:0,0:0:0:0:
334,187,36548,5,2,1:2:0:0:
324,183,36610,1,0,1:0:0:0:
314,179,36673,2,0,L|277:187,2,37.4999988079071,0|2|0,1:0|1:2|1:0,0:0:0:0:
373,117,36923,1,2,2:0:0:0:
218,130,37048,6,0,B|190:162|190:162|204:230,2,112.499996423721,10|2|2,2:0|2:0|1:2,0:0:0:0:
122,206,37548,1,4,3:2:0:0:
115,204,37610,1,0,1:0:0:0:
108,203,37673,1,0,1:0:0:0:
101,201,37735,1,0,1:0:0:0:
94,200,37798,2,0,L|39:187,3,37.4999988079071,8|0|0|0,2:0|1:0|1:0|1:0,0:0:0:0:
7,136,38048,6,0,P|-8:102|5:69,1,74.9999976158143,2|0,1:2|1:0,0:0:0:0:
80,30,38298,1,10,2:0:0:0:
88,35,38423,1,2,2:0:0:0:
218,130,38548,6,0,B|309:103|309:103|289:75|289:75|283:96|273:106,1,164.999999790192,6|2,3:2|1:2,0:0:0:0:
216,52,38923,1,2,2:0:0:0:
313,2,39048,5,10,2:0:0:0:
323,4,39110,1,0,1:0:0:0:
333,6,39173,1,0,1:0:0:0:
394,64,39298,1,0,1:0:0:0:
345,302,39548,6,0,L|336:342,1,41.2499999475479,8|0,1:2|1:0,0:0:0:0:
407,377,39673,2,0,L|415:336,1,41.2499999475479,8|0,1:2|0:0,0:0:0:0:
313,228,39798,6,0,L|225:247,1,89.9999943923952,8|0,3:2|1:0,0:0:0:0:
0,318,40048,6,0,B|21:378|21:378|112:345|112:345|42:153,1,359.999977569581,4|10,3:1|2:0,0:0:0:0:
43,157,41298,1,2,2:0:0:0:
194,26,41548,6,0,L|303:52,1,104.999993457794,6|0,3:2|1:0,0:0:0:0:
374,71,41798,1,2,1:2:0:0:
193,116,42048,6,0,L|104:140,1,74.9999976158143,2|0,1:2|0:0,0:0:0:0:
43,157,42298,1,2,1:2:0:0:
239,208,42548,6,0,L|348:234,1,104.999993457794,6|0,3:2|0:0,0:0:0:0:
419,253,42798,2,0,B|428:285|428:285|380:351,1,112.499996423721,2|0,1:2|0:0,0:0:0:0:
309,384,43048,5,10,1:2:0:0:
298,380,43110,1,0,1:0:0:0:
287,375,43173,1,0,1:0:0:0:
224,310,43298,5,2,1:2:0:0:
213,314,43360,1,0,1:0:0:0:
202,319,43423,1,2,1:2:0:0:
139,374,43548,5,2,1:2:0:0:
70,350,43673,1,0,1:0:0:0:
11,295,43798,5,2,3:2:0:0:
80,271,43923,1,2,1:2:0:0:
0,384,44048,6,0,L|32:205,1,157.499990186692,6|0,3:2|0:0,0:0:0:0:
85,170,44298,1,6,3:2:0:0:
6,123,44423,1,2,2:0:0:0:
96,175,44548,1,6,3:2:0:0:
105,178,44610,1,0,1:0:0:0:
114,181,44673,1,0,1:0:0:0:
123,184,44735,1,0,1:0:0:0:
132,188,44798,2,0,B|149:192|149:192|185:100,1,104.999993457794,2|2,1:2|2:0,0:0:0:0:
171,25,45048,6,0,B|135:36|135:36|115:60|115:60|73:76,1,104.999993457794,10|0,2:0|0:0,0:0:0:0:
247,57,45298,2,0,B|283:68|283:68|303:92|303:92|345:108,1,104.999993457794,2|0,3:2|1:0,0:0:0:0:
252,169,45548,1,6,3:2:0:0:
255,178,45610,1,0,1:0:0:0:
257,188,45673,1,0,1:0:0:0:
259,198,45735,1,0,1:0:0:0:
262,208,45798,2,0,L|277:274,3,52.4999967288972,8|0|0|0,2:0|1:0|1:0|1:0,0:0:0:0:
244,335,46048,6,0,B|267:347|267:347|330:326,1,74.9999976158143,2|0,1:2|1:0,0:0:0:0:
383,384,46298,2,0,L|402:239,1,112.499996423721,10|0,2:0|0:0,0:0:0:0:
512,260,46548,6,0,B|456:295|390:252|434:218|368:186|308:225,1,209.999986915589,6|2,3:2|2:0,0:0:0:0:
254,174,46923,1,2,2:0:0:0:
174,242,47048,1,10,1:2:0:0:
177,251,47110,1,0,1:0:0:0:
179,261,47173,1,2,1:2:0:0:
270,265,47298,2,0,B|287:263|287:263|250:166,1,112.499996423721,2|0,1:2|0:0,0:0:0:0:
170,150,47548,5,10,2:0:0:0:
375,240,47673,5,10,2:0:0:0:
228,355,47798,6,0,B|211:361|211:361|156:344,1,74.9999976158143,10|0,3:2|1:0,0:0:0:0:
0,374,48048,6,0,B|64:387|111:324|58:307|110:255|179:271,1,209.999986915589,6|2,3:2|2:0,0:0:0:0:
334,167,48548,1,2,1:2:0:0:
324,171,48610,1,0,1:0:0:0:
314,175,48673,1,0,1:0:0:0:
304,178,48735,1,0,1:0:0:0:
294,183,48798,2,0,B|285:199|285:199|196:177,1,104.999993457794,2|2,1:2|2:0,0:0:0:0:
15,112,49048,6,0,L|-5:16,1,74.9999976158143,10|0,2:0|0:0,0:0:0:0:
109,0,49298,2,0,L|129:96,1,74.9999976158143,2|0,2:0|0:0,0:0:0:0:
92,256,49548,6,0,B|70:279|70:279|-6:259,2,104.999993457794,6|0|2,3:2|1:0|1:2,0:0:0:0:
267,48,50048,2,0,B|248:75|248:75|297:190,1,149.999995231629,2|2,1:2|1:2,0:0:0:0:
512,384,50548,5,6,3:2:0:0:
440,344,50673,2,0,L|365:367,1,74.9999976158143,2|0,2:0|1:0,0:0:0:0:
290,384,50923,1,2,2:0:0:0:
208,296,51048,5,10,1:2:0:0:
210,285,51110,1,0,1:0:0:0:
213,274,51173,1,2,1:2:0:0:
298,204,51298,5,2,1:2:0:0:
296,193,51360,1,0,1:0:0:0:
293,182,51423,1,0,1:0:0:0:
217,130,51548,5,2,1:2:0:0:
239,60,51673,1,0,1:0:0:0:
297,0,51798,5,0,3:0:0:0:
319,70,51923,1,0,1:0:0:0:
168,2,52048,5,6,3:2:0:0:
158,15,52173,1,2,2:0:0:0:
139,12,52298,1,2,1:2:0:0:
112,48,52423,1,2,2:0:0:0:
23,30,52548,5,2,1:2:0:0:
22,41,52610,1,0,1:0:0:0:
19,52,52673,1,2,1:2:0:0:
17,63,52735,1,0,1:0:0:0:
16,74,52798,2,0,B|17:102|17:102|80:124,1,74.9999976158143,2|2,1:2|2:0,0:0:0:0:
136,207,53048,5,10,2:0:0:0:
225,145,53173,1,2,2:0:0:0:
125,215,53298,2,0,L|40:196,1,74.9999976158143,2|0,1:2|1:0,0:0:0:0:
0,308,53548,5,6,3:2:0:0:
14,313,53610,1,0,1:0:0:0:
28,318,53673,1,0,1:0:0:0:
42,322,53735,1,0,1:0:0:0:
55,329,53798,2,0,L|105:316,3,52.4999967288972,8|0|0|0,2:0|1:0|1:0|1:0,0:0:0:0:
184,277,54048,6,0,B|199:301|199:301|184:360,1,74.9999976158143,2|0,1:2|1:0,0:0:0:0:
105,315,54298,2,0,L|122:191,1,112.499996423721,10|0,2:0|0:0,0:0:0:0:
89,126,54548,6,0,B|140:97|211:134|167:168|233:200|293:161,1,209.999986915589,6|2,3:2|2:0,0:0:0:0:
343,218,54923,1,0,0:0:0:0:
431,169,55048,1,10,1:2:0:0:
428,158,55110,1,0,1:0:0:0:
425,147,55173,1,2,2:0:0:0:
333,115,55298,2,0,B|318:129|318:129|347:232,1,112.499996423721,2|0,1:2|0:0,0:0:0:0:
422,249,55548,5,10,2:0:0:0:
241,157,55673,5,8,2:0:0:0:
420,37,55798,5,8,3:2:0:0:
307,294,56048,6,0,B|272:358|186:352|171:288|199:250|242:266,1,202.499987382889,6|0,3:2|0:0,0:0:0:0:
238,268,56298,2,0,L|221:379,1,112.499996423721,2|0,2:0|0:0,0:0:0:0:
149,366,56548,2,0,L|30:347,1,119.999996185303,2|2,1:2|1:2,0:0:0:0:
0,273,56923,1,2,2:0:0:0:
58,207,57048,5,10,2:0:0:0:
105,271,57173,1,2,2:0:0:0:
51,200,57298,2,0,B|40:171|40:171|75:122,1,89.9999971389771,2|0,3:2|0:0,0:0:0:0:
152,97,57548,6,0,L|284:120,2,134.999991588593,6|0|0,3:2|1:0|1:0,0:0:0:0:
355,27,58048,5,2,1:2:0:0:
359,43,58173,1,2,2:0:0:0:
457,70,58298,5,2,1:2:0:0:
443,104,58423,1,2,2:0:0:0:
351,197,58548,5,6,3:2:0:0:
343,171,58673,1,2,2:0:0:0:
369,163,58798,1,2,1:2:0:0:
377,189,58923,1,2,2:0:0:0:
399,279,59048,5,10,1:2:0:0:
396,289,59110,1,0,1:0:0:0:
392,298,59173,1,0,1:0:0:0:
470,376,59298,5,2,1:2:0:0:
467,365,59360,1,0,1:0:0:0:
463,356,59423,1,0,1:0:0:0:
316,331,59548,5,2,1:2:0:0:
301,336,59673,1,0,1:0:0:0:
212,378,59798,5,0,3:0:0:0:
192,365,59923,1,0,1:0:0:0:
81,377,60048,6,0,P|29:341|51:281,1,134.999991588593,6|2,3:2|2:0,0:0:0:0:
131,281,60298,1,2,1:2:0:0:
136,293,60423,1,2,2:0:0:0:
93,216,60548,1,2,1:2:0:0:
95,208,60610,1,0,1:0:0:0:
97,200,60673,1,2,1:2:0:0:
99,192,60735,1,0,1:0:0:0:
101,184,60798,2,0,B|119:171|119:171|174:201,1,74.9999976158143,2|2,1:2|2:0,0:0:0:0:
303,180,61048,6,0,B|313:161|313:161|292:101,1,74.9999976158143,10|0,2:0|0:0,0:0:0:0:
391,21,61298,2,0,B|401:40|401:40|380:100,1,74.9999976158143,2|0,1:2|1:0,0:0:0:0:
303,180,61548,1,2,3:2:0:0:
304,187,61610,1,0,1:0:0:0:
305,194,61673,1,0,1:0:0:0:
306,201,61735,1,0,1:0:0:0:
307,208,61798,2,0,L|316:263,3,37.4999988079071,8|0|0|0,2:0|1:0|1:0|1:0,0:0:0:0:
364,301,62048,5,2,1:2:0:0:
377,307,62173,1,2,1:2:0:0:
421,230,62298,5,10,1:2:0:0:
408,236,62423,1,2,2:0:0:0:
512,270,62548,5,6,3:2:0:0:
505,231,62673,1,2,2:0:0:0:
498,190,62798,1,2,1:2:0:0:
491,150,62923,1,2,2:0:0:0:
377,96,63048,5,10,1:2:0:0:
376,106,63110,1,0,1:0:0:0:
374,116,63173,1,0,1:0:0:0:
307,208,63298,6,0,B|261:227|261:227|189:158|189:158|140:179,1,202.499987382889,2|0,1:2|0:0,0:0:0:0:
74,213,63548,5,8,2:0:0:0:
265,114,63673,5,8,2:0:0:0:
109,0,63798,5,8,3:2:0:0:
109,0,64048,5,6,3:2:0:0:
101,10,64110,1,0,3:0:0:0:
109,16,64173,1,0,3:0:0:0:
101,26,64235,1,0,3:0:0:0:
101,32,64298,6,0,B|125:146,1,112.499996423721,2|0,3:2|0:0,0:0:0:0:
187,191,64548,1,2,1:2:0:0:
189,199,64610,1,0,1:0:0:0:
191,207,64673,1,0,1:0:0:0:
193,215,64735,1,0,1:0:0:0:
195,223,64798,2,0,B|179:296,1,74.9999976158143,2|2,1:2|2:0,0:0:0:0:
96,376,65048,5,10,2:0:0:0:
29,331,65173,1,2,2:0:0:0:
105,381,65298,2,0,L|216:363,1,112.499996423721,2|0,1:2|0:0,0:0:0:0:
291,374,65548,6,0,P|336:329|313:270,2,134.999991588593,6|0|0,3:2|1:0|1:0,0:0:0:0:
369,198,66048,5,2,1:2:0:0:
391,203,66173,1,2,2:0:0:0:
477,279,66298,5,2,1:2:0:0:
502,271,66423,1,2,2:0:0:0:
512,154,66548,5,6,3:2:0:0:
507,121,66673,1,2,2:0:0:0:
499,79,66798,1,2,1:2:0:0:
490,30,66923,1,2,2:0:0:0:
384,0,67048,5,10,1:2:0:0:
373,4,67110,1,0,1:0:0:0:
362,8,67173,1,0,1:0:0:0:
278,88,67298,5,2,1:2:0:0:
267,84,67360,1,0,1:0:0:0:
256,80,67423,1,0,1:0:0:0:
158,16,67548,5,2,1:2:0:0:
154,29,67673,1,0,1:0:0:0:
90,82,67798,5,0,3:0:0:0:
94,91,67923,1,0,1:0:0:0:
168,164,68048,6,0,B|93:188|93:188|74:230|74:230|0:254,1,202.499987382889,8|2,0:1|2:0,0:0:0:0:
155,315,68548,6,0,B|164:291|164:291|150:248,1,67.4999957942964,8|2,0:1|2:0,0:0:0:0:
231,250,68798,6,0,B|243:289|243:289|234:313,1,67.4999957942964,8|2,0:1|2:0,0:0:0:0:
299,379,69048,6,0,L|372:364,1,67.4999957942964,8|0,0:1|0:0,0:0:0:0:
466,343,69298,1,2,2:0:0:0:
466,343,69548,6,0,L|481:277,1,67.4999957942964,8|0,0:1|0:0,0:0:0:0:
409,232,69798,6,0,L|393:297,1,67.4999957942964,8|0,0:1|0:0,0:0:0:0:
481,188,70048,6,0,L|465:122,1,67.4999957942964,8|2,0:1|2:0,0:0:0:0:
372,55,70298,6,0,L|357:121,1,67.4999957942964,8|2,0:1|2:0,0:0:0:0:
293,169,70548,1,2,2:0:0:0:
280,163,70673,1,2,2:0:0:0:
195,92,70798,6,0,B|169:80|169:80|133:96,1,67.4999957942964,8|2,0:1|2:0,0:0:0:0:
45,180,71048,1,2,2:0:0:0:
45,180,71298,6,0,L|58:255,1,67.4999957942964,8|0,0:1|0:0,0:0:0:0:
121,318,71548,6,0,L|132:251,1,67.4999957942964,8|0,0:1|0:0,0:0:0:0:
199,188,71798,6,0,L|210:254,1,67.4999957942964,8|0,0:1|0:0,0:0:0:0:
392,378,72048,6,0,B|446:383|500:317|474:232|414:223|414:223|441:239|447:269,1,281.249991059303,4|0,3:1|0:0,0:0:0:0:
374,288,73048,1,10,2:0:0:0:
374,288,73298,6,0,P|323:305|282:271,1,112.499996423721,2|0,3:2|0:0,0:0:0:0:
229,210,73548,6,0,L|247:114,1,97.4999924373631,6|0,3:2|1:0,0:0:0:0:
393,98,73798,2,0,B|373:119|373:119|324:125,1,74.9999976158143,2|0,1:2|0:0,0:0:0:0:
269,30,74048,2,0,B|288:8|288:8|337:2,1,74.9999976158143,2|0,1:2|0:0,0:0:0:0:
246,114,74298,2,0,L|135:92,1,112.499996423721,2|0,1:2|0:0,0:0:0:0:
63,81,74548,6,0,B|84:29|84:29|104:167,1,194.999984874726,6|2,3:2|2:0,0:0:0:0:
172,318,75048,5,10,1:2:0:0:
169,326,75110,1,0,1:0:0:0:
167,334,75173,1,0,1:0:0:0:
72,379,75298,5,0,1:0:0:0:
69,371,75360,1,0,1:0:0:0:
67,363,75423,1,0,1:0:0:0:
98,283,75548,5,0,1:0:0:0:
47,223,75673,1,0,1:0:0:0:
102,137,75798,6,0,B|134:115|134:115|201:144,1,112.499996423721,2|0,3:2|0:0,0:0:0:0:
259,199,76048,6,0,L|354:178,1,97.4999924373631,6|0,3:2|0:0,0:0:0:0:
420,298,76298,2,0,L|295:269,1,112.499996423721,2|0,1:2|0:0,0:0:0:0:
354,178,76548,1,2,1:2:0:0:
363,179,76610,1,0,1:0:0:0:
372,181,76673,1,0,1:0:0:0:
381,183,76735,1,0,1:0:0:0:
390,184,76798,2,0,P|435:155|430:102,1,112.499996423721,2|0,1:2|0:0,0:0:0:0:
373,45,77048,6,0,L|291:58,1,82.4999998950959,10|0,2:0|0:0,0:0:0:0:
183,150,77298,2,0,L|101:136,1,82.4999998950959,2|0,1:2|1:0,0:0:0:0:
17,193,77548,1,6,3:2:0:0:
18,200,77610,1,0,1:0:0:0:
18,207,77673,1,0,1:0:0:0:
19,214,77735,1,0,1:0:0:0:
20,221,77798,2,0,L|27:277,3,37.4999988079071,10|0|0|0,2:0|1:0|1:0|1:0,0:0:0:0:
71,322,78048,6,0,B|144:335,1,74.9999976158143,2|0,1:2|1:0,0:0:0:0:
214,383,78298,2,0,P|257:352|248:300,1,112.499996423721,10|0,2:0|0:0,0:0:0:0:
184,254,78548,6,0,B|150:208|150:208|198:78,1,194.999984874726,6|2,3:2|1:2,0:0:0:0:
397,6,79048,1,10,1:2:0:0:
408,4,79110,1,0,1:0:0:0:
419,2,79173,2,0,B|440:27|440:27|424:66,1,74.9999976158143,0|0,1:0|1:0,0:0:0:0:
441,356,79548,6,0,L|477:364,1,37.4999988079071,8|0,2:0|1:0,0:0:0:0:
512,295,79673,2,0,L|475:286,1,37.4999988079071,8|0,2:0|0:0,0:0:0:0:
343,255,79798,5,8,3:2:0:0:
308,266,79860,1,0,3:0:0:0:
291,239,79923,1,0,3:0:0:0:
260,249,79985,1,0,3:0:0:0:
239,234,80048,6,0,B|212:209|212:209|106:242,1,146.249988656045,6|0,3:2|0:0,0:0:0:0:
68,177,80298,2,0,L|175:143,1,112.499996423721,2|0,1:2|0:0,0:0:0:0:
229,86,80548,1,2,1:2:0:0:
238,88,80610,1,0,1:0:0:0:
248,92,80673,1,0,1:0:0:0:
258,96,80735,1,0,1:0:0:0:
268,100,80798,2,0,L|376:130,1,112.499996423721,2|0,1:2|0:0,0:0:0:0:
432,183,81048,6,0,B|470:147|470:147|425:42,1,164.999999790192,10|2,2:0|1:2,0:0:0:0:
68,177,81548,6,0,P|47:242|102:282,1,146.249988656045,6|0,3:2|0:0,0:0:0:0:
153,336,81798,2,0,L|263:316,1,112.499996423721,2|0,1:2|0:0,0:0:0:0:
322,261,82048,2,0,B|354:292|354:292|325:365,1,123.749999842644,2|0,1:2|0:0,0:0:0:0:
263,316,82298,2,0,B|234:284|234:284|260:207,1,123.749999842644,2|0,1:2|0:0,0:0:0:0:
307,117,82548,6,0,B|341:103|369:141|354:205|268:211|224:150,1,194.999984874726,6|0,3:2|1:0,0:0:0:0:
0,11,83048,5,10,1:2:0:0:
4,23,83110,1,0,1:0:0:0:
7,35,83173,1,0,1:0:0:0:
63,98,83298,5,0,1:0:0:0:
59,111,83360,1,0,1:0:0:0:
55,124,83423,1,0,1:0:0:0:
0,197,83548,5,2,1:2:0:0:
46,263,83673,1,0,1:0:0:0:
2,348,83798,6,0,P|40:309|92:320,1,112.499996423721,2|0,3:2|0:0,0:0:0:0:
151,380,84048,6,0,B|206:367|206:367|222:338|222:338|277:326,1,146.249988656045,6|0,3:2|0:0,0:0:0:0:
340,368,84298,5,2,3:2:0:0:
512,11,87798,5,2,3:2:0:0:
512,11,88048,6,0,B|449:-11|378:43|433:72|366:121|292:89,1,239.999992370606,6|2,3:2|1:2,0:0:0:0:
239,52,88423,1,2,2:0:0:0:
178,141,88548,1,2,1:2:0:0:
180,152,88610,1,0,1:0:0:0:
182,160,88673,1,0,1:0:0:0:
183,168,88735,1,0,1:0:0:0:
184,176,88798,2,0,B|249:194|249:194|277:242|277:242|336:258,1,179.999994277954,2|0,1:2|0:0,0:0:0:0:
412,241,89048,5,10,2:0:0:0:
425,253,89173,1,2,2:0:0:0:
487,312,89298,5,2,1:2:0:0:
474,324,89423,1,2,2:0:0:0:
393,369,89548,5,6,3:2:0:0:
377,353,89673,1,2,1:2:0:0:
329,384,89798,1,2,1:2:0:0:
275,348,89923,1,2,2:0:0:0:
201,384,90048,5,2,1:2:0:0:
284,339,90173,1,2,2:0:0:0:
217,282,90298,1,2,1:2:0:0:
288,217,90423,1,2,2:0:0:0:
221,166,90548,5,6,3:2:0:0:
206,144,90673,1,2,2:0:0:0:
235,115,90798,1,2,1:2:0:0:
202,71,90923,1,2,2:0:0:0:
268,13,91048,5,10,1:2:0:0:
276,15,91110,1,0,1:0:0:0:
284,17,91173,1,2,1:2:0:0:
343,88,91298,5,2,1:2:0:0:
351,86,91360,1,0,1:0:0:0:
359,84,91423,1,2,1:2:0:0:
441,28,91548,5,2,1:2:0:0:
512,58,91673,1,2,1:2:0:0:
439,147,91798,5,2,3:2:0:0:
368,177,91923,1,2,1:2:0:0:
507,248,92048,6,0,B|488:220|488:220|344:282,1,179.999994277954,6|0,3:2|0:0,0:0:0:0:
385,350,92298,6,0,B|366:378|366:378|222:316,1,179.999994277954,4|0,3:2|0:0,0:0:0:0:
157,272,92548,5,4,3:2:0:0:
146,277,92610,1,0,1:0:0:0:
135,282,92673,1,0,1:0:0:0:
125,288,92735,1,0,1:0:0:0:
114,294,92798,1,2,1:2:0:0:
0,65,93048,6,0,B|13:37|13:37|120:69,1,134.999991588593,10|0,2:0|0:0,0:0:0:0:
192,117,93298,1,6,3:2:0:0:
102,166,93423,1,2,1:2:0:0:
203,124,93548,1,6,3:2:0:0:
213,129,93610,1,0,1:0:0:0:
223,134,93673,1,0,1:0:0:0:
233,138,93735,1,0,1:0:0:0:
243,143,93798,2,0,L|302:132,3,59.9999980926514,10|0|0|0,2:0|1:0|1:0|1:0,0:0:0:0:
380,103,94048,6,0,B|398:135|398:135|367:205,1,89.9999943923952,2|0,1:2|0:0,0:0:0:0:
294,298,94298,2,0,B|276:266|276:266|307:196,1,89.9999943923952,10|0,2:0|0:0,0:0:0:0:
463,229,94548,5,6,3:2:0:0:
382,280,94673,2,0,L|291:298,1,89.9999943923952,2|0,2:0|1:0,0:0:0:0:
178,277,94923,1,2,2:0:0:0:
141,359,95048,1,10,1:2:0:0:
148,362,95110,1,0,1:0:0:0:
155,366,95173,2,0,B|189:374|189:374|260:340,1,89.9999943923952,0|2,1:0|1:2,0:0:0:0:
293,297,95423,1,2,2:0:0:0:
249,222,95548,5,10,2:0:0:0:
353,372,95673,5,8,2:0:0:0:
474,285,95798,6,0,B|487:273|487:273|460:175,1,89.9999943923952,10|0,3:2|1:0,0:0:0:0:
492,117,96048,6,0,B|429:95|358:149|413:178|346:227|272:195,1,239.999992370606,6|0,3:2|1:0,0:0:0:0:
138,124,96548,1,2,1:2:0:0:
146,121,96610,1,0,1:0:0:0:
154,118,96673,1,0,1:0:0:0:
162,115,96735,1,0,1:0:0:0:
170,112,96798,1,0,1:0:0:0:
15,16,97048,5,10,2:0:0:0:
170,112,97214,5,2,2:0:0:0:
49,209,97381,5,2,2:0:0:0:
178,278,97548,6,0,B|181:301|181:301|91:337,1,89.9999943923952,6|0,3:2|1:0,0:0:0:0:
45,358,97798,1,2,1:2:0:0:
235,207,98048,5,2,1:2:0:0:
339,333,98235,5,2,2:0:0:0:
442,249,98423,5,2,2:0:0:0:
409,160,98548,6,0,B|387:173|387:173|433:287,1,134.999991588593,6|0,3:2|1:0,0:0:0:0:
477,345,98798,1,2,1:2:0:0:
469,359,98923,1,2,2:0:0:0:
339,333,99048,5,10,1:2:0:0:
330,330,99110,1,0,1:0:0:0:
321,326,99173,1,2,1:2:0:0:
249,260,99298,5,2,1:2:0:0:
240,263,99360,1,0,1:0:0:0:
231,267,99423,1,2,1:2:0:0:
137,302,99548,5,2,1:2:0:0:
63,279,99673,1,0,1:0:0:0:
160,376,99798,5,2,3:2:0:0:
234,353,99923,1,0,1:0:0:0:
54,273,100048,6,0,B|38:255|38:255|105:19,2,239.999992370606,6|0|0,3:2|1:0|1:0,0:0:0:0:
115,318,100610,1,0,1:0:0:0:
126,314,100673,1,0,1:0:0:0:
137,311,100735,1,0,1:0:0:0:
148,308,100798,1,2,1:2:0:0:
350,91,101048,6,0,B|302:109|302:109|287:150|287:150|229:175,1,134.999991588593,10|0,2:0|0:0,0:0:0:0:
171,150,101298,2,0,B|161:186|161:186|199:242,1,89.9999943923952,2|0,1:2|1:0,0:0:0:0:
309,324,101548,5,6,3:2:0:0:
320,321,101610,1,0,1:0:0:0:
332,319,101673,1,0,1:0:0:0:
343,316,101735,1,0,1:0:0:0:
354,311,101798,2,0,L|441:288,3,59.9999980926514,8|0|0|0,2:0|1:0|1:0|1:0,0:0:0:0:
486,330,102048,6,0,B|504:297|504:297|476:241,1,89.9999943923952,2|0,1:2|1:0,0:0:0:0:
439,181,102298,1,10,2:0:0:0:
123,71,102548,6,0,B|188:97|188:97|204:139|204:139|261:167,1,179.999994277954,6|0,3:2|0:0,0:0:0:0:
341,150,102798,2,0,B|351:186|351:186|293:273,1,134.999991588593,0|0,1:0|0:0,0:0:0:0:
246,330,103048,1,10,1:2:0:0:
238,334,103110,1,0,1:0:0:0:
230,339,103173,2,0,B|217:350|217:350|147:320,1,89.9999943923952,0|0,1:0|1:0,0:0:0:0:
149,321,103548,5,10,2:0:0:0:
292,216,103673,5,10,2:0:0:0:
70,84,103798,6,0,B|52:109|52:109|83:180,1,89.9999943923952,8|0,3:2|1:0,0:0:0:0:
