osu file format v14

[General]
AudioFilename: audio.mp3
AudioLeadIn: 0
PreviewTime: 7923
Countdown: 0
SampleSet: Soft
StackLeniency: 0.3
Mode: 0
LetterboxInBreaks: 0
WidescreenStoryboard: 0

[Editor]
Bookmarks: 8048,20048,24048,40048,56048,68048,72048,88048,104048
DistanceSpacing: 0.3
BeatDivisor: 6
GridSize: 4
TimelineZoom: 1.7

[Metadata]
Title:CHAMPION OF DEATH
TitleUnicode:CHAMPION OF DEATH
Artist:$UICIDEBOY$ x GETTER
ArtistUnicode:$UICIDEBOY$ x GETTER
Creator:melleganol
Version:ETERNAL SUICIDE
Source:
Tags:suicideboys english hip-hop hiphop hip hop rap dark emo shadow trap Ruby Da Cherry $crim Scrim g59 Yung Plague $carecrow Budd Dwyer Radical $uicide ftp grey 59 SuicideChrist yungxrist suicideLEOPARD Mizujin - aqua -_Aqua AqUa_M1X Lurumic LeomineXD
BeatmapID:3999260
BeatmapSetID:1935146

[Difficulty]
HPDrainRate:6
CircleSize:4.4
OverallDifficulty:9.3
ApproachRate:9.6
SliderMultiplier:3.59999990463257
SliderTickRate:0.5

[Events]
//Background and Video events
0,0,"championofdeath.png",0,0
//Break Periods
2,84498,87289
//Storyboard Layer 0 (Background)
//Storyboard Layer 1 (Fail)
//Storyboard Layer 2 (Pass)
//Storyboard Layer 3 (Foreground)
//Storyboard Layer 4 (Overlay)
//Storyboard Sound Samples

[TimingPoints]
48,500,4,2,77,50,1,0
8048,-55.5555555555556,4,2,77,80,0,1
8235,-55.5555555555556,4,2,77,80,0,1
8298,-100,4,2,77,80,0,1
8485,-100,4,2,77,5,0,1
8548,-100,4,2,77,80,0,1
9485,-100,4,2,77,80,0,1
9548,-55.5555555555556,4,2,77,80,0,1
13048,-100,4,2,77,80,0,1
13235,-100,4,2,77,5,0,1
13298,-100,4,2,77,80,0,1
15298,-55.5555555555556,4,2,77,80,0,1
15485,-55.5555555555556,4,2,77,5,0,1
15548,-55.5555555555556,4,2,77,80,0,1
16235,-55.5555555555556,4,2,77,5,0,1
16298,-100,4,2,77,80,0,1
16485,-100,4,2,77,5,0,1
16548,-100,4,2,77,80,0,1
17485,-100,4,2,77,5,0,1
17548,-55.5555555555556,4,2,77,80,0,1
20048,-125,4,2,77,60,0,0
24048,-83.3333333333333,4,2,77,70,0,0
24860,-166.666666666667,4,2,77,70,0,0
25298,-100,4,2,77,70,0,0
25485,-100,4,2,77,5,0,0
25548,-71.4285714285714,4,2,77,70,0,0
26048,-166.666666666667,4,2,77,70,0,0
26548,-71.4285714285714,4,2,77,70,0,0
28548,-166.666666666667,4,2,77,70,0,0
30548,-71.4285714285714,4,2,77,70,0,0
31048,-166.666666666667,4,2,77,70,0,0
31548,-71.4285714285714,4,2,77,70,0,0
32048,-166.666666666667,4,2,77,70,0,0
32548,-83.3333333333333,4,2,77,70,0,0
38048,-166.666666666667,4,2,77,70,0,0
38548,-71.4285714285714,4,2,77,70,0,0
40048,-250,4,2,77,70,0,0
41548,-71.4285714285714,4,2,77,70,0,0
42048,-100,4,2,77,70,0,0
42548,-71.4285714285714,4,2,77,70,0,0
43048,-100,4,2,77,70,0,0
44048,-71.4285714285714,4,2,77,70,0,0
44235,-71.4285714285714,4,2,77,5,0,0
44298,-71.4285714285714,4,2,77,70,0,0
45048,-100,4,2,77,70,0,0
45235,-100,4,2,77,5,0,0
45298,-71.4285714285714,4,2,77,70,0,0
46048,-100,4,2,77,70,0,0
46485,-100,4,2,77,5,0,0
46548,-71.4285714285714,4,2,77,70,0,0
46735,-71.4285714285714,4,2,77,5,0,0
46798,-71.4285714285714,4,2,77,70,0,0
47298,-100,4,2,77,70,0,0
47485,-100,4,2,77,5,0,0
47548,-55.5555555555556,4,2,77,70,0,0
48048,-71.4285714285714,4,2,77,70,0,0
48235,-71.4285714285714,4,2,77,5,0,0
48298,-100,4,2,77,70,0,0
48485,-100,4,2,77,5,0,0
48548,-100,4,2,77,70,0,0
49235,-100,4,2,77,5,0,0
49298,-100,4,2,77,70,0,0
49485,-100,4,2,77,5,0,0
49548,-71.4285714285714,4,2,77,70,0,0
49798,-100,4,2,77,70,0,0
49985,-100,4,2,77,5,0,0
50048,-100,4,2,77,70,0,0
54485,-100,4,2,77,5,0,0
54548,-71.4285714285714,4,2,77,70,0,0
54735,-71.4285714285714,4,2,77,5,0,0
54798,-71.4285714285714,4,2,77,70,0,0
55548,-55.5555555555556,4,2,77,70,0,0
56048,-55.5555555555556,4,2,77,80,0,1
56235,-55.5555555555556,4,2,77,5,0,1
56298,-100,4,2,77,80,0,1
56485,-100,4,2,77,5,0,1
56548,-166.666666666667,4,2,77,80,0,1
57298,-55.5555555555556,4,2,77,80,0,1
57485,-55.5555555555556,4,2,77,5,0,1
57548,-55.5555555555556,4,2,77,80,0,1
61048,-100,4,2,77,80,0,1
61235,-100,4,2,77,5,0,1
61298,-100,4,2,77,80,0,1
63548,-55.5555555555556,4,2,77,80,0,1
65298,-100,4,2,77,80,0,1
65485,-100,4,2,77,5,0,1
65548,-55.5555555555556,4,2,77,80,0,1
68048,-125,4,2,77,60,0,0
72048,-200,4,2,77,70,0,0
73298,-71.4285714285714,4,2,77,70,0,0
73485,-71.4285714285714,4,2,77,5,0,0
73548,-71.4285714285714,4,2,77,70,0,0
73798,-100,4,2,77,70,0,0
74485,-100,4,2,77,5,0,0
74548,-71.4285714285714,4,2,77,70,0,0
74735,-71.4285714285714,4,2,77,5,0,0
74798,-100,4,2,77,70,0,0
74985,-100,4,2,77,5,0,0
75048,-100,4,2,77,70,0,0
76048,-71.4285714285714,4,2,77,70,0,0
76235,-71.4285714285714,4,2,77,5,0,0
76298,-100,4,2,77,70,0,0
76485,-100,4,2,77,5,0,0
76548,-100,4,2,77,70,0,0
76985,-100,4,2,77,5,0,0
77048,-100,4,2,77,70,0,0
77235,-100,4,2,77,5,0,0
77298,-100,4,2,77,70,0,0
78485,-100,4,2,77,5,0,0
78548,-71.4285714285714,4,2,77,70,0,0
78735,-71.4285714285714,4,2,77,5,0,0
78798,-100,4,2,77,70,0,0
78985,-100,4,2,77,5,0,0
79048,-100,4,2,77,70,0,0
79548,-55.5555555555556,4,2,77,70,0,0
80048,-71.4285714285714,4,2,77,70,0,0
80235,-71.4285714285714,4,2,77,5,0,0
80298,-100,4,2,77,70,0,0
80485,-100,4,2,77,5,0,0
80548,-100,4,2,77,70,0,0
81235,-100,4,2,77,5,0,0
81298,-100,4,2,77,70,0,0
81485,-100,4,2,77,5,0,0
81548,-71.4285714285714,4,2,77,70,0,0
81798,-100,4,2,77,70,0,0
81985,-100,4,2,77,5,0,0
82048,-100,4,2,77,70,0,0
82235,-100,4,2,77,5,0,0
82298,-100,4,2,77,70,0,0
82485,-100,4,2,77,5,0,0
82548,-71.4285714285714,4,2,77,70,0,0
84235,-71.4285714285714,4,2,77,5,0,0
84298,-71.4285714285714,4,2,77,70,0,0
88048,-50,4,2,77,70,0,0
88235,-50,4,2,77,5,0,0
88298,-100,4,2,77,70,0,0
92048,-50,4,2,77,70,0,0
92235,-50,4,2,77,5,0,0
92298,-50,4,2,77,70,0,0
92485,-50,4,2,77,5,0,0
92548,-100,4,2,77,70,0,0
93235,-100,4,2,77,5,0,0
93298,-100,4,2,77,70,0,0
94485,-100,4,2,77,5,0,0
94548,-100,4,2,77,70,0,0
95548,-55.5555555555556,4,2,77,70,0,0
96048,-50,4,2,77,70,0,0
98735,-50,4,2,77,5,0,0
98798,-50,4,2,77,70,0,0
100798,-100,4,2,77,70,0,0
101235,-100,4,2,77,5,0,0
101298,-100,4,2,77,70,0,0
102485,-100,4,2,77,5,0,0
102548,-50,4,2,77,70,0,0
103048,-100,4,2,77,70,0,0
103548,-50,4,2,77,70,0,0

[Colours]
Combo1 : 95,95,95
Combo2 : 85,102,255

[HitObjects]
0,16,8048,6,0,B|76:14|103:84|75:86|107:153|183:152,1,242.999986146927,6|0,3:2|0:0,0:0:0:0:
259,167,8298,2,0,B|217:166|202:204|218:205|200:241|159:241,1,134.999996423721,2|0,1:2|0:0,0:0:0:0:
89,282,8548,1,2,1:2:0:0:
87,273,8610,1,0,1:0:0:0:
85,264,8673,1,0,1:0:0:0:
83,255,8735,1,0,1:0:0:0:
81,246,8798,5,2,1:2:0:0:
168,327,8923,1,2,2:0:0:0:
288,243,9048,1,10,2:0:0:0:
162,332,9173,1,2,2:0:0:0:
298,238,9298,2,0,B|353:251|353:251|368:278|368:278|419:293,1,134.999996423721,2|0,1:2|0:0,0:0:0:0:
445,365,9548,6,0,L|475:187,2,161.999990764618,6|0|0,3:2|1:0|1:0,0:0:0:0:
204,113,10048,5,2,1:2:0:0:
269,160,10173,1,2,2:0:0:0:
280,81,10298,1,2,1:2:0:0:
196,115,10423,1,2,2:0:0:0:
428,13,10548,5,6,3:2:0:0:
379,76,10673,1,2,2:0:0:0:
341,8,10798,1,2,1:2:0:0:
438,6,10923,1,2,2:0:0:0:
268,75,11048,5,10,2:0:0:0:
252,69,11110,1,0,1:0:0:0:
236,64,11173,1,0,1:0:0:0:
154,0,11298,5,2,2:0:0:0:
138,6,11360,1,0,1:0:0:0:
122,11,11423,1,0,1:0:0:0:
18,62,11548,5,2,1:2:0:0:
36,138,11673,1,0,1:0:0:0:
164,239,11798,5,0,3:0:0:0:
146,315,11923,1,0,1:0:0:0:
26,130,12048,5,6,3:2:0:0:
108,168,12173,1,2,2:0:0:0:
44,228,12298,1,2,1:2:0:0:
117,160,12423,1,2,2:0:0:0:
176,242,12548,5,2,1:2:0:0:
191,248,12610,1,0,1:0:0:0:
206,253,12673,1,2,1:2:0:0:
221,258,12735,1,0,1:0:0:0:
236,263,12798,5,2,1:2:0:0:
300,214,12923,1,2,2:0:0:0:
403,351,13048,2,0,B|389:310|389:310|421:207,1,134.999996423721,10|0,2:0|0:0,0:0:0:0:
432,217,13298,2,0,L|401:310,1,89.9999976158143,2|0,1:2|1:0,0:0:0:0:
299,331,13548,1,2,3:2:0:0:
297,322,13610,1,0,1:0:0:0:
294,313,13673,1,0,1:0:0:0:
291,304,13735,1,0,1:0:0:0:
284,276,13798,1,8,1:2:0:0:
286,267,13860,1,0,1:0:0:0:
288,258,13923,1,0,1:0:0:0:
290,249,13985,1,0,1:0:0:0:
293,240,14048,5,2,1:2:0:0:
232,187,14173,1,2,1:2:0:0:
125,280,14298,1,10,2:0:0:0:
199,312,14423,1,2,2:0:0:0:
76,183,14548,5,2,3:2:0:0:
96,107,14673,1,2,2:0:0:0:
186,77,14798,5,2,1:2:0:0:
166,1,14923,1,2,2:0:0:0:
95,117,15048,5,10,2:0:0:0:
99,129,15110,1,0,1:0:0:0:
103,141,15173,1,0,1:0:0:0:
231,224,15298,6,0,B|348:198|348:198|335:210|335:210|473:176,1,242.999986146927,6|0,3:2|0:0,0:0:0:0:
489,108,15548,6,0,B|470:146|470:146|491:203,1,80.9999953823091,10|0,2:0|1:0,0:0:0:0:
372,280,15673,2,0,B|391:242|391:242|370:185,1,80.9999953823091,10|0,2:0|0:0,0:0:0:0:
246,50,15798,2,0,B|262:77|262:77|399:123,1,161.999990764618,10|0,3:2|1:0,0:0:0:0:
512,187,16048,6,0,B|436:185|409:255|437:257|405:324|329:323,1,242.999986146927,6|0,3:2|0:0,0:0:0:0:
256,295,16298,2,0,B|298:294|313:332|297:333|315:369|356:369,1,134.999996423721,2|0,1:2|0:0,0:0:0:0:
455,384,16548,1,2,1:2:0:0:
460,371,16610,1,0,1:0:0:0:
465,358,16673,1,0,1:0:0:0:
470,345,16735,1,0,1:0:0:0:
476,333,16798,5,2,1:2:0:0:
407,284,16923,1,2,2:0:0:0:
481,183,17048,1,10,2:0:0:0:
404,291,17173,1,2,2:0:0:0:
485,174,17298,2,0,L|454:40,1,134.999996423721,2|0,2:0|0:0,0:0:0:0:
354,13,17548,6,0,L|518:46,2,161.999990764618,6|0|0,3:2|1:0|1:0,0:0:0:0:
177,24,18048,5,2,1:2:0:0:
230,86,18173,1,2,2:0:0:0:
275,17,18298,1,2,1:2:0:0:
163,19,18423,1,2,2:0:0:0:
401,142,18548,5,6,3:2:0:0:
348,204,18673,1,2,2:0:0:0:
303,135,18798,1,2,1:2:0:0:
415,137,18923,1,2,2:0:0:0:
231,247,19048,5,10,2:0:0:0:
215,241,19110,1,0,1:0:0:0:
199,236,19173,1,0,1:0:0:0:
117,172,19298,5,2,2:0:0:0:
101,178,19360,1,0,1:0:0:0:
85,183,19423,1,0,1:0:0:0:
32,309,19548,5,2,1:2:0:0:
104,278,19673,1,0,1:0:0:0:
239,139,19798,5,2,3:2:0:0:
311,170,19923,1,0,1:0:0:0:
224,134,20048,6,0,L|145:159,1,71.9999980926514,8|2,0:1|2:0,0:0:0:0:
97,101,20298,1,2,2:0:0:0:
103,89,20423,1,2,2:0:0:0:
27,54,20548,6,0,L|106:79,1,71.9999980926514,8|2,0:1|2:0,0:0:0:0:
199,0,20798,6,0,L|171:75,1,71.9999980926514,8|2,0:1|2:0,0:0:0:0:
277,150,21048,6,0,L|261:73,1,71.9999980926514,8|0,0:1|0:0,0:0:0:0:
317,37,21298,2,0,B|320:70|320:70|297:116,1,71.9999980926514,2|0,2:0|0:0,0:0:0:0:
193,217,21548,6,0,L|273:249,1,71.9999980926514,8|0,0:1|0:0,0:0:0:0:
413,171,21798,6,0,L|329:198,1,71.9999980926514,8|0,0:1|0:0,0:0:0:0:
299,334,22048,6,0,L|339:268,1,71.9999980926514,8|2,0:1|2:0,0:0:0:0:
209,315,22298,6,0,L|233:402,1,71.9999980926514,8|2,0:1|2:0,0:0:0:0:
299,334,22548,1,2,2:0:0:0:
306,323,22673,1,2,2:0:0:0:
259,243,22798,6,0,L|173:225,1,71.9999980926514,8|2,0:1|2:0,0:0:0:0:
133,221,23048,2,0,B|163:228|163:228|215:193,1,71.9999980926514,2|2,2:0|2:0,0:0:0:0:
169,76,23298,6,0,L|145:156,1,71.9999980926514,8|0,0:1|0:0,0:0:0:0:
334,204,23548,6,0,L|310:124,1,71.9999980926514,8|0,0:1|0:0,0:0:0:0:
337,0,23798,6,0,L|259:40,1,71.9999980926514,8|0,0:1|0:0,0:0:0:0:
71,249,24048,6,0,B|96:226|105:222|134:221|156:230|166:244|170:266|179:290|193:310|211:320|229:325|247:323|269:312|276:282|260:251|243:230|217:230|187:239|170:268|158:295|153:313|138:319|110:325,1,377.999978450776,6|2,3:2|2:0,0:0:0:0:
125,327,24548,1,0,1:0:0:0:
125,327,24860,2,0,P|169:333|212:349,1,80.9999953823091,2|8,2:0|2:0,0:0:0:0:
465,310,25298,6,0,P|398:332|336:377,1,134.999996423721,4|0,3:2|0:0,0:0:0:0:
333,376,25548,6,0,P|356:328|321:244,1,125.999992816925,4|0,3:2|1:0,0:0:0:0:
265,172,25798,1,2,1:2:0:0:
260,184,25923,1,2,2:0:0:0:
359,144,26048,6,0,P|413:146|423:200,1,107.999993843079,2|2,2:0|2:0,0:0:0:0:
476,253,26548,6,0,B|442:248|423:236|406:212|402:189|406:158|414:124|416:83|382:57|346:45|329:58,1,251.999985633851,6|2,3:2|2:0,0:0:0:0:
252,8,27048,5,8,1:2:0:0:
255,20,27110,1,0,1:0:0:0:
258,32,27173,1,0,1:0:0:0:
294,118,27298,5,0,1:0:0:0:
291,130,27360,1,0,1:0:0:0:
288,142,27423,1,0,1:0:0:0:
228,194,27548,5,0,1:0:0:0:
155,162,27673,1,0,1:0:0:0:
287,300,27798,5,2,3:2:0:0:
360,268,27923,1,0,1:0:0:0:
185,370,28048,6,0,B|162:369|156:368|147:362|139:352|132:336|129:318|143:299|165:288|181:289|202:290|220:298|239:317|265:345|285:377,1,251.999985633851,6|2,3:2|2:0,0:0:0:0:
360,376,28485,1,2,2:0:0:0:
355,384,28548,2,0,L|333:265,1,107.999993843079,0|2,1:0|2:0,0:0:0:0:
432,192,29048,6,0,B|399:210|399:210|327:185,1,107.999993843079,8|0,2:0|1:0,0:0:0:0:
259,155,29423,1,0,1:0:0:0:
350,31,29548,5,6,3:2:0:0:
359,35,29610,1,0,1:0:0:0:
369,38,29673,1,0,1:0:0:0:
494,99,29798,5,10,2:0:0:0:
484,103,29860,1,0,1:0:0:0:
474,107,29923,1,0,1:0:0:0:
464,111,29985,1,0,1:0:0:0:
455,117,30048,2,0,B|446:137|446:137|461:175,1,53.9999969215394,2|0,1:2|1:0,0:0:0:0:
497,274,30298,1,8,2:0:0:0:
388,254,30485,5,2,2:0:0:0:
378,250,30548,2,0,B|304:224|257:297|306:307|252:387|177:373,1,251.999985633851,4|2,3:2|2:0,0:0:0:0:
33,255,31048,5,8,2:0:0:0:
43,258,31110,1,0,1:0:0:0:
53,260,31173,2,0,L|113:245,1,53.9999969215394,0|0,1:0|1:0,0:0:0:0:
199,142,31548,6,0,B|201:116|201:116|173:88,1,62.9999964084627,8|0,3:2|1:0,0:0:0:0:
50,155,31673,6,0,B|76:162|76:162|126:144,1,62.9999964084627,8|0,2:0|1:0,0:0:0:0:
112,32,31798,6,0,B|88:43|88:43|78:81,1,62.9999964084627,8|0,3:2|3:0,0:0:0:0:
158,225,31923,1,0,3:0:0:0:
180,235,31985,1,0,3:0:0:0:
203,245,32048,5,6,3:2:0:0:
292,200,32235,5,2,2:0:0:0:
363,276,32423,5,2,2:0:0:0:
466,212,32548,6,0,P|493:222|516:242,2,53.9999969215394,2|0|0,1:2|1:0|1:0,0:0:0:0:
446,137,32735,6,0,P|419:147|396:167,2,53.9999969215394,2|0|0,1:2|1:0|0:0,0:0:0:0:
401,67,32923,5,2,2:0:0:0:
512,0,33048,5,10,2:0:0:0:
394,73,33235,5,2,2:0:0:0:
278,0,33423,5,2,2:0:0:0:
401,80,33548,6,0,B|413:127|413:127|349:294,1,215.999987686158,4|0,3:2|1:0,0:0:0:0:
227,384,34048,5,2,2:0:0:0:
176,305,34235,5,2,2:0:0:0:
236,205,34423,5,2,2:0:0:0:
128,70,34548,6,0,P|120:120|252:167,1,215.999987686158,6|2,3:2|2:0,0:0:0:0:
309,123,34923,1,2,2:0:0:0:
384,234,35048,6,0,L|410:186,2,53.9999969215394,10|0|0,2:0|1:0|1:0,0:0:0:0:
322,285,35235,6,0,L|263:257,2,53.9999969215394,2|0|0,2:0|1:0|1:0,0:0:0:0:
377,344,35423,5,2,1:2:0:0:
474,296,35548,5,0,1:0:0:0:
487,263,35673,1,0,1:0:0:0:
448,166,35798,6,0,B|436:190|436:190|478:275,1,107.999993843079,0|0,3:0|1:0,0:0:0:0:
370,355,36048,5,6,3:2:0:0:
300,279,36235,5,2,2:0:0:0:
203,371,36423,5,2,2:0:0:0:
105,293,36548,6,0,P|78:298|45:315,2,53.9999969215394,2|0|0,1:2|1:0|1:0,0:0:0:0:
165,229,36735,6,0,P|192:234|225:251,1,53.9999969215394,2|0,1:2|1:0,0:0:0:0:
79,182,36923,5,2,2:0:0:0:
248,93,37048,5,10,2:0:0:0:
131,19,37235,5,2,2:0:0:0:
257,99,37423,5,2,1:2:0:0:
362,23,37548,5,4,3:2:0:0:
372,26,37610,1,0,1:0:0:0:
382,29,37673,1,0,1:0:0:0:
391,33,37735,1,0,1:0:0:0:
418,62,37798,1,8,2:0:0:0:
427,66,37860,1,0,1:0:0:0:
437,70,37923,1,0,1:0:0:0:
446,74,37985,1,0,1:0:0:0:
456,77,38048,6,0,B|461:105|461:105|447:143,1,53.9999969215394,2|0,1:2|1:0,0:0:0:0:
378,226,38298,1,10,2:0:0:0:
446,265,38423,1,2,2:0:0:0:
328,134,38548,6,0,B|281:154|281:154|267:174|267:174|177:217|177:217|164:251|164:251|106:281,1,251.999985633851,6|2,3:2|1:2,0:0:0:0:
58,309,38923,1,2,2:0:0:0:
242,276,39048,6,0,P|256:311|255:344,2,62.9999964084627,10|0|0,2:0|1:0|1:0,0:0:0:0:
328,261,39235,6,0,P|339:225|361:200,1,62.9999964084627,2|0,2:0|1:0,0:0:0:0:
336,341,39423,5,2,2:0:0:0:
254,197,39548,6,0,B|247:169|247:169|264:124,1,62.9999964084627,8|0,1:2|1:0,0:0:0:0:
351,58,39673,6,0,B|358:86|358:86|341:131,1,62.9999964084627,8|0,1:2|0:0,0:0:0:0:
145,84,39798,6,0,B|180:54|180:54|271:47,1,125.999992816925,8|0,3:2|1:0,0:0:0:0:
454,100,40048,6,0,L|165:166,1,287.999992370606,4|10,3:1|2:0,0:0:0:0:
173,164,41298,1,2,2:0:0:0:
512,280,41548,6,0,B|465:270|465:270|377:313,1,125.999992816925,6|0,3:2|1:0,0:0:0:0:
327,347,41798,1,2,1:2:0:0:
501,147,42048,6,0,B|485:176|485:176|412:200,1,89.9999976158143,2|0,1:2|0:0,0:0:0:0:
354,215,42298,1,2,1:2:0:0:
229,44,42548,6,0,B|276:34|276:34|364:77,1,125.999992816925,6|0,3:2|0:0,0:0:0:0:
414,111,42798,1,2,1:2:0:0:
250,235,43048,5,10,1:2:0:0:
248,226,43110,1,0,1:0:0:0:
245,217,43173,1,0,1:0:0:0:
165,153,43298,5,2,1:2:0:0:
167,144,43360,1,0,1:0:0:0:
170,135,43423,1,2,1:2:0:0:
110,73,43548,6,0,B|80:64|80:64|19:105,1,89.9999976158143,2|0,1:2|1:0,0:0:0:0:
57,272,43798,5,2,3:2:0:0:
100,212,43923,1,2,1:2:0:0:
25,178,44048,6,0,B|68:196|68:196|222:176,1,188.999989225388,6|0,3:2|0:0,0:0:0:0:
223,173,44298,1,6,3:2:0:0:
164,269,44423,1,2,2:0:0:0:
248,159,44548,1,6,3:2:0:0:
260,155,44610,1,0,1:0:0:0:
271,150,44673,1,0,1:0:0:0:
283,146,44735,1,0,1:0:0:0:
295,142,44798,5,2,1:2:0:0:
364,191,44923,1,2,2:0:0:0:
282,227,45048,6,0,B|266:197|266:197|295:91,1,134.999996423721,10|0,2:0|0:0,0:0:0:0:
288,85,45298,6,0,B|262:179|262:179|277:212,1,125.999992816925,2|0,3:2|1:0,0:0:0:0:
136,327,45548,1,6,3:2:0:0:
147,331,45610,1,0,1:0:0:0:
159,335,45673,1,0,1:0:0:0:
170,339,45735,1,0,1:0:0:0:
213,367,45798,1,8,2:0:0:0:
224,363,45860,1,0,1:0:0:0:
236,359,45923,1,0,1:0:0:0:
247,355,45985,1,0,1:0:0:0:
255,351,46048,6,0,B|271:320|271:320|249:268,1,89.9999976158143,2|0,1:2|1:0,0:0:0:0:
146,139,46298,2,0,B|122:184|122:184|154:261,1,134.999996423721,10|0,2:0|0:0,0:0:0:0:
156,291,46548,6,0,B|110:183|110:183|143:120,1,188.999989225388,6|0,3:2|0:0,0:0:0:0:
153,108,46798,1,2,2:0:0:0:
226,158,46923,1,2,2:0:0:0:
318,57,47048,1,10,1:2:0:0:
313,45,47110,1,0,1:0:0:0:
308,33,47173,1,2,1:2:0:0:
243,89,47298,2,0,B|237:128|237:128|274:216,1,134.999996423721,2|0,1:2|0:0,0:0:0:0:
285,230,47548,6,0,B|316:238|316:238|368:207,1,80.9999953823091,10|0,2:0|1:0,0:0:0:0:
406,106,47673,6,0,B|375:98|375:98|323:129,1,80.9999953823091,10|0,2:0|0:0,0:0:0:0:
191,276,47798,6,0,B|168:249|168:249|218:91,1,161.999990764618,10|0,3:2|1:0,0:0:0:0:
61,0,48048,6,0,B|39:12|21:25|0:63|7:86|33:111|56:119|73:132|59:170,1,188.999989225388,6|0,3:2|0:0,0:0:0:0:
57,166,48298,2,0,P|76:123|168:122,1,134.999996423721,2|0,2:0|0:0,0:0:0:0:
235,98,48548,1,2,1:2:0:0:
243,101,48610,1,0,1:0:0:0:
251,104,48673,1,0,1:0:0:0:
259,107,48735,1,0,1:0:0:0:
267,110,48798,5,2,1:2:0:0:
340,56,48923,1,2,2:0:0:0:
428,151,49048,6,0,B|401:189|401:189|299:208,1,134.999996423721,10|0,2:0|0:0,0:0:0:0:
304,213,49298,2,0,B|390:196|390:196|429:222,1,134.999996423721,2|0,2:0|0:0,0:0:0:0:
439,241,49548,6,0,B|400:215|400:215|285:235,1,125.999992816925,6|0,3:2|1:0,0:0:0:0:
306,358,49798,2,0,P|345:377|382:303,1,134.999996423721,2|0,1:2|0:0,0:0:0:0:
382,303,50048,1,2,1:2:0:0:
382,303,50298,1,2,1:2:0:0:
158,384,50548,5,6,3:2:0:0:
217,326,50673,2,0,L|202:234,1,89.9999976158143,2|0,2:0|1:0,0:0:0:0:
191,157,50923,1,2,2:0:0:0:
79,259,51048,5,10,1:2:0:0:
70,262,51110,1,0,1:0:0:0:
61,265,51173,1,2,1:2:0:0:
1,172,51298,5,2,1:2:0:0:
10,175,51360,1,0,1:0:0:0:
19,178,51423,1,0,1:0:0:0:
138,163,51548,5,2,1:2:0:0:
160,91,51673,1,0,1:0:0:0:
50,97,51798,5,0,3:0:0:0:
28,25,51923,1,0,1:0:0:0:
168,96,52048,5,6,3:2:0:0:
240,48,52173,1,2,2:0:0:0:
167,11,52298,1,2,1:2:0:0:
253,53,52423,1,2,2:0:0:0:
147,10,52548,1,2,1:2:0:0:
138,13,52610,1,0,1:0:0:0:
129,16,52673,1,2,1:2:0:0:
121,20,52735,1,0,1:0:0:0:
113,24,52798,5,2,1:2:0:0:
48,89,52923,1,2,2:0:0:0:
138,170,53048,1,10,2:0:0:0:
40,82,53173,1,2,2:0:0:0:
146,179,53298,6,0,B|180:194|180:194|241:169,1,89.9999976158143,2|0,1:2|1:0,0:0:0:0:
326,84,53548,1,6,3:2:0:0:
334,86,53610,1,0,1:0:0:0:
342,87,53673,1,0,1:0:0:0:
350,89,53735,1,0,1:0:0:0:
368,127,53798,1,8,2:0:0:0:
376,129,53860,1,0,1:0:0:0:
384,130,53923,1,0,1:0:0:0:
392,131,53985,1,0,1:0:0:0:
400,132,54048,6,0,B|414:145|414:145|387:222,1,89.9999976158143,2|0,1:2|1:0,0:0:0:0:
292,310,54298,2,0,B|273:292|273:292|309:189,1,134.999996423721,10|0,2:0|0:0,0:0:0:0:
310,158,54548,6,0,B|259:302|259:302|285:326,1,188.999989225388,6|0,3:2|0:0,0:0:0:0:
294,338,54798,1,2,2:0:0:0:
180,229,55048,5,10,1:2:0:0:
168,233,55110,1,0,1:0:0:0:
156,238,55173,1,2,2:0:0:0:
80,270,55298,1,2,1:2:0:0:
80,270,55548,6,0,B|65:253|65:253|100:182,1,80.9999953823091,10|0,2:0|1:0,0:0:0:0:
136,95,55673,6,0,B|158:90|158:90|202:156,1,80.9999953823091,8|0,2:0|1:0,0:0:0:0:
335,254,55798,6,0,B|311:282|311:282|187:246,1,161.999990764618,8|0,3:2|1:0,0:0:0:0:
56,59,56048,6,0,B|6:64|6:64|-15:68|-21:90|-10:101|5:106|5:106|135:94,1,242.999986146927,6|0,3:2|0:0,0:0:0:0:
198,145,56298,2,0,B|225:147|225:147|237:150|241:162|235:168|226:171|226:171|153:164,1,134.999996423721,2|0,2:0|0:0,0:0:0:0:
98,223,56548,2,0,B|75:225|75:225|66:227|63:237|68:241|75:244|75:244|133:238,1,107.999993843079,2|2,1:2|1:2,0:0:0:0:
214,251,56923,1,2,2:0:0:0:
145,320,57048,5,10,2:0:0:0:
222,243,57173,1,2,2:0:0:0:
246,361,57298,6,0,B|225:309|225:309|282:126,1,242.999986146927,2|0,3:2|0:0,0:0:0:0:
356,91,57548,6,0,L|193:133,2,161.999990764618,6|0|0,3:2|1:0|1:0,0:0:0:0:
496,377,58048,5,2,1:2:0:0:
462,299,58173,1,2,2:0:0:0:
408,365,58298,1,2,1:2:0:0:
505,384,58423,1,2,2:0:0:0:
296,252,58548,5,6,3:2:0:0:
373,286,58673,1,2,2:0:0:0:
307,340,58798,1,2,1:2:0:0:
288,242,58923,1,2,2:0:0:0:
425,198,59048,5,10,1:2:0:0:
431,202,59110,1,0,1:0:0:0:
437,206,59173,1,0,1:0:0:0:
512,271,59298,5,2,1:2:0:0:
506,275,59360,1,0,1:0:0:0:
500,279,59423,1,0,1:0:0:0:
427,340,59548,5,2,1:2:0:0:
356,303,59673,1,0,1:0:0:0:
254,199,59798,5,0,3:0:0:0:
183,236,59923,1,0,1:0:0:0:
45,328,60048,5,6,3:2:0:0:
86,257,60173,1,2,2:0:0:0:
134,326,60298,1,2,1:2:0:0:
38,333,60423,1,2,2:0:0:0:
192,231,60548,5,2,1:2:0:0:
199,234,60610,1,0,1:0:0:0:
206,236,60673,1,2,1:2:0:0:
213,238,60735,1,0,1:0:0:0:
220,240,60798,5,2,1:2:0:0:
294,192,60923,1,2,2:0:0:0:
179,117,61048,6,0,B|144:108|144:108|62:166,1,134.999996423721,10|0,2:0|0:0,0:0:0:0:
52,176,61298,2,0,B|84:169|84:169|147:197,1,89.9999976158143,2|0,1:2|1:0,0:0:0:0:
283,226,61548,1,2,3:2:0:0:
281,234,61610,1,0,1:0:0:0:
280,243,61673,1,0,1:0:0:0:
278,251,61735,1,0,1:0:0:0:
302,284,61798,1,8,2:0:0:0:
301,292,61860,1,0,1:0:0:0:
299,300,61923,1,0,1:0:0:0:
297,308,61985,1,0,1:0:0:0:
296,317,62048,5,2,1:2:0:0:
232,374,62173,1,2,1:2:0:0:
113,300,62298,1,10,1:2:0:0:
46,357,62423,1,2,2:0:0:0:
212,283,62548,5,6,3:2:0:0:
159,220,62673,1,2,2:0:0:0:
249,193,62798,1,2,1:2:0:0:
219,289,62923,1,2,2:0:0:0:
75,163,63048,5,10,1:2:0:0:
78,154,63110,1,0,1:0:0:0:
81,145,63173,1,0,1:0:0:0:
153,90,63298,1,2,1:2:0:0:
153,90,63548,6,0,B|154:70|154:70|84:49,1,80.9999953823091,8|0,2:0|1:0,0:0:0:0:
222,167,63673,6,0,B|241:171|241:171|274:106,1,80.9999953823091,8|0,2:0|0:0,0:0:0:0:
114,176,63798,6,0,B|86:197|86:197|136:313,1,161.999990764618,8|0,3:2|1:0,0:0:0:0:
255,384,64048,5,6,3:2:0:0:
279,362,64110,1,0,3:0:0:0:
259,335,64173,1,0,3:0:0:0:
286,319,64235,1,0,3:0:0:0:
274,288,64298,1,2,3:2:0:0:
418,177,64548,1,2,1:2:0:0:
420,184,64610,1,0,1:0:0:0:
422,191,64673,1,0,1:0:0:0:
424,198,64735,1,0,1:0:0:0:
426,205,64797,5,2,1:2:0:0:
500,253,64923,1,2,2:0:0:0:
389,336,65048,1,10,2:0:0:0:
458,384,65173,1,2,2:0:0:0:
379,332,65298,2,0,B|360:317|360:317|235:366,1,134.999996423721,2|0,1:2|0:0,0:0:0:0:
174,332,65548,6,0,L|350:392,2,161.999990764618,6|0|0,3:2|1:0|1:0,0:0:0:0:
48,9,66048,5,2,1:2:0:0:
86,88,66173,1,2,2:0:0:0:
0,76,66298,1,2,1:2:0:0:
55,0,66423,1,2,2:0:0:0:
198,137,66548,5,6,3:2:0:0:
246,67,66673,1,2,2:0:0:0:
160,58,66798,1,2,1:2:0:0:
205,145,66923,1,2,2:0:0:0:
362,0,67048,5,10,1:2:0:0:
364,7,67110,1,0,1:0:0:0:
365,14,67173,1,0,1:0:0:0:
448,102,67298,5,2,1:2:0:0:
447,110,67360,1,0,1:0:0:0:
445,118,67423,1,0,1:0:0:0:
340,187,67548,5,2,1:2:0:0:
356,265,67673,1,0,1:0:0:0:
494,298,67798,5,0,3:0:0:0:
478,376,67923,1,0,1:0:0:0:
346,259,68048,6,0,B|360:173,1,71.9999980926514,8|2,0:1|2:0,0:0:0:0:
282,143,68298,1,2,2:0:0:0:
261,154,68423,1,2,2:0:0:0:
174,147,68548,6,0,L|263:167,1,71.9999980926514,8|2,0:1|2:0,0:0:0:0:
252,274,68798,6,0,L|163:294,1,71.9999980926514,8|2,0:1|2:0,0:0:0:0:
72,290,69048,6,0,L|116:215,1,71.9999980926514,8|0,0:1|0:0,0:0:0:0:
75,181,69298,2,0,B|90:200|90:200|66:258,1,71.9999980926514,2|0,2:0|0:0,0:0:0:0:
20,384,69548,6,0,L|-3:306,1,71.9999980926514,8|0,0:1|0:0,0:0:0:0:
135,343,69798,6,0,L|212:367,1,71.9999980926514,8|0,0:1|0:0,0:0:0:0:
201,269,70048,6,0,L|178:174,1,71.9999980926514,8|2,0:1|2:0,0:0:0:0:
288,163,70298,6,0,L|265:258,1,71.9999980926514,8|2,0:1|2:0,0:0:0:0:
304,313,70548,1,2,2:0:0:0:
325,324,70673,1,2,2:0:0:0:
412,317,70798,6,0,L|323:337,1,71.9999980926514,8|2,0:1|2:0,0:0:0:0:
300,384,71048,2,0,B|321:369|321:369|373:383,1,71.9999980926514,2|0,2:0|0:0,0:0:0:0:
489,384,71298,6,0,L|505:299,1,71.9999980926514,8|0,0:1|0:0,0:0:0:0:
398,246,71548,6,0,L|414:331,1,71.9999980926514,8|0,0:1|0:0,0:0:0:0:
300,384,71798,6,0,L|316:299,1,71.9999980926514,8|0,0:1|0:0,0:0:0:0:
270,155,72048,6,0,B|247:134|239:130|213:130|194:138|185:150|181:170|173:192|160:209|144:218|128:223|112:221|92:211|86:184|100:156|115:138|139:138|166:146|181:172|192:196|196:212|210:218|235:223,1,359.999990463257,4|10,3:1|2:0,0:0:0:0:
408,276,73298,6,0,B|382:257|382:257|230:335,1,188.999989225388,2|0,3:2|0:0,0:0:0:0:
192,384,73548,6,0,L|217:258,1,125.999992816925,6|0,3:2|1:0,0:0:0:0:
257,141,73798,2,0,B|248:161|248:161|282:221,1,89.9999976158143,2|0,1:2|0:0,0:0:0:0:
408,276,74048,2,0,B|417:256|417:256|383:196,1,89.9999976158143,2|0,1:2|0:0,0:0:0:0:
338,120,74298,2,0,B|358:98|358:98|471:119,1,134.999996423721,2|0,1:2|0:0,0:0:0:0:
477,113,74548,6,0,L|274:78,1,188.999989225388,6|0,3:2|0:0,0:0:0:0:
236,29,74798,2,0,B|257:42|257:42|219:157,1,134.999996423721,2|0,2:0|0:0,0:0:0:0:
162,207,75048,5,10,1:2:0:0:
165,215,75110,1,0,1:0:0:0:
167,223,75173,1,0,1:0:0:0:
228,301,75298,5,0,1:0:0:0:
225,309,75360,1,0,1:0:0:0:
223,317,75423,1,0,1:0:0:0:
152,367,75548,5,0,1:0:0:0:
79,344,75673,1,0,1:0:0:0:
0,249,75798,5,2,3:2:0:0:
73,226,75923,1,0,1:0:0:0:
211,180,76048,6,0,B|244:194|244:194|255:208|255:208|320:240|320:240|329:264|329:264|371:286,1,188.999989225388,6|0,3:2|0:0,0:0:0:0:
408,347,76298,2,0,B|391:329|391:329|438:198,1,134.999996423721,2|0,1:2|0:0,0:0:0:0:
489,153,76548,1,2,1:2:0:0:
486,144,76610,1,0,1:0:0:0:
483,135,76673,1,0,1:0:0:0:
479,126,76735,1,0,1:0:0:0:
476,117,76798,2,0,B|458:104|458:104|337:156,1,134.999996423721,2|0,1:2|0:0,0:0:0:0:
296,99,77048,6,0,L|348:243,1,134.999996423721,10|0,2:0|0:0,0:0:0:0:
317,297,77298,2,0,B|297:283|297:283|324:204,1,89.9999976158143,2|0,1:2|1:0,0:0:0:0:
238,172,77548,1,6,3:2:0:0:
229,175,77610,1,0,1:0:0:0:
220,178,77673,1,0,1:0:0:0:
211,181,77735,1,0,1:0:0:0:
191,216,77798,1,10,2:0:0:0:
183,219,77860,1,0,1:0:0:0:
174,223,77923,1,0,1:0:0:0:
166,227,77985,1,0,1:0:0:0:
158,231,78048,6,0,B|147:217|147:217|171:138,1,89.9999976158143,2|0,1:2|1:0,0:0:0:0:
225,34,78298,2,0,L|82:84,1,134.999996423721,10|0,2:0|0:0,0:0:0:0:
32,34,78548,6,0,B|9:68|9:68|70:210,1,188.999989225388,6|0,3:2|0:0,0:0:0:0:
6,251,78798,2,0,B|28:228|28:228|135:254,1,134.999996423721,2|0,1:2|0:0,0:0:0:0:
200,293,79048,1,10,1:2:0:0:
208,290,79110,1,0,1:0:0:0:
216,288,79173,2,0,B|236:298|236:298|210:382,1,89.9999976158143,0|0,1:0|1:0,0:0:0:0:
0,372,79548,6,0,B|16:358|16:358|80:380,1,80.9999953823091,8|0,2:0|1:0,0:0:0:0:
132,302,79673,6,0,B|116:316|116:316|52:294,1,80.9999953823091,8|0,2:0|0:0,0:0:0:0:
0,210,79798,5,8,3:2:0:0:
28,195,79860,1,0,3:0:0:0:
66,220,79923,1,0,3:0:0:0:
116,193,79985,1,0,3:0:0:0:
166,228,80048,6,0,L|360:280,1,188.999989225388,6|0,3:2|0:0,0:0:0:0:
423,305,80298,2,0,B|397:287|397:287|289:336,1,134.999996423721,2|0,1:2|0:0,0:0:0:0:
218,358,80548,1,2,1:2:0:0:
209,354,80610,1,0,1:0:0:0:
201,349,80673,1,0,1:0:0:0:
192,345,80735,1,0,1:0:0:0:
183,341,80798,2,0,B|200:321|200:321|264:352,1,89.9999976158143,2|0,1:2|0:0,0:0:0:0:
363,384,81048,6,0,L|333:247,1,134.999996423721,10|0,2:0|0:0,0:0:0:0:
262,218,81298,2,0,B|289:200|289:200|401:236,1,134.999996423721,2|0,1:2|0:0,0:0:0:0:
475,249,81548,6,0,L|336:292,1,125.999992816925,6|0,3:2|1:0,0:0:0:0:
246,98,81798,2,0,L|375:138,1,134.999996423721,2|0,1:2|0:0,0:0:0:0:
454,145,82048,2,0,B|468:121|468:121|456:79|456:79|394:58,1,134.999996423721,2|0,1:2|0:0,0:0:0:0:
350,5,82298,2,0,L|376:149,1,134.999996423721,2|0,1:2|0:0,0:0:0:0:
303,220,82548,6,0,B|280:216|268:210|247:191|234:166|239:148|251:126|286:115|342:125|377:171|366:206,1,251.999985633851,6|0,3:2|1:0,0:0:0:0:
512,292,83048,5,10,1:2:0:0:
500,296,83110,1,0,1:0:0:0:
487,299,83173,1,0,1:0:0:0:
409,365,83298,5,0,1:0:0:0:
396,361,83360,1,0,1:0:0:0:
383,357,83423,1,0,1:0:0:0:
325,296,83548,5,2,1:2:0:0:
251,324,83673,1,0,1:0:0:0:
142,384,83798,5,2,3:2:0:0:
68,356,83923,1,0,1:0:0:0:
260,326,84048,6,0,B|287:312|287:312|474:373,1,188.999989225388,6|0,3:2|0:0,0:0:0:0:
480,384,84298,5,2,3:2:0:0:
480,384,87798,5,2,3:2:0:0:
480,384,88048,6,0,B|489:378|498:372|514:354|519:322|511:297|488:276|456:276|416:257|399:231|398:191|446:157,1,269.999992847443,6|0,3:2|0:0,0:0:0:0:
443,153,88298,1,2,1:2:0:0:
321,221,88423,1,2,2:0:0:0:
277,148,88548,1,2,1:2:0:0:
284,131,88610,1,0,1:0:0:0:
267,122,88673,1,0,1:0:0:0:
272,105,88735,1,0,1:0:0:0:
279,89,88798,2,0,B|287:95|287:95|256:183,1,89.9999976158143,2|0,1:2|0:0,0:0:0:0:
183,258,89048,5,10,2:0:0:0:
104,230,89173,1,2,2:0:0:0:
26,204,89298,1,2,1:2:0:0:
110,232,89423,1,2,2:0:0:0:
192,115,89548,5,6,3:2:0:0:
131,58,89673,1,2,1:2:0:0:
114,138,89798,1,2,1:2:0:0:
199,122,89923,1,2,2:0:0:0:
295,38,90048,5,2,1:2:0:0:
374,66,90173,1,2,2:0:0:0:
452,92,90298,1,2,1:2:0:0:
368,64,90423,1,2,2:0:0:0:
492,214,90548,5,6,3:2:0:0:
428,265,90673,1,2,2:0:0:0:
411,182,90798,1,2,1:2:0:0:
501,217,90923,1,2,2:0:0:0:
364,335,91048,5,10,1:2:0:0:
355,331,91110,1,0,1:0:0:0:
346,327,91173,1,2,1:2:0:0:
254,224,91298,5,2,1:2:0:0:
245,228,91360,1,0,1:0:0:0:
236,232,91423,1,2,1:2:0:0:
189,300,91548,5,2,1:2:0:0:
217,375,91673,1,2,1:2:0:0:
103,286,91798,5,2,3:2:0:0:
131,211,91923,1,2,1:2:0:0:
82,92,92048,6,0,B|69:83|56:74|26:81|4:105|-6:149|2:172|32:200|108:212|139:139,1,269.999992847443,6|0,3:2|0:0,0:0:0:0:
191,70,92298,6,0,B|187:55|184:39|203:14|234:4|278:10|295:28|310:66|291:142|212:141,1,269.999992847443,4|0,3:2|0:0,0:0:0:0:
184,220,92548,5,4,3:2:0:0:
187,228,92610,1,0,1:0:0:0:
190,236,92673,1,0,1:0:0:0:
194,243,92735,1,0,1:0:0:0:
197,251,92798,2,0,B|220:269|220:269|284:231,1,89.9999976158143,2|0,1:2|0:0,0:0:0:0:
358,190,93048,6,0,B|332:192|332:192|287:295,1,134.999996423721,10|0,2:0|0:0,0:0:0:0:
272,325,93298,5,6,3:2:0:0:
392,272,93423,1,2,1:2:0:0:
261,326,93548,5,6,3:2:0:0:
248,329,93610,1,0,1:0:0:0:
235,333,93673,1,0,1:0:0:0:
222,337,93735,1,0,1:0:0:0:
182,372,93798,1,10,2:0:0:0:
168,369,93860,1,0,1:0:0:0:
154,367,93923,1,0,1:0:0:0:
140,365,93985,1,0,1:0:0:0:
126,362,94048,6,0,B|112:343|112:343|155:269,1,89.9999976158143,2|0,1:2|0:0,0:0:0:0:
207,230,94298,2,0,L|63:273,1,134.999996423721,10|0,2:0|0:0,0:0:0:0:
5,193,94548,5,6,3:2:0:0:
43,123,94673,2,0,B|58:146|58:146|25:220,1,89.9999976158143,2|0,2:0|1:0,0:0:0:0:
0,294,94923,1,2,2:0:0:0:
156,250,95048,5,10,1:2:0:0:
168,254,95110,1,0,1:0:0:0:
180,258,95173,1,0,1:0:0:0:
258,233,95298,1,2,1:2:0:0:
308,298,95423,1,2,2:0:0:0:
253,226,95548,6,0,B|241:205|241:205|276:130,1,80.9999953823091,10|0,2:0|1:0,0:0:0:0:
251,61,95673,6,0,B|272:49|272:49|347:84,1,80.9999953823091,8|0,2:0|0:0,0:0:0:0:
489,101,95798,6,0,B|473:142|473:142|327:181,1,161.999990764618,10|0,3:2|1:0,0:0:0:0:
135,261,96048,6,0,B|60:240|60:240|29:228|26:193|46:179|70:176|70:176|264:229,1,359.999990463257,6|0,3:2|1:0,0:0:0:0:
492,384,96548,5,2,1:2:0:0:
489,375,96610,1,0,1:0:0:0:
488,365,96673,1,0,1:0:0:0:
486,356,96735,1,0,1:0:0:0:
484,347,96798,1,0,1:0:0:0:
484,347,97048,5,10,2:0:0:0:
406,288,97214,5,2,2:0:0:0:
321,362,97381,5,2,2:0:0:0:
416,280,97548,6,0,B|373:266|373:266|229:341,1,179.999995231629,6|0,3:2|1:0,0:0:0:0:
186,373,97798,1,2,1:2:0:0:
512,113,98048,5,2,1:2:0:0:
434,172,98235,5,2,2:0:0:0:
349,98,98423,5,2,2:0:0:0:
444,180,98548,6,0,B|399:197|399:197|180:88,1,269.999992847443,6|0,3:2|1:0,0:0:0:0:
190,92,98798,1,2,1:2:0:0:
252,38,98923,1,2,2:0:0:0:
314,180,99048,5,10,1:2:0:0:
316,188,99110,1,0,1:0:0:0:
318,196,99173,1,2,1:2:0:0:
376,270,99298,5,2,1:2:0:0:
374,278,99360,1,0,1:0:0:0:
372,286,99423,1,2,1:2:0:0:
288,346,99548,5,2,1:2:0:0:
213,318,99673,1,0,1:0:0:0:
121,233,99798,5,2,3:2:0:0:
46,261,99923,1,0,1:0:0:0:
103,384,100048,6,0,B|116:356|116:356|18:32,1,359.999990463257,6|0,3:2|1:0,0:0:0:0:
203,0,100548,5,0,1:0:0:0:
203,8,100610,1,0,1:0:0:0:
202,17,100673,1,0,1:0:0:0:
201,25,100735,1,0,1:0:0:0:
200,34,100798,2,0,B|210:48|210:48|284:30,1,89.9999976158143,2|0,1:2|0:0,0:0:0:0:
221,131,101048,2,0,B|218:106|218:106|112:75,1,134.999996423721,10|0,2:0|0:0,0:0:0:0:
51,28,101298,2,0,L|71:121,1,89.9999976158143,2|0,1:2|1:0,0:0:0:0:
149,192,101548,5,6,3:2:0:0:
147,200,101610,1,0,1:0:0:0:
144,208,101673,1,0,1:0:0:0:
141,216,101735,1,0,1:0:0:0:
98,248,101798,1,8,2:0:0:0:
101,256,101860,1,0,1:0:0:0:
103,264,101923,1,0,1:0:0:0:
106,272,101985,1,0,1:0:0:0:
109,280,102048,6,0,B|123:294|123:294|211:268,1,89.9999976158143,2|0,1:2|1:0,0:0:0:0:
305,195,102298,2,0,L|268:338,1,134.999996423721,10|0,2:0|0:0,0:0:0:0:
190,384,102548,6,0,B|176:356|176:356|268:30,1,359.999990463257,6|0,3:2|1:0,0:0:0:0:
481,34,103048,5,10,1:2:0:0:
467,37,103110,1,0,1:0:0:0:
454,41,103173,2,0,B|435:53|435:53|339:16,1,89.9999976158143,0|0,1:0|1:0,0:0:0:0:
37,0,103548,6,0,B|26:19|26:19|62:91,1,89.9999976158143,10|0,2:0|1:0,0:0:0:0:
166,124,103673,6,0,B|177:105|177:105|141:33,1,89.9999976158143,10|0,2:0|0:0,0:0:0:0:
0,182,103798,6,0,L|213:223,2,179.999995231629,8|0|0,3:2|1:0|0:0,0:0:0:0:
