osu file format v14

[General]
AudioFilename: audio.mp3
AudioLeadIn: 0
PreviewTime: -1
Countdown: 0
SampleSet: None
StackLeniency: 0.2
Mode: 0
LetterboxInBreaks: 0
WidescreenStoryboard: 1

[Editor]
DistanceSpacing: 1
BeatDivisor: 3
GridSize: 4
TimelineZoom: 1

[Metadata]
Title:Paris
TitleUnicode:Paris
Artist:$UICIDEBOY$
ArtistUnicode:$UICIDEBOY$
Creator:-Trophy-
Version:$UICIDE
Source:
Tags:shadow rap suicideboys suicide boys G59 records Grey Five Nine 5 9 Ruby da Cherry $crim $lick $loth Yung $carecrow $witchblade Oddy Nuff da $now Leopard Now The Moon's Rising
BeatmapID:1513340
BeatmapSetID:716268

[Difficulty]
HPDrainRate:6
CircleSize:4
OverallDifficulty:8
ApproachRate:9.2
SliderMultiplier:3.59999990463257
SliderTickRate:1

[Events]
//Background and Video events
0,0,"NH-PlutoByMoonlight-ArtistConcept-20150710.jpg",0,0
//Break Periods
//Storyboard Layer 0 (Background)
//Storyboard Layer 1 (Fail)
//Storyboard Layer 2 (Pass)
//Storyboard Layer 3 (Foreground)
//Storyboard Sound Samples

[TimingPoints]
62,566.037735849057,4,1,0,70,1,0
17892,-200,4,1,0,70,0,0
17986,-100,4,1,0,70,0,0
22703,-66.6666666666667,4,1,0,70,0,0
24401,-100,4,1,0,70,0,0
27231,-200,4,1,0,70,0,0
36288,-66.6666666666667,4,1,0,70,0,0
48458,-200,4,1,0,70,0,0
49873,-100,4,1,0,70,0,0
50722,-50,4,1,0,70,0,0
60911,-100,4,1,0,70,0,0
61194,-50,4,1,0,70,0,0
89684,-100,4,1,0,70,0,0

[HitObjects]
32,128,17609,5,0,0:0:0:0:
448,192,17797,1,2,0:0:0:0:
464,160,17892,2,0,P|448:128|416:96,1,59.9999984105428
288,64,18175,2,0,P|208:80|144:144,1,119.999996821086,2|0,0:0|0:0,0:0:0:0:
340,293,18458,2,0,P|374:218|360:129,1,119.999996821086,2|0,0:0|0:0,0:0:0:0:
160,240,18741,1,2,0:0:0:0:
464,160,18929,5,0,0:0:0:0:
464,160,19024,1,2,0:0:0:0:
64,103,19212,1,0,0:0:0:0:
64,103,19307,1,2,0:0:0:0:
496,80,19495,5,0,0:0:0:0:
496,80,19590,1,2,0:0:0:0:
49,348,19778,1,0,0:0:0:0:
49,348,19873,1,2,0:0:0:0:
144,32,20062,5,0,0:0:0:0:
144,32,20156,1,2,0:0:0:0:
288,352,20345,1,0,0:0:0:0:
288,352,20439,2,0,P|368:304|400:272,1,119.999996821086,2|0,0:0|0:0,0:0:0:0:
101,139,20722,2,0,P|103:232|114:276,1,119.999996821086,2|0,0:0|0:0,0:0:0:0:
378,84,21005,2,0,P|296:39|253:27,1,119.999996821086,2|0,0:0|0:0,0:0:0:0:
256,192,21288,1,2,0:0:0:0:
32,112,21571,5,0,0:0:0:0:
480,272,21760,1,2,0:0:0:0:
464,240,21854,2,0,L|320:160,1,119.999996821086
48,144,22137,2,0,L|192:224,1,119.999996821086
176,240,22420,1,0,0:0:0:0:
480,352,22703,6,0,L|480:64,1,270.000003147125
32,32,23269,2,0,L|32:320,1,270.000003147125,2|0,0:0|0:0,0:0:0:0:
368,32,23835,6,0,L|112:32,1,180.000002098084
144,352,24118,2,0,L|400:352,1,180.000002098084,2|0,0:0|0:0,0:0:0:0:
368,192,24401,2,0,L|112:192,1,180.000002098084
256,192,24967,5,0,0:0:0:0:
271,31,25250,2,0,P|327:52|378:84,1,119.999996821086,2|0,0:0|0:0,0:0:0:0:
108,258,25533,2,0,P|99:198|101:139,1,119.999996821086,2|0,0:0|0:0,0:0:0:0:
387,286,25816,2,0,P|341:324|288:352,1,119.999996821086,2|0,0:0|0:0,0:0:0:0:
160,384,26099,1,2,0:0:0:0:
336,0,26382,5,0,0:0:0:0:
48,192,26571,1,0,0:0:0:0:
176,192,26665,2,0,P|122:265|13:296,1,179.999995231629,2|0,0:0|0:0,0:0:0:0:
242,142,27231,2,0,P|260:183|246:238,1,89.9999976158143,2|0,0:0|0:0,0:0:0:0:
192,328,27797,5,0,0:0:0:0:
192,328,27939,1,0,0:0:0:0:
192,328,28080,2,0,L|128:312,1,44.9999988079071,8|0,0:0|0:0,0:0:0:0:
224,192,28363,1,0,0:0:0:0:
224,192,28505,1,0,0:0:0:0:
224,192,28646,2,0,L|272:192,1,44.9999988079071,8|0,0:0|0:0,0:0:0:0:
416,280,28929,2,0,L|344:280,1,44.9999988079071
120,96,29212,2,0,L|176:96,1,44.9999988079071,8|0,0:0|0:0,0:0:0:0:
440,352,29495,6,0,L|256:352,1,179.999995231629
32,352,30345,1,2,0:0:0:0:
328,192,30487,1,0,0:0:0:0:
80,32,30628,2,0,L|32:32,1,44.9999988079071,2|0,0:0|0:0,0:0:0:0:
288,112,30911,1,8,0:0:0:0:
288,112,31052,1,8,0:0:0:0:
288,112,31194,2,0,L|292:132,2,14.9999996026357
112,336,31477,2,0,L|104:312,2,14.9999996026357
48,72,31760,6,0,L|240:72,1,179.999995231629
480,72,32609,1,0,0:0:0:0:
288,136,32892,6,0,L|336:136,1,44.9999988079071,2|0,0:0|0:0,0:0:0:0:
480,224,33175,2,0,L|424:224,1,44.9999988079071
64,288,33458,2,0,L|112:288,1,44.9999988079071
480,352,33741,2,0,L|424:352,1,44.9999988079071,2|0,0:0|0:0,0:0:0:0:
256,352,34024,5,0,0:0:0:0:
256,352,34307,2,0,L|192:304,1,44.9999988079071,8|0,0:0|0:0,0:0:0:0:
344,168,34590,2,0,L|352:240,1,44.9999988079071,8|0,0:0|0:0,0:0:0:0:
96,88,34873,1,0,0:0:0:0:
96,88,35014,1,0,0:0:0:0:
96,88,35156,2,0,L|144:88,1,44.9999988079071,2|0,0:0|0:0,0:0:0:0:
448,232,35439,2,0,L|424:288,1,44.9999988079071,8|0,0:0|0:0,0:0:0:0:
88,304,35722,2,0,L|52:268,2,29.9999992052714
256,144,36005,6,0,L|256:248,1,89.9999976158143,2|0,0:0|0:0,0:0:0:0:
192,352,36571,1,0,0:0:0:0:
96,320,36854,1,0,0:0:0:0:
0,256,37137,1,0,0:0:0:0:
105,42,37279,1,0,0:0:0:0:
105,42,37349,1,8,0:0:0:0:
105,42,37420,1,8,0:0:0:0:
128,24,37703,1,0,0:0:0:0:
216,328,37986,1,0,0:0:0:0:
248,376,38269,5,0,0:0:0:0:
440,240,38411,1,0,0:0:0:0:
280,192,38552,2,0,B|224:176|160:184|160:184|184:208,1,135.000001573563
336,256,38835,2,0,P|360:184|296:96,1,135.000001573563
192,40,39118,1,0,0:0:0:0:
384,344,39401,1,0,0:0:0:0:
104,224,39543,5,0,0:0:0:0:
104,224,39613,1,0,0:0:0:0:
104,224,39684,1,8,0:0:0:0:
168,352,39826,1,0,0:0:0:0:
304,208,39967,2,0,B|339:161|354:98|354:98|323:112,1,135.000001573563
160,112,40250,2,0,P|93:115|39:76,1,135.000001573563
112,40,40533,1,0,0:0:0:0:
320,48,40816,5,0,0:0:0:0:
432,128,41099,1,0,0:0:0:0:
256,272,41382,1,0,0:0:0:0:
352,224,41665,5,0,0:0:0:0:
64,160,41807,1,0,0:0:0:0:
140,112,41878,1,0,0:0:0:0:
208,64,41948,2,0,P|224:144|208:224,1,135.000001573563,8|0,0:0|0:0,0:0:0:0:
96,320,42231,1,0,0:0:0:0:
352,64,42514,1,0,0:0:0:0:
80,192,42797,5,0,0:0:0:0:
336,272,42939,1,0,0:0:0:0:
208,32,43080,2,0,P|240:160|256:192,1,135.000001573563
400,304,43363,1,0,0:0:0:0:
368,48,43646,6,0,L|224:112,1,135.000001573563
16,16,43929,1,0,0:0:0:0:
48,228,44071,1,0,0:0:0:0:
48,228,44142,1,0,0:0:0:0:
48,228,44212,2,0,P|120:268|176:272,1,135.000001573563,8|0,0:0|0:0,0:0:0:0:
360,216,44495,1,0,0:0:0:0:
472,56,44637,1,0,0:0:0:0:
208,68,44778,2,0,L|352:116,1,135.000001573563,2|0,0:0|0:0,0:0:0:0:
68,212,45062,2,0,L|232:168,1,135.000001573563,2|0,0:0|0:0,0:0:0:0:
352,128,45345,5,0,0:0:0:0:
198,177,45628,1,0,0:0:0:0:
368,272,45911,1,0,0:0:0:0:
264,56,46194,5,0,0:0:0:0:
80,160,46336,1,0,0:0:0:0:
96,248,46406,1,0,0:0:0:0:
108,340,46477,2,0,L|264:356,1,135.000001573563,8|0,0:0|0:0,0:0:0:0:
404,44,46760,2,0,L|248:28,1,135.000001573563
136,184,47043,2,0,L|292:200,1,135.000001573563
376,204,47326,5,0,0:0:0:0:
472,88,47467,1,0,0:0:0:0:
1,197,47609,2,0,L|157:181,1,135.000001573563
496,48,47892,2,0,L|340:64,1,135.000001573563
68,304,48175,2,0,L|224:288,1,135.000001573563
380,272,48458,6,0,L|424:240,1,44.9999988079071
304,331,48741,2,0,L|358:333,1,44.9999988079071,8|0,0:0|0:0,0:0:0:0:
208,331,49024,2,0,L|250:366,1,44.9999988079071,2|0,0:0|0:0,0:0:0:0:
132,272,49307,2,0,L|143:325,1,44.9999988079071,2|0,0:0|0:0,0:0:0:0:
108,179,49590,2,0,L|85:228,1,44.9999988079071
168,128,49873,5,0,0:0:0:0:
484,188,50156,1,0,0:0:0:0:
144,196,50439,1,0,0:0:0:0:
376,328,50722,2,0,B|464:272|464:272|536:188,1,179.999995231629
116,176,51005,1,0,0:0:0:0:
476,348,51288,1,0,0:0:0:0:
68,120,51571,1,0,0:0:0:0:
288,32,51854,5,0,0:0:0:0:
256,192,51995,1,0,0:0:0:0:
224,352,52137,1,0,0:0:0:0:
512,192,52420,5,0,0:0:0:0:
0,192,52703,1,0,0:0:0:0:
288,32,52986,5,0,0:0:0:0:
224,352,53128,1,0,0:0:0:0:
111,8,53269,1,0,0:0:0:0:
333,380,53552,1,0,0:0:0:0:
256,204,54118,1,0,0:0:0:0:
32,224,54401,5,0,0:0:0:0:
224,192,54543,1,0,0:0:0:0:
272,304,54684,2,0,L|64:288,1,179.999995231629
76,152,54967,1,0,0:0:0:0:
144,64,55109,1,0,0:0:0:0:
384,208,55250,1,0,0:0:0:0:
368,320,55392,1,0,0:0:0:0:
195,240,55533,6,0,P|108:260|24:292,1,179.999995231629
316,144,55816,2,0,P|403:123|487:91,1,179.999995231629
372,137,56099,5,0,0:0:0:0:
116,204,56241,1,0,0:0:0:0:
320,244,56382,1,0,0:0:0:0:
240,76,56524,1,0,0:0:0:0:
184,250,56665,1,0,0:0:0:0:
300,334,56807,1,0,0:0:0:0:
388,200,56948,1,0,0:0:0:0:
436,56,57090,1,0,0:0:0:0:
128,132,57231,1,0,0:0:0:0:
488,192,57373,1,0,0:0:0:0:
56,92,57514,1,0,0:0:0:0:
512,264,57656,1,0,0:0:0:0:
216,320,57797,6,0,L|-4:296,1,179.999995231629
352,176,58080,2,0,L|456:344,1,179.999995231629
228,128,58363,2,0,L|412:36,1,179.999995231629
232,356,58646,2,0,L|32:328,1,179.999995231629
504,168,58929,5,0,0:0:0:0:
76,104,59071,1,0,0:0:0:0:
488,184,59212,1,0,0:0:0:0:
40,128,59354,1,0,0:0:0:0:
8,164,59495,5,0,0:0:0:0:
68,292,59637,1,0,0:0:0:0:
252,352,59778,1,0,0:0:0:0:
416,220,59920,1,0,0:0:0:0:
360,104,60062,6,0,P|256:72|124:124,1,179.999995231629
360,192,60345,2,0,P|443:119|396:9,1,179.999995231629
284,148,60628,2,0,P|304:256|423:270,1,179.999995231629
472,284,60911,6,0,L|488:136,1,134.999996423721
464,52,61194,5,0,0:0:0:0:
236,116,61335,1,0,0:0:0:0:
64,192,61477,5,0,0:0:0:0:
292,256,61618,1,0,0:0:0:0:
356,56,61760,5,0,0:0:0:0:
356,356,61901,1,0,0:0:0:0:
188,184,62043,2,0,L|508:272,1,269.999992847443
484,264,62326,2,0,L|504:160,1,89.9999976158143
308,68,62467,2,0,L|336:164,1,89.9999976158143
476,116,62609,2,0,L|252:120,1,179.999995231629
36,88,62892,1,0,0:0:0:0:
480,348,63175,1,0,0:0:0:0:
160,56,63458,5,0,0:0:0:0:
424,216,63741,1,0,0:0:0:0:
160,56,63882,1,0,0:0:0:0:
424,216,64024,1,0,0:0:0:0:
60,156,64307,1,0,0:0:0:0:
432,88,64590,5,0,0:0:0:0:
60,156,64873,1,0,0:0:0:0:
476,348,65156,5,0,0:0:0:0:
256,192,65297,1,0,0:0:0:0:
36,36,65439,1,0,0:0:0:0:
476,348,65722,1,0,0:0:0:0:
116,304,66005,5,0,0:0:0:0:
456,212,66288,1,0,0:0:0:0:
116,304,66429,1,0,0:0:0:0:
456,212,66571,1,0,0:0:0:0:
80,168,66854,5,0,0:0:0:0:
408,336,67137,1,0,0:0:0:0:
80,168,67420,1,0,0:0:0:0:
408,336,67562,1,0,0:0:0:0:
400,40,67703,5,0,0:0:0:0:
232,368,67845,1,0,0:0:0:0:
36,348,67986,5,0,0:0:0:0:
480,192,68269,1,0,0:0:0:0:
36,36,68552,1,0,0:0:0:0:
476,348,68835,1,0,0:0:0:0:
32,228,69118,5,0,0:0:0:0:
340,136,69260,1,0,0:0:0:0:
100,52,69401,5,0,0:0:0:0:
404,252,69543,1,0,0:0:0:0:
168,368,69684,5,0,0:0:0:0:
308,44,69826,1,0,0:0:0:0:
312,324,69967,5,0,0:0:0:0:
80,168,70109,1,0,0:0:0:0:
60,324,70250,5,0,0:0:0:0:
440,104,70392,1,0,0:0:0:0:
60,324,70533,1,0,0:0:0:0:
480,320,70816,5,0,0:0:0:0:
88,72,71099,5,0,0:0:0:0:
432,160,71382,1,0,0:0:0:0:
88,72,71524,1,0,0:0:0:0:
432,160,71665,1,0,0:0:0:0:
88,72,71807,1,0,0:0:0:0:
472,288,71948,5,0,0:0:0:0:
40,264,72231,1,0,0:0:0:0:
256,280,72514,5,0,0:0:0:0:
256,280,72797,1,0,0:0:0:0:
324,44,73505,5,0,0:0:0:0:
372,116,73576,1,0,0:0:0:0:
420,192,73646,2,0,P|328:272|196:268,1,179.999995231629
120,264,73929,1,0,0:0:0:0:
224,64,74071,1,0,0:0:0:0:
488,192,74212,2,0,L|288:224,1,179.999995231629
24,120,74495,2,0,L|224:152,1,179.999995231629
420,332,74778,6,0,P|472:248|336:160,1,269.999992847443
304,272,75062,6,0,L|384:220,1,89.9999976158143
308,80,75203,2,0,L|280:172,1,89.9999976158143
380,104,75345,2,0,P|364:28|232:72,1,179.999995231629
56,236,75628,2,0,B|140:288|140:288|260:300,1,179.999995231629
428,292,75911,5,0,0:0:0:0:
400,96,76052,1,0,0:0:0:0:
240,268,76194,1,0,0:0:0:0:
164,84,76335,1,0,0:0:0:0:
72,200,76477,2,0,P|52:316|108:368,1,179.999995231629
344,304,76759,2,0,P|380:280|396:228,1,89.9999976158143
372,112,76901,2,0,P|328:176|328:212,1,89.9999976158143
150,98,77043,6,0,P|223:126|257:117,1,89.9999976158143
392,176,77184,2,0,P|319:203|284:194,1,89.9999976158143
84,168,77326,2,0,P|146:214|182:215,1,89.9999976158143
460,228,77467,2,0,P|397:274|361:275,1,89.9999976158143
148,240,77609,2,0,P|44:188|20:116,1,179.999995231629
344,192,77892,2,0,L|480:72,1,179.999995231629
256,56,78175,5,0,0:0:0:0:
128,112,78316,1,0,0:0:0:0:
220,340,78458,1,0,0:0:0:0:
384,320,78599,1,0,0:0:0:0:
40,176,78741,1,0,0:0:0:0:
76,324,78882,1,0,0:0:0:0:
472,208,79024,1,0,0:0:0:0:
436,60,79165,1,0,0:0:0:0:
160,140,79307,6,0,B|132:276|212:308|244:268|244:268|244:176,1,269.999992847443
328,208,79590,2,0,B|356:72|276:40|244:80|244:80|244:172,1,269.999992847443
240,212,79873,6,0,B|196:236|180:296|192:340|208:364|260:388|296:368|296:316|292:304|288:288|268:280|252:280|224:280|204:280,1,269.999992847443
300,232,80156,2,0,B|256:256|240:316|252:360|268:384|320:408|356:388|356:336|352:324|348:308|328:300|312:300|284:300|264:300,1,269.999992847443
360,248,80439,2,0,B|316:272|300:332|312:376|328:400|380:424|416:404|416:352|412:340|408:324|388:316|372:316|344:316|324:316,1,269.999992847443
252,288,80722,1,0,0:0:0:0:
76,344,80863,1,0,0:0:0:0:
140,64,81005,1,0,0:0:0:0:
380,128,81146,1,0,0:0:0:0:
64,204,81288,2,0,L|24:120,1,89.9999976158143
472,292,81571,1,0,0:0:0:0:
428,64,82703,5,0,0:0:0:0:
370,81,82797,1,0,0:0:0:0:
311,86,82892,1,0,0:0:0:0:
252,75,82986,1,0,0:0:0:0:
193,62,83080,1,0,0:0:0:0:
133,59,83175,1,0,0:0:0:0:
74,66,83269,2,0,P|24:104|16:176,1,119.999996821086
455,97,83458,2,0,P|448:35|389:-7,1,119.999996821086
136,364,83646,2,0,P|193:388|260:359,1,119.999996821086
53,120,83835,5,0,0:0:0:0:
100,158,83929,1,0,0:0:0:0:
137,205,84024,1,0,0:0:0:0:
161,260,84118,1,0,0:0:0:0:
183,315,84212,1,0,0:0:0:0:
214,367,84307,1,0,0:0:0:0:
264,380,84401,2,0,L|408:372,1,119.999996821086
500,192,84590,2,0,L|360:184,1,119.999996821086
252,40,84778,2,0,L|376:44,1,119.999996821086
472,56,84967,5,0,0:0:0:0:
425,106,85062,1,0,0:0:0:0:
369,144,85156,1,0,0:0:0:0:
305,169,85250,1,0,0:0:0:0:
237,180,85345,1,0,0:0:0:0:
169,174,85439,1,0,0:0:0:0:
104,154,85533,2,0,P|204:84|324:88,2,239.999993642171
72,352,86099,1,0,0:0:0:0:
44,344,87231,5,0,0:0:0:0:
188,300,87420,1,0,0:0:0:0:
76,212,87609,1,0,0:0:0:0:
160,112,87797,5,0,0:0:0:0:
20,168,87986,1,0,0:0:0:0:
132,256,88175,1,0,0:0:0:0:
264,272,88363,5,0,0:0:0:0:
152,184,88552,1,0,0:0:0:0:
296,140,88741,1,0,0:0:0:0:
264,272,88929,1,0,0:0:0:0:
44,344,89118,1,0,0:0:0:0:
152,184,89307,1,0,0:0:0:0:
372,112,89496,1,0,0:0:0:0:
20,168,89684,2,0,P|20:256|84:364,1,119.999996821086
416,184,90062,2,0,P|416:96|352:-12,1,119.999996821086
256,192,90439,12,0,91760,0:0:0:0:
