osu file format v14

[General]
AudioFilename: audio.mp3
AudioLeadIn: 0
PreviewTime: -1
Countdown: 1
SampleSet: Soft
StackLeniency: 0.7
Mode: 3
LetterboxInBreaks: 0
SpecialStyle: 0
WidescreenStoryboard: 0

[Editor]
DistanceSpacing: 1.4
BeatDivisor: 6
GridSize: 4
TimelineZoom: 1

[Metadata]
Title:Naruto Vs Sasuke // $UICIDEBOY$
TitleUnicode:Naruto Vs Sasuke // $UICIDEBOY$
Artist:$UICIDEBOY$
ArtistUnicode:$UICIDEBOY$
Creator:DeadExcuses
Version:Hard
Source:
Tags:
BeatmapID:1449821
BeatmapSetID:685112

[Difficulty]
HPDrainRate:5
CircleSize:4
OverallDifficulty:5
ApproachRate:5
SliderMultiplier:1.4
SliderTickRate:1

[Events]
//Background and Video events
Video,0,"NARUTO_vs_SASUKE_--_$UICIDEBOY$ (1).mp4"
0,0,"Ao2mpwn.jpg",0,0
//Break Periods
2,83054,107753
2,136673,173518
2,174918,247150
//Storyboard Layer 0 (Background)
//Storyboard Layer 1 (Fail)
//Storyboard Layer 2 (Pass)
//Storyboard Layer 3 (Foreground)
//Storyboard Sound Samples

[TimingPoints]
47563.7720003589,283.12570781427,4,2,0,35,1,0
73575,-100,4,2,0,35,0,0

[HitObjects]
64,192,35855,5,0,0:0:0:0:
448,192,35855,128,0,36493:0:0:0:0:
320,192,36067,1,0,0:0:0:0:
192,192,36138,1,0,0:0:0:0:
64,192,36209,1,0,0:0:0:0:
192,192,36280,1,0,0:0:0:0:
320,192,36493,1,0,0:0:0:0:
192,192,36493,1,0,0:0:0:0:
64,192,36493,1,0,0:0:0:0:
192,192,36705,1,0,0:0:0:0:
320,192,36705,1,0,0:0:0:0:
448,192,36989,1,0,0:0:0:0:
320,192,36989,128,0,37627:0:0:0:0:
64,192,37272,1,0,0:0:0:0:
192,192,37627,1,0,0:0:0:0:
448,192,37627,1,0,0:0:0:0:
64,192,37863,1,0,0:0:0:0:
192,192,37863,1,0,0:0:0:0:
320,192,38123,1,0,0:0:0:0:
192,192,38123,1,0,0:0:0:0:
192,192,38407,1,0,0:0:0:0:
64,192,38407,1,0,0:0:0:0:
448,192,38690,1,0,0:0:0:0:
320,192,38690,1,0,0:0:0:0:
320,192,38974,1,0,0:0:0:0:
192,192,38974,1,0,0:0:0:0:
192,192,39257,128,0,40108:0:0:0:0:
320,192,39541,1,0,0:0:0:0:
64,192,39541,128,0,39824:0:0:0:0:
320,192,39895,128,0,40108:0:0:0:0:
448,192,39895,1,0,0:0:0:0:
320,192,40392,128,0,41171:0:0:0:0:
448,192,40675,128,0,40959:0:0:0:0:
192,192,40675,1,0,0:0:0:0:
64,192,40675,1,0,0:0:0:0:
64,192,40959,128,0,41171:0:0:0:0:
192,192,40959,1,0,0:0:0:0:
64,192,41526,1,0,0:0:0:0:
192,192,41526,1,0,0:0:0:0:
192,192,41809,1,0,0:0:0:0:
320,192,41809,1,0,0:0:0:0:
320,192,42093,1,0,0:0:0:0:
448,192,42093,1,0,0:0:0:0:
64,192,42376,1,0,0:0:0:0:
192,192,42376,1,0,0:0:0:0:
320,192,42376,1,0,0:0:0:0:
448,192,42376,1,0,0:0:0:0:
448,192,42731,1,0,0:0:0:0:
320,192,42731,1,0,0:0:0:0:
192,192,42979,1,0,0:0:0:0:
320,192,42979,1,0,0:0:0:0:
64,192,43192,1,0,0:0:0:0:
192,192,43192,1,0,0:0:0:0:
192,192,43511,1,0,0:0:0:0:
320,192,43511,1,0,0:0:0:0:
64,192,43794,128,0,44078:0:0:0:0:
192,192,44078,128,0,44361:0:0:0:0:
320,192,44361,128,0,44928:0:0:0:0:
448,192,44928,1,0,0:0:0:0:
192,192,45070,1,0,0:0:0:0:
448,192,45212,1,0,0:0:0:0:
64,192,45212,128,0,45495:0:0:0:0:
192,192,45495,1,0,0:0:0:0:
320,192,45495,1,0,0:0:0:0:
64,192,45708,1,0,0:0:0:0:
192,192,45803,1,0,0:0:0:0:
320,192,45897,1,0,0:0:0:0:
448,192,45992,1,0,0:0:0:0:
320,192,46133,1,0,0:0:0:0:
192,192,46133,128,0,46346:0:0:0:0:
64,192,46346,1,0,0:0:0:0:
448,192,46913,1,0,0:0:0:0:
320,192,46913,128,0,47480:0:0:0:0:
64,192,47126,1,0,0:0:0:0:
192,192,47126,128,0,47268:0:0:0:0:
448,192,47268,128,0,47480:0:0:0:0:
192,192,47480,1,0,0:0:0:0:
448,192,47622,1,0,0:0:0:0:
320,192,47622,128,0,48331:0:0:0:0:
64,192,47835,1,0,0:0:0:0:
192,192,47835,128,0,47977:0:0:0:0:
448,192,48047,128,0,48331:0:0:0:0:
64,192,48189,1,0,0:0:0:0:
64,192,48331,1,0,0:0:0:0:
448,192,48615,1,0,0:0:0:0:
320,192,48615,1,0,0:0:0:0:
192,192,48615,1,0,0:0:0:0:
64,192,48615,1,0,0:0:0:0:
192,192,48898,1,0,0:0:0:0:
320,192,48898,128,0,49182:0:0:0:0:
64,192,49182,1,0,0:0:0:0:
192,192,49323,128,0,49891:0:0:0:0:
320,192,49465,1,0,0:0:0:0:
448,192,49607,1,0,0:0:0:0:
320,192,49749,1,0,0:0:0:0:
64,192,49891,1,0,0:0:0:0:
448,192,50032,1,0,0:0:0:0:
192,192,50174,1,0,0:0:0:0:
448,192,50316,1,0,0:0:0:0:
192,192,50458,1,0,0:0:0:0:
448,192,50599,1,0,0:0:0:0:
64,192,50599,128,0,51167:0:0:0:0:
320,192,50883,1,0,0:0:0:0:
448,192,51167,1,0,0:0:0:0:
192,192,51450,1,0,0:0:0:0:
320,192,51450,1,0,0:0:0:0:
320,192,51592,1,0,0:0:0:0:
448,192,51592,1,0,0:0:0:0:
64,192,51734,1,0,0:0:0:0:
192,192,51734,1,0,0:0:0:0:
448,192,51734,1,0,0:0:0:0:
64,192,51875,1,0,0:0:0:0:
192,192,51875,1,0,0:0:0:0:
192,192,52017,1,0,0:0:0:0:
320,192,52017,1,0,0:0:0:0:
448,192,52159,1,0,0:0:0:0:
320,192,52159,1,0,0:0:0:0:
64,192,52159,1,0,0:0:0:0:
448,192,52301,1,0,0:0:0:0:
320,192,52301,1,0,0:0:0:0:
192,192,52443,1,0,0:0:0:0:
320,192,52443,1,0,0:0:0:0:
64,192,52584,1,0,0:0:0:0:
192,192,52584,1,0,0:0:0:0:
448,192,52584,1,0,0:0:0:0:
64,192,52726,1,0,0:0:0:0:
192,192,52726,1,0,0:0:0:0:
448,192,52868,1,0,0:0:0:0:
320,192,52868,1,0,0:0:0:0:
192,192,52868,1,0,0:0:0:0:
64,192,52868,1,0,0:0:0:0:
192,192,53151,1,0,0:0:0:0:
64,192,53151,1,0,0:0:0:0:
320,192,53151,1,0,0:0:0:0:
448,192,53151,1,0,0:0:0:0:
448,192,53577,1,0,0:0:0:0:
192,192,53577,1,0,0:0:0:0:
64,192,53719,1,0,0:0:0:0:
320,192,53719,1,0,0:0:0:0:
192,192,53860,1,0,0:0:0:0:
448,192,53860,1,0,0:0:0:0:
64,192,54002,1,0,0:0:0:0:
320,192,54002,1,0,0:0:0:0:
64,192,54215,1,0,0:0:0:0:
448,192,54215,1,0,0:0:0:0:
192,192,54357,1,0,0:0:0:0:
320,192,54357,1,0,0:0:0:0:
192,192,54569,1,0,0:0:0:0:
320,192,54569,1,0,0:0:0:0:
64,192,54640,1,0,0:0:0:0:
448,192,54640,1,0,0:0:0:0:
192,192,54711,1,0,0:0:0:0:
320,192,54711,1,0,0:0:0:0:
64,192,54782,1,0,0:0:0:0:
448,192,54782,1,0,0:0:0:0:
192,192,54853,1,0,0:0:0:0:
320,192,54853,1,0,0:0:0:0:
64,192,54924,1,0,0:0:0:0:
448,192,54924,1,0,0:0:0:0:
192,192,54996,1,0,0:0:0:0:
320,192,54996,1,0,0:0:0:0:
64,192,55066,1,0,0:0:0:0:
448,192,55066,1,0,0:0:0:0:
192,192,55137,1,0,0:0:0:0:
320,192,55137,1,0,0:0:0:0:
64,192,55208,1,0,0:0:0:0:
448,192,55208,1,0,0:0:0:0:
192,192,55278,1,0,0:0:0:0:
320,192,55278,1,0,0:0:0:0:
64,192,55349,1,0,0:0:0:0:
448,192,55349,1,0,0:0:0:0:
320,192,55491,1,0,0:0:0:0:
192,192,55491,1,0,0:0:0:0:
320,192,55703,1,0,0:0:0:0:
320,192,55987,1,0,0:0:0:0:
320,192,56271,1,0,0:0:0:0:
448,192,56271,128,0,56696:0:0:0:0:
64,192,56483,1,0,0:0:0:0:
64,192,56696,128,0,56979:0:0:0:0:
320,192,56696,128,0,56979:0:0:0:0:
192,192,56838,1,0,0:0:0:0:
192,192,57405,1,0,0:0:0:0:
320,192,57405,1,0,0:0:0:0:
448,192,57405,1,0,0:0:0:0:
320,192,57617,1,0,0:0:0:0:
192,192,57617,1,0,0:0:0:0:
64,192,57617,1,0,0:0:0:0:
448,192,57830,1,0,0:0:0:0:
64,192,57830,1,0,0:0:0:0:
192,192,57972,1,0,0:0:0:0:
320,192,57972,1,0,0:0:0:0:
64,192,58255,1,0,0:0:0:0:
320,192,58255,1,0,0:0:0:0:
192,192,58539,1,0,0:0:0:0:
448,192,58539,1,0,0:0:0:0:
64,192,58823,128,0,58893:0:0:0:0:
192,192,58893,128,0,58964:0:0:0:0:
320,192,58964,128,0,59035:0:0:0:0:
448,192,59035,128,0,59106:0:0:0:0:
192,192,59177,1,0,0:0:0:0:
64,192,59177,128,0,59531:0:0:0:0:
320,192,59531,1,0,0:0:0:0:
448,192,59531,128,0,59957:0:0:0:0:
192,192,59744,1,0,0:0:0:0:
192,192,59957,128,0,60099:0:0:0:0:
64,192,60099,128,0,60524:0:0:0:0:
192,192,60240,1,0,0:0:0:0:
320,192,60524,1,0,0:0:0:0:
320,192,60878,128,0,61445:0:0:0:0:
192,192,61091,128,0,61587:0:0:0:0:
448,192,61233,128,0,61587:0:0:0:0:
64,192,61445,128,0,61587:0:0:0:0:
320,192,61587,1,0,0:0:0:0:
64,192,61800,1,0,0:0:0:0:
320,192,61942,1,0,0:0:0:0:
192,192,61942,128,0,62296:0:0:0:0:
448,192,62154,1,0,0:0:0:0:
64,192,62296,1,0,0:0:0:0:
64,192,62438,1,0,0:0:0:0:
192,192,62438,1,0,0:0:0:0:
448,192,62438,1,0,0:0:0:0:
448,192,62721,1,0,0:0:0:0:
64,192,62721,1,0,0:0:0:0:
320,192,62721,128,0,63572:0:0:0:0:
64,192,63643,128,0,64990:0:0:0:0:
192,192,63856,1,0,0:0:0:0:
448,192,64068,1,0,0:0:0:0:
192,192,64210,1,0,0:0:0:0:
320,192,64423,1,0,0:0:0:0:
192,192,64564,1,0,0:0:0:0:
320,192,64781,128,0,64992:0:0:0:0:
192,192,64990,128,0,65132:0:0:0:0:
448,192,65068,128,0,65350:0:0:0:0:
320,192,65353,128,0,66769:0:0:0:0:
64,192,65589,1,0,0:0:0:0:
448,192,65872,1,0,0:0:0:0:
192,192,66155,1,0,0:0:0:0:
192,192,66427,1,0,0:0:0:0:
192,192,66769,1,0,0:0:0:0:
64,192,66769,1,0,0:0:0:0:
448,192,66769,1,0,0:0:0:0:
320,192,67046,1,0,0:0:0:0:
192,192,67046,1,0,0:0:0:0:
448,192,67258,128,0,67613:0:0:0:0:
192,192,67471,1,0,0:0:0:0:
64,192,67471,1,0,0:0:0:0:
320,192,67825,128,0,68109:0:0:0:0:
448,192,68038,1,0,0:0:0:0:
64,192,68180,128,0,68534:0:0:0:0:
192,192,68392,1,0,0:0:0:0:
448,192,68392,1,0,0:0:0:0:
320,192,68534,1,0,0:0:0:0:
448,192,68747,1,0,0:0:0:0:
192,192,68747,1,0,0:0:0:0:
64,192,68960,1,0,0:0:0:0:
320,192,68960,1,0,0:0:0:0:
64,192,72690,1,0,0:0:0:0:
192,192,72690,1,0,0:0:0:0:
192,192,72973,1,0,0:0:0:0:
320,192,72973,1,0,0:0:0:0:
320,192,73184,1,0,0:0:0:0:
448,192,73184,1,0,0:0:0:0:
192,192,73184,128,0,73467:0:0:0:0:
320,192,73467,1,0,0:0:0:0:
320,192,73820,1,0,0:0:0:0:
192,192,74102,1,0,0:0:0:0:
448,192,74384,1,0,0:0:0:0:
64,192,74667,1,0,0:0:0:0:
320,192,75020,1,0,0:0:0:0:
192,192,75302,1,0,0:0:0:0:
448,192,75514,1,0,0:0:0:0:
64,192,75796,1,0,0:0:0:0:
320,192,76078,1,0,0:0:0:0:
192,192,76361,1,0,0:0:0:0:
448,192,76643,1,0,0:0:0:0:
64,192,76925,1,0,0:0:0:0:
320,192,77208,1,0,0:0:0:0:
192,192,77490,1,0,0:0:0:0:
448,192,77843,1,0,0:0:0:0:
64,192,78055,1,0,0:0:0:0:
192,192,78055,1,0,0:0:0:0:
192,192,78196,1,0,0:0:0:0:
320,192,78196,1,0,0:0:0:0:
320,192,78337,1,0,0:0:0:0:
448,192,78337,1,0,0:0:0:0:
64,192,79466,1,0,0:0:0:0:
192,192,79466,1,0,0:0:0:0:
320,192,79466,1,0,0:0:0:0:
448,192,79678,1,0,0:0:0:0:
192,192,79678,1,0,0:0:0:0:
64,192,79890,1,0,0:0:0:0:
320,192,79890,1,0,0:0:0:0:
192,192,80031,1,0,0:0:0:0:
320,192,80031,1,0,0:0:0:0:
448,192,80031,1,0,0:0:0:0:
192,192,80243,1,0,0:0:0:0:
448,192,80243,1,0,0:0:0:0:
64,192,80384,1,0,0:0:0:0:
320,192,80384,1,0,0:0:0:0:
192,192,80595,1,0,0:0:0:0:
64,192,80595,1,0,0:0:0:0:
320,192,80595,1,0,0:0:0:0:
192,192,80807,1,0,0:0:0:0:
448,192,80807,1,0,0:0:0:0:
64,192,80948,1,0,0:0:0:0:
320,192,80948,1,0,0:0:0:0:
192,192,81160,1,0,0:0:0:0:
320,192,81160,1,0,0:0:0:0:
448,192,81160,1,0,0:0:0:0:
192,192,81301,1,0,0:0:0:0:
448,192,81301,1,0,0:0:0:0:
64,192,81513,1,0,0:0:0:0:
320,192,81513,1,0,0:0:0:0:
64,192,81725,1,0,0:0:0:0:
192,192,81725,1,0,0:0:0:0:
320,192,81725,1,0,0:0:0:0:
448,192,81937,1,0,0:0:0:0:
192,192,81937,1,0,0:0:0:0:
64,192,82078,1,0,0:0:0:0:
192,192,82148,1,0,0:0:0:0:
320,192,82219,1,0,0:0:0:0:
448,192,82289,1,0,0:0:0:0:
448,192,82431,1,0,0:0:0:0:
320,192,82431,1,0,0:0:0:0:
192,192,82431,1,0,0:0:0:0:
64,192,82642,1,0,0:0:0:0:
320,192,82642,1,0,0:0:0:0:
192,192,82854,1,0,0:0:0:0:
448,192,82854,1,0,0:0:0:0:
64,192,108953,5,0,0:0:0:0:
192,192,108953,1,0,0:0:0:0:
320,192,108953,1,0,0:0:0:0:
448,192,108953,1,0,0:0:0:0:
64,192,109377,1,0,0:0:0:0:
192,192,109377,1,0,0:0:0:0:
320,192,109377,1,0,0:0:0:0:
448,192,109377,1,0,0:0:0:0:
64,192,109518,1,0,0:0:0:0:
192,192,109518,1,0,0:0:0:0:
320,192,109518,1,0,0:0:0:0:
448,192,109518,1,0,0:0:0:0:
64,192,109800,1,0,0:0:0:0:
192,192,109800,1,0,0:0:0:0:
320,192,109800,1,0,0:0:0:0:
448,192,109800,1,0,0:0:0:0:
64,192,110035,1,0,0:0:0:0:
448,192,110035,1,0,0:0:0:0:
192,192,110271,128,0,110600:0:0:0:0:
320,192,110271,1,0,0:0:0:0:
448,192,110459,128,0,110976:0:0:0:0:
320,192,110600,1,0,0:0:0:0:
192,192,110788,1,0,0:0:0:0:
320,192,110976,1,0,0:0:0:0:
64,192,110976,1,0,0:0:0:0:
64,192,111164,1,0,0:0:0:0:
448,192,111164,1,0,0:0:0:0:
320,192,111164,1,0,0:0:0:0:
448,192,111353,128,0,111729:0:0:0:0:
192,192,111541,1,0,0:0:0:0:
320,192,111541,1,0,0:0:0:0:
192,192,111729,1,0,0:0:0:0:
64,192,111729,1,0,0:0:0:0:
320,192,111917,1,0,0:0:0:0:
448,192,111917,1,0,0:0:0:0:
64,192,111917,1,0,0:0:0:0:
320,192,112105,1,0,0:0:0:0:
64,192,112293,1,0,0:0:0:0:
192,192,112293,1,0,0:0:0:0:
448,192,112293,1,0,0:0:0:0:
64,192,112529,128,0,112670:0:0:0:0:
320,192,112529,1,0,0:0:0:0:
320,192,112670,1,0,0:0:0:0:
448,192,112670,1,0,0:0:0:0:
448,192,112811,128,0,113422:0:0:0:0:
192,192,112811,1,0,0:0:0:0:
64,192,112999,1,0,0:0:0:0:
320,192,112999,1,0,0:0:0:0:
192,192,113234,1,0,0:0:0:0:
320,192,113422,1,0,0:0:0:0:
64,192,113422,1,0,0:0:0:0:
320,192,113611,1,0,0:0:0:0:
192,192,113611,1,0,0:0:0:0:
192,192,113799,128,0,114175:0:0:0:0:
320,192,113799,1,0,0:0:0:0:
448,192,113987,1,0,0:0:0:0:
64,192,113987,1,0,0:0:0:0:
64,192,114175,1,0,0:0:0:0:
320,192,114316,1,0,0:0:0:0:
64,192,114316,128,0,114693:0:0:0:0:
448,192,114504,1,0,0:0:0:0:
320,192,114693,1,0,0:0:0:0:
448,192,114693,128,0,115069:0:0:0:0:
64,192,114881,1,0,0:0:0:0:
192,192,115069,1,0,0:0:0:0:
64,192,115069,1,0,0:0:0:0:
448,192,115257,1,0,0:0:0:0:
192,192,115257,1,0,0:0:0:0:
64,192,115445,1,0,0:0:0:0:
320,192,115445,1,0,0:0:0:0:
448,192,115633,1,0,0:0:0:0:
320,192,115633,1,0,0:0:0:0:
192,192,115822,1,0,0:0:0:0:
320,192,116010,1,0,0:0:0:0:
320,192,116198,1,0,0:0:0:0:
448,192,116198,1,0,0:0:0:0:
192,192,116386,1,0,0:0:0:0:
448,192,116386,1,0,0:0:0:0:
64,192,116527,1,0,0:0:0:0:
320,192,116527,1,0,0:0:0:0:
192,192,116715,1,0,0:0:0:0:
448,192,116715,1,0,0:0:0:0:
320,192,116856,1,0,0:0:0:0:
64,192,116998,1,0,0:0:0:0:
192,192,116998,1,0,0:0:0:0:
64,192,117139,1,0,0:0:0:0:
192,192,117280,1,0,0:0:0:0:
192,192,117468,128,0,118268:0:0:0:0:
320,192,117656,1,0,0:0:0:0:
448,192,117844,128,0,118268:0:0:0:0:
64,192,118033,1,0,0:0:0:0:
320,192,118268,1,0,0:0:0:0:
320,192,118409,1,0,0:0:0:0:
448,192,118597,1,0,0:0:0:0:
448,192,118785,1,0,0:0:0:0:
320,192,118973,1,0,0:0:0:0:
192,192,119162,128,0,119914:0:0:0:0:
448,192,119162,128,0,119538:0:0:0:0:
320,192,119162,1,0,0:0:0:0:
64,192,119350,1,0,0:0:0:0:
64,192,119538,1,0,0:0:0:0:
320,192,119726,1,0,0:0:0:0:
448,192,119914,1,0,0:0:0:0:
64,192,120102,1,0,0:0:0:0:
448,192,120291,1,0,0:0:0:0:
320,192,120479,1,0,0:0:0:0:
192,192,120667,128,0,121373:0:0:0:0:
448,192,120667,128,0,120996:0:0:0:0:
320,192,120667,1,0,0:0:0:0:
64,192,120808,1,0,0:0:0:0:
64,192,120996,1,0,0:0:0:0:
320,192,121184,1,0,0:0:0:0:
448,192,121373,1,0,0:0:0:0:
64,192,121561,1,0,0:0:0:0:
64,192,121749,1,0,0:0:0:0:
192,192,121937,128,0,122690:0:0:0:0:
320,192,122125,1,0,0:0:0:0:
448,192,122313,128,0,122690:0:0:0:0:
64,192,122502,1,0,0:0:0:0:
320,192,122690,1,0,0:0:0:0:
320,192,122831,1,0,0:0:0:0:
448,192,123019,1,0,0:0:0:0:
448,192,123207,1,0,0:0:0:0:
320,192,123395,128,0,124148:0:0:0:0:
192,192,123584,1,0,0:0:0:0:
64,192,123772,128,0,124148:0:0:0:0:
448,192,123960,1,0,0:0:0:0:
192,192,124148,1,0,0:0:0:0:
192,192,124289,1,0,0:0:0:0:
64,192,124477,1,0,0:0:0:0:
64,192,124665,1,0,0:0:0:0:
192,192,124854,128,0,125606:0:0:0:0:
320,192,125042,1,0,0:0:0:0:
448,192,125230,128,0,125606:0:0:0:0:
64,192,125418,1,0,0:0:0:0:
320,192,125606,1,0,0:0:0:0:
320,192,125747,1,0,0:0:0:0:
448,192,125936,1,0,0:0:0:0:
320,192,126171,1,0,0:0:0:0:
448,192,126359,1,0,0:0:0:0:
320,192,126547,1,0,0:0:0:0:
448,192,126735,1,0,0:0:0:0:
448,192,127112,1,0,0:0:0:0:
192,192,127112,1,0,0:0:0:0:
64,192,127112,1,0,0:0:0:0:
64,192,127864,128,0,127958:0:0:0:0:
192,192,127864,128,0,128335:0:0:0:0:
320,192,127864,128,0,128147:0:0:0:0:
448,192,127864,128,0,128711:0:0:0:0:
64,192,128053,128,0,129229:0:0:0:0:
320,192,128241,128,0,128852:0:0:0:0:
192,192,128429,128,0,129040:0:0:0:0:
448,192,128805,128,0,130546:0:0:0:0:
320,192,128946,128,0,129370:0:0:0:0:
192,192,129134,128,0,129793:0:0:0:0:
64,192,129323,128,0,131110:0:0:0:0:
320,192,129464,128,0,129981:0:0:0:0:
192,192,129887,128,0,130169:0:0:0:0:
320,192,130075,128,0,130311:0:0:0:0:
192,192,130263,128,0,130922:0:0:0:0:
320,192,130405,128,0,131675:0:0:0:0:
448,192,130640,128,0,132051:0:0:0:0:
192,192,131016,128,0,131251:0:0:0:0:
64,192,131204,128,0,131440:0:0:0:0:
192,192,131345,128,0,132380:0:0:0:0:
64,192,131534,128,0,132710:0:0:0:0:
320,192,131769,128,0,132192:0:0:0:0:
448,192,132145,128,0,132569:0:0:0:0:
320,192,132286,128,0,133086:0:0:0:0:
192,192,132474,128,0,132945:0:0:0:0:
448,192,132663,128,0,133321:0:0:0:0:
64,192,132804,128,0,133651:0:0:0:0:
192,192,133039,128,0,134215:0:0:0:0:
320,192,133180,128,0,133462:0:0:0:0:
448,192,133415,128,0,133980:0:0:0:0:
320,192,133556,128,0,133839:0:0:0:0:
64,192,133745,128,0,134591:0:0:0:0:
320,192,133933,128,0,134403:0:0:0:0:
448,192,134074,128,0,134780:0:0:0:0:
192,192,134309,128,0,135109:0:0:0:0:
320,192,134497,128,0,135297:0:0:0:0:
64,192,134685,128,0,134921:0:0:0:0:
448,192,134874,128,0,135485:0:0:0:0:
64,192,135015,128,0,135767:0:0:0:0:
192,192,135203,128,0,135767:0:0:0:0:
320,192,135391,128,0,135767:0:0:0:0:
448,192,135579,128,0,135767:0:0:0:0:
64,192,136050,1,0,0:0:0:0:
192,192,136050,1,0,0:0:0:0:
320,192,136050,1,0,0:0:0:0:
448,192,136050,1,0,0:0:0:0:
448,192,136191,1,0,0:0:0:0:
64,192,136191,1,0,0:0:0:0:
192,192,136191,1,0,0:0:0:0:
320,192,136191,1,0,0:0:0:0:
64,192,136473,1,0,0:0:0:0:
192,192,136473,1,0,0:0:0:0:
320,192,136473,1,0,0:0:0:0:
448,192,136473,1,0,0:0:0:0:
64,192,174718,5,0,0:0:0:0:
192,192,174718,1,0,0:0:0:0:
320,192,174718,1,0,0:0:0:0:
448,192,174718,1,0,0:0:0:0:
192,192,252150,5,0,0:0:0:0:
320,192,252150,1,0,0:0:0:0:
448,192,252150,1,0,0:0:0:0:
64,192,252150,1,0,0:0:0:0:
