osu file format v14

[General]
AudioFilename: audio.mp3
AudioLeadIn: 0
PreviewTime: 110540
Countdown: 0
SampleSet: None
StackLeniency: 0.3
Mode: 0
LetterboxInBreaks: 0
WidescreenStoryboard: 1

[Editor]
Bookmarks: 8648,25945,34594,43243,51891,69189,72972,77837,86486,95135,103783,112432,121081,131981,136351,137635,142702,149189,152432
DistanceSpacing: 0.1
BeatDivisor: 4
GridSize: 4
TimelineZoom: 1.3

[Metadata]
Title:S. O. O. S.
TitleUnicode:S. O. O. S.
Artist:$44,000
ArtistUnicode:$44,000
Creator:Mel
Version:silly 9 star duck
Source:
Tags:44k prince of pisscore skrillex duck ducks quack quacks soos
BeatmapID:3722626
BeatmapSetID:565318

[Difficulty]
HPDrainRate:3
CircleSize:4.2
OverallDifficulty:8
ApproachRate:10
SliderMultiplier:2.1
SliderTickRate:1

[Events]
//Background and Video events
0,0,"duck.png",0,0
//Break Periods
2,86685,94685
//Storyboard Layer 0 (Background)
//Storyboard Layer 1 (Fail)
//Storyboard Layer 2 (Pass)
//Storyboard Layer 3 (Foreground)
//Storyboard Layer 4 (Overlay)
//Storyboard Sound Samples

[TimingPoints]
0,270.27027027027,4,2,0,70,1,0
0,-133.333333333333,4,2,0,70,0,0
7567,-66.6666666666667,4,2,0,70,0,0
8648,-100,4,2,0,70,0,0
16756,-66.6666666666667,4,2,0,70,0,0
17297,-100,4,2,0,70,0,0
25945,-133.333333333333,4,2,0,70,0,0
26486,-100,4,2,0,70,0,0
27027,-133.333333333333,4,2,0,70,0,0
27567,-100,4,2,0,70,0,0
27837,-76.9230769230769,4,2,0,70,0,0
28378,-133.333333333333,4,2,0,70,0,0
28648,-100,4,2,0,70,0,0
29189,-133.333333333333,4,2,0,70,0,0
29729,-100,4,2,0,70,0,0
30540,-133.333333333333,4,2,0,70,0,0
30810,-100,4,2,0,70,0,0
31351,-133.333333333333,4,2,0,70,0,0
31891,-100,4,2,0,70,0,0
32432,-83.3333333333333,4,2,0,70,0,0
32972,-100,4,2,0,70,0,0
34144,-66.6666666666667,4,2,0,70,0,0
34594,-100,4,2,0,70,0,0
36486,-76.9230769230769,4,2,0,70,0,0
37027,-100,4,2,0,70,0,0
52162,-133.333333333333,4,2,0,70,0,0
54054,-100,4,2,0,70,0,0
69189,-400,4,2,0,70,0,0
70270,-285.714285714286,4,2,0,70,0,0
73513,-100,4,2,0,70,0,0
77297,-66.6666666666667,4,2,0,70,0,0
77837,-100,4,2,0,70,0,0
85945,-66.6666666666667,4,2,0,70,0,0
103783,-125,4,2,0,70,0,0
105405,-66.6666666666667,4,2,0,70,0,0
105945,-125,4,2,0,70,0,0
107567,-66.6666666666667,4,2,0,70,0,0
108108,-125,4,2,0,70,0,0
109729,-66.6666666666667,4,2,0,70,0,0
112432,-58.8235294117647,4,2,0,70,0,1
120540,-50,4,2,0,70,0,1
121081,-58.8235294117647,4,2,0,70,0,0
123175,-263.157894736842,4,2,0,30,0,0
136351,-400,4,2,0,30,0,0
142702,-58.8235294117647,4,2,0,70,0,1
144054,-333.333333333333,4,2,0,5,0,1
144864,-58.8235294117647,4,2,0,70,0,1
146216,-333.333333333333,4,2,0,5,0,1
147027,-58.8235294117647,4,2,0,70,0,1
148378,-333.333333333333,4,2,0,5,0,1
149459,-58.8235294117647,4,2,0,70,0,1
149729,-333.333333333333,4,2,0,5,0,1
149999,-58.8235294117647,4,2,0,70,0,1
150270,-333.333333333333,4,2,0,5,0,1
150540,-58.8235294117647,4,2,0,70,0,1
152432,-35.7142857142857,4,2,0,70,0,0

[Colours]
Combo1 : 102,191,13
Combo2 : 0,128,255
Combo3 : 240,179,87
Combo4 : 232,36,104

[HitObjects]
156,72,0,6,0,L|160:184,1,105.000004005432
192,300,270,1,0,0:0:0:0:
448,244,540,1,0,0:0:0:0:
244,212,810,1,0,0:0:0:0:
244,212,1081,6,0,P|240:256|244:280,2,52.5000020027161
368,188,1351,2,0,P|372:140|368:116,2,52.5000020027161
348,288,1621,2,0,P|408:280|460:284,1,105.000004005432
240,264,1891,2,0,P|180:272|128:268,1,105.000004005432
312,104,2162,6,0,L|304:228,1,105.000004005432
188,148,2432,1,0,0:0:0:0:
388,244,2702,1,0,0:0:0:0:
136,272,2972,1,0,0:0:0:0:
416,168,3243,5,0,0:0:0:0:
416,168,3513,2,0,L|480:164,2,52.5000020027161
272,100,3783,1,0,0:0:0:0:
272,100,4054,2,0,P|276:148|276:176,2,52.5000020027161
128,304,4324,6,0,P|120:244|128:176,1,105.000004005432
156,112,4594,1,0,0:0:0:0:
340,204,4864,1,0,0:0:0:0:
72,132,5135,1,0,0:0:0:0:
72,132,5405,6,0,L|68:72,2,52.5000020027161
212,92,5675,2,0,L|216:28,2,52.5000020027161
308,176,5945,2,0,B|360:172|360:172|420:176,1,105.000004005432
248,340,6216,2,0,L|252:224,1,105.000004005432
72,132,6486,6,0,L|80:252,1,105.000004005432
48,332,6756,1,0,0:0:0:0:
332,316,7027,1,0,0:0:0:0:
128,296,7297,1,0,0:0:0:0:
128,296,7567,6,0,B|168:256|163:200|163:200|166:260|245:302,1,210.000008010865
424,324,8108,5,0,0:0:0:0:
354,341,8198,1,0,0:0:0:0:
308,286,8288,1,0,0:0:0:0:
339,221,8378,1,0,0:0:0:0:
411,221,8468,1,0,0:0:0:0:
441,287,8558,1,0,0:0:0:0:
388,336,8648,6,0,L|224:328,1,140
52,272,8918,2,0,P|128:280|192:248,1,140
112,52,9189,2,0,P|84:124|112:184,1,140
312,136,9459,2,0,P|232:120|168:120,1,140
360,252,9729,5,0,0:0:0:0:
383,246,9819,1,0,0:0:0:0:
410,240,9909,1,0,0:0:0:0:
432,236,9999,2,0,L|436:160,1,70
248,204,10180,1,0,0:0:0:0:
208,276,10270,2,0,L|212:352,2,70
160,204,10540,2,0,P|84:188|20:212,1,140
248,204,10810,6,0,P|256:120|240:52,1,140
435,166,11081,2,0,P|415:254|415:310,1,140
204,296,11351,2,0,P|292:296|336:244,1,140
128,224,11621,2,0,P|100:304|120:356,1,140
248,204,11891,6,0,P|244:72|240:48,1,140
28,132,12162,1,0,0:0:0:0:
51,137,12252,1,0,0:0:0:0:
75,139,12342,1,0,0:0:0:0:
99,141,12432,2,0,P|135:139|171:134,1,70
344,68,12612,1,0,0:0:0:0:
412,112,12702,2,0,P|460:108|488:108,2,70
356,176,12972,6,0,B|348:244|348:244|364:288|416:308,1,140
184,184,13243,2,0,P|104:172|24:180,1,140
224,256,13513,2,0,B|253:246|269:202|269:202|261:134,1,140
364,36,13783,2,0,P|356:116|356:188,1,140
257,340,14054,5,0,0:0:0:0:
237,339,14144,1,0,0:0:0:0:
217,339,14234,1,0,0:0:0:0:
197,339,14324,2,0,L|113:337,1,70
184,184,14504,1,0,0:0:0:0:
261,135,14594,2,0,L|341:139,2,70
198,63,14864,2,0,B|216:86|224:126|224:126|216:162|164:198,1,140
88,220,15135,6,0,P|40:224|16:224,1,70
168,272,15315,1,0,0:0:0:0:
164,308,15405,1,0,0:0:0:0:
160,336,15495,1,0,0:0:0:0:
240,324,15585,1,0,0:0:0:0:
312,292,15675,1,0,0:0:0:0:
388,296,15765,1,0,0:0:0:0:
392,312,15855,1,0,0:0:0:0:
472,336,15945,2,0,P|464:280|464:248,2,70
368,192,16216,6,0,P|372:140|368:108,1,70
208,144,16396,1,0,0:0:0:0:
160,84,16486,2,0,P|156:44|160:8,2,70
176,220,16756,6,0,P|136:248|32:228,1,105.000004005432
264,56,16936,1,0,0:0:0:0:
352,340,17027,2,0,P|296:276|288:232,1,105.000004005432
468,204,17207,1,0,0:0:0:0:
208,144,17297,6,0,P|288:140|352:148,1,140
189,288,17567,2,0,P|181:236|173:212,1,70
96,128,17747,1,0,0:0:0:0:
216,74,17837,2,0,P|208:130|208:154,2,70
347,147,18108,2,0,P|351:239|343:295,1,140
128,336,18378,6,0,P|208:312|272:320,1,140
492,240,18648,2,0,P|440:244|404:236,1,70
232,160,18828,1,0,0:0:0:0:
240,144,18918,1,0,0:0:0:0:
172,148,19009,1,0,0:0:0:0:
104,160,19099,1,0,0:0:0:0:
36,128,19189,2,0,B|52:160|56:196|56:196|44:240|0:272,1,140
220,348,19459,6,0,P|216:256|220:192,1,140
422,241,19729,2,0,P|367:259|331:255,1,70
160,112,19909,1,0,0:0:0:0:
212,40,19999,2,0,P|240:76|244:124,2,70
100,192,20270,2,0,L|248:184,1,140
425,102,20540,6,0,P|416:198|428:256,1,140
236,322,20810,2,0,P|248:242|236:174,1,140
128,72,21081,2,0,P|80:68|56:72,1,70
196,116,21261,1,0,0:0:0:0:
276,92,21351,2,0,P|288:48|284:16,1,70
152,188,21531,1,0,0:0:0:0:
196,260,21621,6,0,P|228:284|340:264,1,140
480,184,21891,2,0,P|432:172|400:176,1,70
268,196,22072,1,0,0:0:0:0:
196,116,22162,2,0,P|192:64|196:28,2,70
152,188,22432,2,0,B|56:180|56:180|0:200,1,140
196,360,22702,6,0,P|232:308|208:224,1,140
64,276,22972,2,0,P|128:292|156:288,1,70
328,272,23153,1,0,0:0:0:0:
320,252,23243,1,0,0:0:0:0:
384,256,23333,1,0,0:0:0:0:
452,264,23423,1,0,0:0:0:0:
452,248,23513,2,0,L|448:104,1,140
296,32,23783,6,0,L|292:128,1,70
256,284,23963,1,0,0:0:0:0:
328,244,24054,1,0,0:0:0:0:
252,204,24144,5,0,0:0:0:0:
228,192,24234,1,0,0:0:0:0:
204,188,24324,1,0,0:0:0:0:
176,192,24414,1,0,0:0:0:0:
152,204,24504,1,0,0:0:0:0:
84,256,24594,5,0,0:0:0:0:
84,268,24684,1,0,0:0:0:0:
84,280,24774,1,0,0:0:0:0:
84,292,24864,1,0,0:0:0:0:
156,344,24954,5,0,0:0:0:0:
196,320,25045,1,0,0:0:0:0:
240,316,25135,1,0,0:0:0:0:
284,324,25225,1,0,0:0:0:0:
324,340,25315,1,0,0:0:0:0:
368,352,25405,5,0,0:0:0:0:
364,328,25495,1,0,0:0:0:0:
444,312,25585,1,0,0:0:0:0:
440,292,25675,1,0,0:0:0:0:
392,224,25765,5,0,0:0:0:0:
400,144,25855,1,0,0:0:0:0:
408,64,25945,6,0,L|412:168,1,105.000004005432
256,80,26216,2,0,L|249:16,2,52.5000020027161
208,164,26486,6,0,B|172:160|172:160|148:164|148:164|100:160|100:160|56:164,1,140
172,308,26756,5,0,0:0:0:0:
176,292,26846,1,0,0:0:0:0:
252,296,26936,1,0,0:0:0:0:
256,284,27027,2,0,L|268:208,2,52.5000020027161
356,292,27297,2,0,L|364:348,2,52.5000020027161
456,236,27567,6,0,P|388:244|328:176,1,140
233,66,27837,6,0,B|289:80|289:80|276:170|188:167,1,181.999991668702
82,271,28108,2,0,L|292:252,1,181.999991668702
412,164,28378,6,0,L|416:100,2,52.5000020027161
468,272,28648,6,0,P|392:256|340:300,1,140
220,348,28918,5,0,0:0:0:0:
200,344,29009,1,0,0:0:0:0:
120,344,29099,1,0,0:0:0:0:
104,340,29189,2,0,L|100:276,2,52.5000020027161
192,244,29459,2,0,L|188:180,2,52.5000020027161
108,136,29729,6,0,B|119:88|110:43|110:43|141:54|178:48,1,140
336,136,29999,2,0,P|268:152|216:96,1,140
400,56,30270,6,0,B|384:88|384:88|392:208,1,140
460,296,30540,6,0,L|520:288,2,52.5000020027161
320,352,30810,6,0,B|344:332|352:292|352:292|344:244|304:220,1,140
196,172,31081,5,0,0:0:0:0:
180,173,31171,1,0,0:0:0:0:
93,199,31261,1,0,0:0:0:0:
77,200,31351,2,0,L|80:251,2,52.5000020027161
116,104,31621,2,0,L|70:78,2,52.5000020027161
180,188,31891,6,0,B|248:156|248:156|332:184,1,140
468,272,32162,2,0,P|430:289|459:219,1,140
302,333,32432,6,0,B|310:305|310:305|302:285|302:285|314:253|314:253|302:229|302:229|314:201|314:201|306:157,1,167.999994873047
380,56,32702,5,0,0:0:0:0:
384,68,32792,1,0,0:0:0:0:
388,80,32882,1,0,0:0:0:0:
309,175,32972,6,0,L|157:167,1,140
36,216,33243,5,0,0:0:0:0:
40,228,33333,1,0,0:0:0:0:
108,280,33423,1,0,0:0:0:0:
112,292,33513,1,0,0:0:0:0:
176,344,33603,5,0,0:0:0:0:
252,332,33693,1,0,0:0:0:0:
328,320,33783,1,0,0:0:0:0:
404,308,33873,5,0,0:0:0:0:
404,324,33963,1,0,0:0:0:0:
404,340,34054,1,0,0:0:0:0:
328,320,34144,6,0,P|320:272|320:260,8,52.5000020027161
420,192,34594,1,0,0:0:0:0:
420,192,34864,6,0,L|256:184,1,140
156,140,35135,2,0,B|188:184|188:184|172:276,1,140
104,328,35405,5,0,0:0:0:0:
80,324,35495,1,0,0:0:0:0:
52,320,35585,1,0,0:0:0:0:
232,324,35675,2,0,L|304:320,2,70
96,208,35945,2,0,L|24:212,2,70
200,136,36216,2,0,P|184:188|256:240,1,140
370,139,36486,6,0,B|375:92|356:49|356:49|310:67|285:115,1,181.999991668702
329,250,36756,2,0,B|384:238|414:270|414:270|446:304|505:288,1,181.999991668702
311,345,37027,6,0,L|231:341,2,70
128,360,37297,2,0,B|172:320|172:320|164:208,1,140
120,96,37567,5,0,0:0:0:0:
148,84,37657,1,0,0:0:0:0:
176,88,37747,1,0,0:0:0:0:
264,124,37837,2,0,L|272:44,2,70
368,180,38108,2,0,L|376:100,2,70
432,256,38378,2,0,P|368:228|296:280,1,140
128,304,38648,2,0,B|180:310|220:292|220:292|228:328|280:348,1,140
164,208,38918,6,0,L|160:60,1,140
44,248,39189,2,0,L|40:328,2,70
268,143,39459,2,0,P|304:167|304:263,1,140
220,312,39729,5,0,0:0:0:0:
184,308,39819,1,0,0:0:0:0:
148,304,39909,1,0,0:0:0:0:
96,184,39999,2,0,L|100:104,2,70
148,304,40270,2,0,L|78:344,2,70
216,208,40540,2,0,B|240:248|268:260|268:260|304:264|344:248,1,140
464,160,40810,2,0,P|428:204|456:288,1,140
336,140,41081,5,0,0:0:0:0:
332,124,41171,1,0,0:0:0:0:
392,76,41261,1,0,0:0:0:0:
388,60,41351,1,0,0:0:0:0:
312,28,41441,5,0,0:0:0:0:
236,40,41531,1,0,0:0:0:0:
160,56,41621,1,0,0:0:0:0:
100,112,41711,5,0,0:0:0:0:
88,108,41801,1,0,0:0:0:0:
76,104,41891,2,0,B|64:72|64:72|76:24,1,70
212,116,42072,1,0,0:0:0:0:
224,120,42162,2,0,B|236:152|236:152|224:200,1,70
66,299,42342,5,0,0:0:0:0:
105,277,42432,1,0,0:0:0:0:
151,270,42522,1,0,0:0:0:0:
197,278,42612,1,0,0:0:0:0:
238,299,42702,1,0,0:0:0:0:
274,326,42792,5,0,0:0:0:0:
314,349,42882,1,0,0:0:0:0:
360,357,42972,1,0,0:0:0:0:
405,349,43062,1,0,0:0:0:0:
447,329,43152,1,0,0:0:0:0:
478,244,43243,6,0,L|482:160,2,70
351,191,43513,2,0,L|355:107,2,70
236,132,43783,1,0,0:0:0:0:
236,116,43873,1,0,0:0:0:0:
237,101,43963,1,0,0:0:0:0:
238,85,44053,1,0,0:0:0:0:
239,70,44143,1,0,0:0:0:0:
240,54,44233,1,0,0:0:0:0:
152,88,44324,6,0,B|116:92|116:92|64:84,2,70
316,144,44594,2,0,B|352:140|352:140|404:148,2,70
208,216,44864,1,0,0:0:0:0:
208,232,44954,1,0,0:0:0:0:
208,249,45044,1,0,0:0:0:0:
209,266,45134,1,0,0:0:0:0:
209,283,45224,1,0,0:0:0:0:
210,300,45314,1,0,0:0:0:0:
300,344,45405,6,0,L|296:260,2,70
416,264,45675,2,0,L|412:180,2,70
296,136,45945,1,0,0:0:0:0:
276,134,46035,1,0,0:0:0:0:
256,133,46125,1,0,0:0:0:0:
236,132,46215,1,0,0:0:0:0:
216,131,46305,1,0,0:0:0:0:
196,130,46395,1,0,0:0:0:0:
132,80,46486,6,0,P|160:132|116:212,1,140
60,316,46756,1,0,0:0:0:0:
57,308,46846,1,0,0:0:0:0:
55,301,46936,1,0,0:0:0:0:
52,292,47027,2,0,L|192:296,1,140
328,352,47297,2,0,P|312:284|328:208,1,140
424,160,47567,6,0,L|500:156,2,70
316,84,47837,2,0,L|240:88,2,70
152,40,48108,1,0,0:0:0:0:
151,56,48198,1,0,0:0:0:0:
150,73,48288,1,0,0:0:0:0:
149,90,48378,1,0,0:0:0:0:
148,107,48468,1,0,0:0:0:0:
147,124,48558,1,0,0:0:0:0:
92,200,48648,6,0,L|0:196,2,70
140,312,48918,2,0,L|48:308,2,70
252,224,49189,1,0,0:0:0:0:
253,208,49279,1,0,0:0:0:0:
254,191,49369,1,0,0:0:0:0:
255,174,49459,1,0,0:0:0:0:
256,157,49549,1,0,0:0:0:0:
257,140,49639,1,0,0:0:0:0:
336,68,49729,6,0,B|368:64|368:64|416:72,2,70
176,120,49999,2,0,B|144:124|144:124|96:116,2,70
332,200,50270,1,0,0:0:0:0:
331,216,50360,1,0,0:0:0:0:
330,233,50450,1,0,0:0:0:0:
329,250,50540,1,0,0:0:0:0:
328,267,50630,1,0,0:0:0:0:
327,284,50720,1,0,0:0:0:0:
372,352,50810,6,0,P|312:312|244:336,1,140
92,268,51081,1,0,0:0:0:0:
92,276,51171,1,0,0:0:0:0:
92,284,51261,1,0,0:0:0:0:
92,292,51351,6,0,L|172:288,1,70
327,284,51531,2,0,L|407:280,1,70
88,192,51711,2,0,L|168:188,1,70
320,180,51891,5,0,0:0:0:0:
428,108,52162,2,0,L|432:28,1,52.5000020027161
236,156,52432,1,0,0:0:0:0:
420,268,52702,2,0,L|424:188,1,52.5000020027161
156,188,52972,5,0,0:0:0:0:
356,56,53243,2,0,L|352:136,1,52.5000020027161
144,280,53513,1,0,0:0:0:0:
344,244,53693,1,0,0:0:0:0:
344,244,53783,2,0,L|340:324,1,52.5000020027161
76,352,54054,6,0,P|60:264|88:184,1,140
120,152,54324,1,0,0:0:0:0:
324,184,54594,1,0,0:0:0:0:
212,88,54864,1,0,0:0:0:0:
312,272,55135,1,0,0:0:0:0:
416,124,55405,2,0,P|416:76|412:52,2,70
448,212,55675,1,0,0:0:0:0:
224,188,55945,1,0,0:0:0:0:
424,312,56216,6,0,P|340:292|272:304,1,140
208,336,56486,1,0,0:0:0:0:
184,332,56576,1,0,0:0:0:0:
160,328,56666,1,0,0:0:0:0:
136,324,56756,1,0,0:0:0:0:
96,148,57027,5,0,0:0:0:0:
284,112,57297,2,0,L|380:116,2,70
216,52,57567,1,0,0:0:0:0:
288,236,57837,1,0,0:0:0:0:
448,132,58108,1,0,0:0:0:0:
224,160,58378,5,0,0:0:0:0:
208,177,58468,1,0,0:0:0:0:
197,198,58558,1,0,0:0:0:0:
191,220,58648,1,0,0:0:0:0:
191,243,58738,1,0,0:0:0:0:
196,266,58828,1,0,0:0:0:0:
205,287,58918,1,0,0:0:0:0:
220,306,59008,1,0,0:0:0:0:
238,320,59098,1,0,0:0:0:0:
259,330,59188,1,0,0:0:0:0:
484,192,59459,5,0,0:0:0:0:
432,188,59549,1,0,0:0:0:0:
380,184,59639,1,0,0:0:0:0:
328,180,59729,1,0,0:0:0:0:
48,272,59999,5,0,0:0:0:0:
100,268,60089,1,0,0:0:0:0:
152,264,60179,1,0,0:0:0:0:
204,260,60269,1,0,0:0:0:0:
484,192,60540,6,0,B|476:212|448:228|448:228|388:232|324:188,1,140
224,80,60810,2,0,P|252:68|272:156,1,140
104,152,61081,2,0,P|88:76|112:-12,1,140
228,220,61351,2,0,P|172:274|86:302,1,140
288,144,61621,6,0,P|336:140|384:144,2,70
104,152,61891,2,0,P|56:156|8:152,2,70
216,36,62162,2,0,P|208:124|224:216,1,140
368,352,62432,2,0,P|352:276|324:212,1,140
96,304,62702,6,0,P|176:320|256:300,1,140
428,148,62972,2,0,P|364:104|280:100,1,140
112,152,63243,2,0,B|140:128|148:96|148:96|152:56|108:0,1,140
235,170,63513,2,0,P|227:250|235:322,1,140
460,260,63783,6,0,P|376:240|296:248,1,140
156,296,64054,1,0,0:0:0:0:
128,304,64144,1,0,0:0:0:0:
96,304,64234,1,0,0:0:0:0:
40,248,64324,6,0,L|44:160,1,70
76,72,64504,1,0,0:0:0:0:
151,43,64594,1,0,0:0:0:0:
217,88,64684,1,0,0:0:0:0:
220,168,64774,1,0,0:0:0:0:
152,216,64864,6,0,P|68:224|0:208,1,140
217,88,65135,2,0,P|301:80|369:96,1,140
496,260,65405,2,0,B|472:288|440:296|440:296|388:288|360:248,1,140
217,88,65675,2,0,B|253:92|277:115|277:115|299:163|281:208,1,140
184,320,65945,5,0,0:0:0:0:
152,320,66036,1,0,0:0:0:0:
128,320,66126,1,0,0:0:0:0:
96,320,66216,2,0,L|92:236,1,70
56,60,66396,1,0,0:0:0:0:
147,85,66486,2,0,P|195:89|231:85,2,70
272,172,66756,2,0,P|316:104|300:28,1,140
176,180,67027,6,0,P|224:252|292:268,1,140
484,212,67297,2,0,P|412:200|340:216,1,140
36,356,67567,2,0,P|100:328|136:228,1,140
179,40,67837,2,0,P|171:116|179:200,1,140
288,316,68108,5,0,0:0:0:0:
312,312,68198,1,0,0:0:0:0:
336,308,68288,1,0,0:0:0:0:
364,304,68378,2,0,P|368:260|368:224,1,70
328,60,68558,1,0,0:0:0:0:
408,104,68648,6,0,L|488:108,1,70
179,40,68828,2,0,L|99:36,1,70
284,128,69009,1,0,0:0:0:0:
272,212,69099,1,0,0:0:0:0:
256,296,69189,6,0,L|248:356,1,52.5
364,244,69729,2,0,P|368:280|372:296,1,52.5
272,212,70270,6,0,L|216:208,1,48.9999985046387
128,196,70540,2,0,L|72:192,1,48.9999985046387
280,120,70810,2,0,L|224:116,1,48.9999985046387
136,104,71080,2,0,L|80:100,1,48.9999985046387
372,84,71351,1,0,0:0:0:0:
372,92,71441,1,0,0:0:0:0:
372,101,71531,1,0,0:0:0:0:
372,109,71621,1,0,0:0:0:0:
372,118,71711,1,0,0:0:0:0:
373,127,71801,1,0,0:0:0:0:
373,135,71891,1,0,0:0:0:0:
373,144,71981,1,0,0:0:0:0:
373,153,72071,1,0,0:0:0:0:
373,161,72161,1,0,0:0:0:0:
374,170,72251,1,0,0:0:0:0:
374,179,72341,1,0,0:0:0:0:
374,187,72432,1,0,0:0:0:0:
374,196,72522,1,0,0:0:0:0:
374,205,72612,1,0,0:0:0:0:
375,213,72702,1,0,0:0:0:0:
375,222,72792,1,0,0:0:0:0:
375,230,72882,1,0,0:0:0:0:
376,244,72972,5,0,0:0:0:0:
372,268,73063,5,0,0:0:0:0:
352,292,73153,5,0,0:0:0:0:
308,308,73243,5,0,0:0:0:0:
240,300,73333,5,0,0:0:0:0:
196,240,73423,5,0,0:0:0:0:
160,160,73513,6,0,P|156:84|164:8,1,140
372,160,73783,2,0,P|360:236|308:300,1,140
58,234,74054,2,0,B|94:226|126:238|126:238|162:254|210:234,1,140
452,104,74324,2,0,P|380:68|300:92,1,140
324,288,74594,5,0,0:0:0:0:
352,288,74684,1,0,0:0:0:0:
380,288,74774,1,0,0:0:0:0:
408,288,74864,2,0,L|408:208,1,70
244,72,75045,1,0,0:0:0:0:
168,136,75135,2,0,P|128:144|92:140,2,70
244,72,75405,2,0,P|216:160|256:216,1,140
340,252,75675,6,0,P|428:248|500:252,1,140
256,336,75945,2,0,B|216:344|172:336|172:336|136:304|128:268,1,140
252,71,76216,2,0,P|264:155|228:203,1,140
28,148,76486,2,0,P|132:124|180:132,1,140
388,128,76756,6,0,P|380:72|380:36,1,70
256,240,76936,1,0,0:0:0:0:
216,312,77027,2,0,P|212:348|216:384,2,70
336,200,77297,6,0,P|400:216|464:184,1,105.000004005432
260,40,77477,1,0,0:0:0:0:
136,256,77567,2,0,P|208:192|224:148,1,105.000004005432
40,132,77747,1,0,0:0:0:0:
216,312,77837,6,0,P|296:304|376:308,1,140
215,116,78108,2,0,P|211:156|211:192,1,70
60,340,78288,1,0,0:0:0:0:
72,248,78378,2,0,P|72:208|64:172,2,70
216,312,78648,2,0,B|256:312|284:300|284:300|312:264|316:212,1,140
408,100,78918,6,0,P|412:184|432:248,1,140
210,185,79189,2,0,P|162:181|122:181,1,70
308,40,79369,1,0,0:0:0:0:
328,36,79459,1,0,0:0:0:0:
308,104,79549,1,0,0:0:0:0:
320,172,79639,1,0,0:0:0:0:
368,232,79729,2,0,P|328:216|244:280,1,140
64,360,79999,6,0,P|80:272|80:196,1,140
208,56,80270,2,0,P|212:108|220:136,1,70
320,296,80450,1,0,0:0:0:0:
408,300,80540,2,0,P|452:296|488:300,2,70
320,296,80810,2,0,B|348:264|352:236|352:236|348:184|308:140,1,140
208,56,81081,6,0,P|120:52|56:56,1,140
160,308,81351,2,0,P|224:284|264:224,1,140
68,276,81621,6,0,L|72:360,1,70
160,136,81801,2,0,L|164:220,1,70
320,296,81981,2,0,L|324:380,1,70
464,224,82162,6,0,P|392:236|324:188,1,140
272,76,82432,2,0,P|276:36|272:-4,1,70
163,205,82612,1,0,0:0:0:0:
168,292,82702,2,0,P|176:336|184:364,2,70
232,244,82972,2,0,P|136:244|56:220,1,140
304,176,83243,6,0,B|332:204|336:236|336:236|316:316,1,140
144,148,83513,2,0,P|196:132|228:132,1,70
488,108,83693,1,0,0:0:0:0:
480,132,83783,1,0,0:0:0:0:
416,92,83873,1,0,0:0:0:0:
344,68,83963,1,0,0:0:0:0:
272,68,84054,2,0,B|296:96|304:132|304:132|296:172|264:208,1,140
140,264,84324,6,0,B|104:256|72:272|72:272|40:288|0:272,1,140
156,356,84594,2,0,P|224:296|224:224,1,140
184,108,84864,2,0,P|248:160|328:148,1,140
456,72,85135,2,0,B|428:96|424:128|424:128|432:216,1,140
316,360,85405,6,0,P|344:296|328:228,1,140
136,208,85675,2,0,P|174:266|240:289,1,140
497,137,85945,5,0,0:0:0:0:
427,139,86035,1,0,0:0:0:0:
357,141,86125,1,0,0:0:0:0:
287,143,86215,1,0,0:0:0:0:
217,145,86305,1,0,0:0:0:0:
147,147,86395,1,0,0:0:0:0:
77,149,86485,1,0,0:0:0:0:
124,104,95135,5,0,0:0:0:0:
135,103,95225,1,0,0:0:0:0:
147,103,95315,1,0,0:0:0:0:
158,102,95405,1,0,0:0:0:0:
170,102,95495,1,0,0:0:0:0:
182,101,95585,1,0,0:0:0:0:
193,101,95675,1,0,0:0:0:0:
205,100,95765,1,0,0:0:0:0:
217,100,95855,1,0,0:0:0:0:
228,99,95945,1,0,0:0:0:0:
444,188,96216,5,0,0:0:0:0:
433,187,96306,1,0,0:0:0:0:
421,187,96396,1,0,0:0:0:0:
410,186,96486,1,0,0:0:0:0:
398,186,96576,1,0,0:0:0:0:
386,185,96666,1,0,0:0:0:0:
375,185,96756,1,0,0:0:0:0:
363,184,96846,1,0,0:0:0:0:
351,184,96936,1,0,0:0:0:0:
340,183,97026,1,0,0:0:0:0:
108,248,97297,5,0,0:0:0:0:
119,247,97387,1,0,0:0:0:0:
131,247,97477,1,0,0:0:0:0:
142,246,97567,1,0,0:0:0:0:
154,246,97657,1,0,0:0:0:0:
166,245,97747,1,0,0:0:0:0:
177,245,97837,1,0,0:0:0:0:
189,244,97927,1,0,0:0:0:0:
201,244,98017,1,0,0:0:0:0:
212,243,98107,1,0,0:0:0:0:
420,336,98378,5,0,0:0:0:0:
424,304,98468,1,0,0:0:0:0:
428,276,98558,1,0,0:0:0:0:
432,244,98648,1,0,0:0:0:0:
200,151,98918,5,0,0:0:0:0:
204,183,99008,1,0,0:0:0:0:
208,211,99098,1,0,0:0:0:0:
212,243,99188,1,0,0:0:0:0:
432,72,99459,5,0,0:0:0:0:
419,75,99549,1,0,0:0:0:0:
406,78,99639,1,0,0:0:0:0:
393,80,99729,1,0,0:0:0:0:
380,81,99819,1,0,0:0:0:0:
367,80,99909,1,0,0:0:0:0:
354,79,99999,1,0,0:0:0:0:
341,76,100089,1,0,0:0:0:0:
328,72,100179,1,0,0:0:0:0:
316,68,100269,1,0,0:0:0:0:
280,296,100540,5,0,0:0:0:0:
284,283,100630,1,0,0:0:0:0:
289,270,100720,1,0,0:0:0:0:
294,258,100810,1,0,0:0:0:0:
300,247,100900,1,0,0:0:0:0:
308,237,100990,1,0,0:0:0:0:
316,226,101080,1,0,0:0:0:0:
326,217,101170,1,0,0:0:0:0:
336,208,101260,1,0,0:0:0:0:
346,200,101350,1,0,0:0:0:0:
144,40,101621,5,0,0:0:0:0:
152,50,101711,1,0,0:0:0:0:
160,61,101801,1,0,0:0:0:0:
168,72,101891,1,0,0:0:0:0:
174,83,101981,1,0,0:0:0:0:
178,95,102071,1,0,0:0:0:0:
183,108,102161,1,0,0:0:0:0:
185,121,102251,1,0,0:0:0:0:
187,134,102341,1,0,0:0:0:0:
188,147,102431,1,0,0:0:0:0:
188,160,102522,1,0,0:0:0:0:
188,172,102612,1,0,0:0:0:0:
188,184,102702,1,0,0:0:0:0:
360,296,103243,6,0,B|384:284|416:280|416:280|472:300,2,105.000004005432
152,264,103513,2,0,B|128:276|96:280|96:280|40:260,2,105.000004005432
264,172,103783,6,0,P|268:108|260:44,1,112
140,104,104054,2,0,P|164:140|152:96,1,112
64,176,104324,2,0,P|112:220|172:228,1,112
324,260,104594,2,0,P|280:252|216:300,1,112
292,348,104864,2,0,P|356:352|404:316,1,112
440,224,105135,2,0,P|436:156|436:100,1,112
320,36,105405,6,0,B|336:52|344:72|344:72|340:108|308:132,2,105.000004005432
224,284,105675,2,0,B|208:268|200:248|200:248|204:212|236:188,2,105.000004005432
128,316,105945,6,0,P|104:256|116:200,1,112
164,96,106216,2,0,P|152:60|140:108,1,112
227,194,106486,2,0,P|283:206|347:186,1,112
448,132,106756,2,0,P|420:192|424:256,1,112
356,348,107027,2,0,P|312:312|240:304,1,112
124,352,107297,2,0,P|164:296|172:240,1,112
120,136,107567,6,0,B|96:124|64:128|64:128|36:152|-16:132,2,105.000004005432
335,192,107837,2,0,B|359:204|391:200|391:200|419:176|471:196,2,105.000004005432
232,120,108108,6,0,P|220:64|240:-8,1,112
120,136,108378,2,0,P|136:200|136:264,1,112
88,328,108648,2,0,P|164:304|228:332,1,112
324,344,108918,2,0,P|288:356|316:308,1,112
432,256,109189,2,0,P|424:316|424:372,1,112
340,232,109459,2,0,P|328:168|304:104,1,112
232,48,109729,6,0,B|272:88|324:104|324:104|388:104|444:68,1,210.000008010865
148,290,109999,2,0,B|160:235|145:182|145:182|110:129|49:101,1,210.000008010865
397,228,110270,1,0,0:0:0:0:
397,228,110540,1,0,0:0:0:0:
397,228,110810,1,0,0:0:0:0:
397,228,111081,1,0,0:0:0:0:
397,228,111351,6,0,P|324:224|280:224,1,105.000004005432
64,248,111531,1,0,0:0:0:0:
256,48,111621,6,0,P|232:108|184:160,1,105.000004005432
28,40,111801,1,0,0:0:0:0:
192,320,111891,6,0,P|160:264|168:196,1,105.000004005432
360,64,112072,1,0,0:0:0:0:
16,148,112162,6,0,P|80:156|140:136,1,105.000004005432
428,192,112342,1,0,0:0:0:0:
244,248,112432,6,0,L|252:116,1,119.000002269745
392,40,112612,1,0,0:0:0:0:
488,256,112702,2,0,B|436:272|436:272|364:256,1,119.000002269745
148,152,112882,1,0,0:0:0:0:
396,120,112972,1,0,0:0:0:0:
280,320,113063,1,0,0:0:0:0:
208,68,113153,1,0,0:0:0:0:
76,244,113243,6,0,P|176:232|208:232,1,119.000002269745
440,280,113423,1,0,0:0:0:0:
304,88,113513,1,0,0:0:0:0:
196,324,113603,1,0,0:0:0:0:
424,172,113693,1,0,0:0:0:0:
224,24,113783,6,0,L|228:152,1,119.000002269745
356,336,113963,1,0,0:0:0:0:
108,268,114054,1,0,0:0:0:0:
348,184,114144,1,0,0:0:0:0:
212,352,114234,1,0,0:0:0:0:
94,176,114324,6,0,B|158:192|158:192|210:248,1,119.000002269745
356,356,114504,1,0,0:0:0:0:
296,96,114594,1,0,0:0:0:0:
480,268,114684,1,0,0:0:0:0:
232,312,114774,1,0,0:0:0:0:
488,156,114864,6,0,P|412:168|364:164,1,119.000002269745
184,64,115045,1,0,0:0:0:0:
304,272,115135,1,0,0:0:0:0:
424,80,115225,1,0,0:0:0:0:
152,208,115315,1,0,0:0:0:0:
292,24,115405,6,0,L|288:156,1,119.000002269745
172,328,115585,1,0,0:0:0:0:
420,264,115675,1,0,0:0:0:0:
176,120,115765,1,0,0:0:0:0:
296,344,115855,1,0,0:0:0:0:
476,196,115945,6,0,B|424:180|424:180|344:192,1,119.000002269745
86,260,116126,1,0,0:0:0:0:
420,264,116216,1,0,0:0:0:0:
83,249,116306,1,0,0:0:0:0:
424,275,116396,1,0,0:0:0:0:
80,238,116486,1,0,0:0:0:0:
427,285,116576,1,0,0:0:0:0:
77,227,116666,1,0,0:0:0:0:
431,296,116756,6,0,P|375:304|299:300,1,119.000002269745
74,216,116936,1,0,0:0:0:0:
284,36,117027,6,0,L|276:172,1,119.000002269745
200,332,117207,1,0,0:0:0:0:
400,164,117297,1,0,0:0:0:0:
168,200,117387,1,0,0:0:0:0:
424,256,117477,1,0,0:0:0:0:
292,352,117567,6,0,B|272:300|272:300|284:228,1,119.000002269745
440,92,117747,1,0,0:0:0:0:
144,116,117837,1,0,0:0:0:0:
400,232,117927,1,0,0:0:0:0:
292,28,118018,1,0,0:0:0:0:
80,216,118108,6,0,P|152:208|204:212,1,119.000002269745
432,312,118288,1,0,0:0:0:0:
324,104,118378,1,0,0:0:0:0:
184,320,118468,1,0,0:0:0:0:
416,192,118558,1,0,0:0:0:0:
272,352,118648,6,0,L|280:232,1,119.000002269745
196,40,118828,1,0,0:0:0:0:
416,160,118918,1,0,0:0:0:0:
192,232,119009,1,0,0:0:0:0:
336,32,119099,1,0,0:0:0:0:
484,236,119189,6,0,B|428:256|428:256|360:244,1,119.000002269745
196,120,119369,1,0,0:0:0:0:
300,336,119459,1,0,0:0:0:0:
416,160,119549,1,0,0:0:0:0:
156,260,119639,1,0,0:0:0:0:
320,44,119729,6,0,P|312:112|316:184,1,119.000002269745
176,344,119909,1,0,0:0:0:0:
34,275,119999,6,0,B|78:301|136:304|136:304|204:273|240:198,1,238.00000453949
510,103,120270,2,0,B|465:77|408:74|408:74|340:105|303:180,1,238.00000453949
128,371,120540,6,0,L|137:284,1,70
158,106,120630,2,0,L|147:19,1,70
144,371,120720,2,0,L|140:284,1,70
141,99,120810,2,0,L|116:15,1,70
161,370,120900,2,0,L|143:284,1,70
123,93,120990,2,0,L|85:14,1,70
268,329,121081,5,0,0:0:0:0:
256,192,121148,12,0,123175,0:0:0:0:
188,150,125405,6,0,B|153:137|130:147|102:174|94:204|113:234|136:252|169:257|206:252|246:237|274:198|284:154|271:102|271:102|262:126|271:163|293:198|311:217|332:221|371:230|371:230|412:242|437:260|436:295,1,638.399992207031
433,274,128648,2,0,B|410:233|407:156|431:99|453:96|476:143|461:162|434:182|434:182|405:195|375:198|340:183,1,319.199996103516
215,136,129864,6,0,B|166:107|95:107|55:121|30:186|45:248|92:254|145:263|186:237|186:237|216:216|253:206|282:239|294:279|291:307|257:338|201:348|170:333|156:298,1,638.399992207031
156,298,134189,2,0,B|116:247|115:196|127:151|163:112|163:112|187:138|207:191|205:206|205:206|201:224|207:248|226:270|256:285|278:282|313:275|345:257|358:221|362:164|323:135|279:132|244:153,1,638.399992207031
227,159,136418,6,0,L|468:151,1,236.25
256,192,137702,12,0,142432,0:0:0:0:
136,148,142702,6,0,B|87:103|87:103|150:117,1,119.000002269745
212,312,142882,2,0,B|167:361|167:361|181:298,1,119.000002269745
376,236,143063,2,0,B|425:281|425:281|362:267,1,119.000002269745
300,72,143243,2,0,B|345:23|345:23|331:86,1,119.000002269745
170,227,143423,6,0,B|135:239|97:227|97:227|42:231,1,119.000002269745
342,157,143603,2,0,B|377:145|415:157|415:157|470:153,1,119.000002269745
255,191,143783,1,0,0:0:0:0:
255,191,144054,6,0,L|255:257,2,62.9999980773926
255,191,144864,6,0,L|251:45,1,119.000002269745
122,185,145045,1,0,0:0:0:0:
315,278,145135,2,0,P|349:271|441:262,1,119.000002269745
210,366,145315,5,0,0:0:0:0:
41,245,145405,2,0,B|25:192|25:192|42:100,1,119.000002269745
223,4,145585,1,0,0:0:0:0:
437,146,145675,2,0,B|448:208|448:208|432:261,1,119.000002269745
210,366,145855,1,0,0:0:0:0:
255,191,145945,1,0,0:0:0:0:
255,191,146216,6,0,L|255:257,2,62.9999980773926
254,191,147027,6,0,B|266:217|290:237|290:237|318:241|363:226,1,119.000002269745
459,154,147207,1,0,0:0:0:0:
443,318,147297,1,0,0:0:0:0:
459,154,147387,1,0,0:0:0:0:
443,318,147477,1,0,0:0:0:0:
459,154,147567,1,0,0:0:0:0:
443,318,147657,1,0,0:0:0:0:
459,154,147747,1,0,0:0:0:0:
443,318,147837,1,0,0:0:0:0:
459,154,147927,1,0,0:0:0:0:
443,318,148017,1,0,0:0:0:0:
255,192,148108,5,0,0:0:0:0:
255,191,148378,6,0,L|255:257,2,62.9999980773926
149,119,149189,6,0,P|158:137|189:154,1,47.2499985580445
343,201,149459,6,0,B|266:193|266:193|255:199|255:199|247:192|247:192|175:185|175:185|168:179|168:179|160:183|160:183|51:173,1,267.750005106926
253,321,149729,6,0,P|263:304|260:268,1,47.2499985580445
216,114,149999,6,0,B|252:182|252:182|262:188|262:188|261:198|261:198|294:262|294:262|293:272|293:272|301:276|301:276|351:373,1,267.750005106926
366,123,150270,6,0,P|346:124|317:146,1,47.2499985580445
63,352,150540,6,0,B|105:333|161:329|161:329|157:287|173:251|173:251|222:255|277:213,1,267.750005106926
256,0,150810,2,0,B|249:45|221:94|221:94|259:114|280:147|280:147|250:186|256:255,1,267.750005106926
446,353,151081,2,0,B|411:322|385:272|385:272|348:293|308:293|308:293|292:247|231:214,1,267.750005106926
67,163,151351,5,0,0:0:0:0:
339,203,151441,1,0,0:0:0:0:
159,270,151531,1,0,0:0:0:0:
162,240,151621,1,0,0:0:0:0:
165,212,151711,1,0,0:0:0:0:
168,183,151801,1,0,0:0:0:0:
192,37,151891,5,0,0:0:0:0:
58,296,151981,1,0,0:0:0:0:
409,133,152072,1,0,0:0:0:0:
322,189,152162,5,0,0:0:0:0:
21,142,152252,1,0,0:0:0:0:
377,25,152342,1,0,0:0:0:0:
175,358,152432,2,0,B|182:318|199:274|199:274|167:268|128:265|128:265|125:207|175:140|175:140|183:138|183:138|175:136|175:136|190:52|166:-11,1,440.999986541749
