osu file format v14

[General]
AudioFilename: audio.mp3
AudioLeadIn: 0
PreviewTime: 66
Countdown: 0
SampleSet: Normal
StackLeniency: 0.5
Mode: 0
LetterboxInBreaks: 0
WidescreenStoryboard: 1

[Editor]
DistanceSpacing: 0.6
BeatDivisor: 3
GridSize: 4
TimelineZoom: 1

[Metadata]
Title:S. O. O. S.
TitleUnicode:S. O. O. S.
Artist:$44,000
ArtistUnicode:$44,000
Creator:MeekiBriks
Version:AR6
Source:
Tags:
BeatmapID:1697938
BeatmapSetID:695763

[Difficulty]
HPDrainRate:4
CircleSize:4
OverallDifficulty:9
ApproachRate:6
SliderMultiplier:1.8
SliderTickRate:1

[Events]
//Background and Video events
0,0,"duck-05.jpg",0,0
//Break Periods
//Storyboard Layer 0 (Background)
//Storyboard Layer 1 (Fail)
//Storyboard Layer 2 (Pass)
//Storyboard Layer 3 (Foreground)
//Storyboard Sound Samples

[TimingPoints]
66,270.27027027027,4,1,0,100,1,0
540,-133.333333333333,4,1,0,100,0,0
7567,-83.3333333333333,4,1,0,100,0,0
10810,-71.4285714285714,4,1,0,100,0,0
11261,-83.3333333333333,4,1,0,100,0,0
12972,-71.4285714285714,4,1,0,100,0,0
15135,-58.8235294117647,4,1,0,100,0,0
24864,-52.6315789473684,4,1,0,100,0,0
25945,-100,4,1,0,100,0,0
32432,-80,4,1,0,100,0,0
36756,-66.6666666666667,4,1,0,100,0,0
37837,-80,4,1,0,100,0,0
38648,-66.6666666666667,4,1,0,100,0,0
43309,-50,4,1,0,100,0,0
52138,-200,4,1,0,100,0,0
54120,-100,4,1,0,100,0,0
59255,-80,4,1,0,100,0,0
61327,-57.1428571428571,4,1,0,100,0,0
61687,-80,4,1,0,100,0,0
69255,-66.6666666666667,4,1,0,100,0,0
71417,-80,4,1,0,100,0,0
73579,-66.6666666666667,4,1,0,100,0,0
86552,-133.333333333333,4,1,0,100,0,0
95201,-80,4,1,0,100,0,0
103309,-57.1428571428571,4,1,0,100,0,0
103849,-66.6666666666667,4,1,0,100,0,0
105471,-57.1428571428571,4,1,0,100,0,0
106011,-66.6666666666667,4,1,0,100,0,0
107633,-57.1428571428571,4,1,0,100,0,0
108173,-66.6666666666667,4,1,0,100,0,0
109795,-57.1428571428571,4,1,0,100,0,0
111417,-50,4,1,0,100,0,0
121147,-200,4,1,0,100,0,0
127633,-600,4,1,0,100,0,0
128444,-600,4,1,0,20,0,0
128714,-600,4,1,0,100,0,0
129525,-600,4,1,0,20,0,0
129975,-200,4,1,0,100,0,0
134390,-200,4,1,0,100,0,0
134840,-200,4,1,0,20,0,0
134930,-200,4,1,0,100,0,0
135380,-200,4,1,0,20,0,0
135471,-200,4,1,0,100,0,0
135921,-200,4,1,0,20,0,0
136011,-200,4,1,0,100,0,0
137633,-200,4,1,0,30,0,0
141147,-200,4,1,0,40,0,0
141417,-200,4,1,0,50,0,0
141687,-200,4,1,0,60,0,0
141957,-200,4,1,0,70,0,0
142228,-200,4,1,0,80,0,0
142498,-200,4,1,0,5,0,0
142768,-100,4,1,0,100,0,0
144120,-100,4,1,0,40,0,0
144930,-80,4,1,0,100,0,0
146282,-100,4,1,0,40,0,0
147093,-100,4,1,0,100,0,0
149525,-50,4,1,0,100,0,0

[HitObjects]
200,92,66,6,0,P|123:82|148:152,1,180,0|0,0:0|0:0,0:0:0:0:
260,272,516,1,0,0:0:0:0:
248,312,606,2,0,P|206:341|124:336,1,135.000005149842
323,176,1056,1,0,0:0:0:0:
282,185,1147,2,0,P|235:163|199:89,1,135.000005149842
340,256,1597,2,0,L|352:300,1,45.0000017166138
448,204,1867,2,0,L|436:160,1,45.0000017166138
204,113,2138,5,0,0:0:0:0:
204,113,2228,1,0,0:0:0:0:
388,44,2408,1,0,0:0:0:0:
310,38,2498,2,0,B|243:63|243:63|205:113,1,135.000005149842,0|0,0:0|0:0,0:0:0:0:
196,192,3038,2,0,P|215:257|189:317,1,135.000005149842
56,342,3489,1,0,0:0:0:0:
67,311,3579,2,0,P|71:297|38:236,1,90.0000034332277
141,282,3849,2,0,P|110:313|66:310,1,90.0000034332277
214,253,4120,2,0,P|200:248|139:281,1,90.0000034332277
140,281,4390,6,0,L|168:117,1,135.000005149842
303,18,4840,1,0,0:0:0:0:
259,47,4930,2,0,L|237:180,1,135.000005149842
140,281,5381,1,0,0:0:0:0:
96,252,5471,2,0,L|74:118,1,135.000005149842
215,253,5921,1,0,0:0:0:0:
244,297,6011,2,0,L|377:318,1,135.000005149842
451,212,6462,1,0,0:0:0:0:
416,222,6552,6,0,B|371:232|371:232|326:207,1,90.0000034332277
452,139,6822,2,0,L|416:222,1,90.0000034332277
332,210,7093,2,0,P|272:206|216:252,1,135.000005149842
335,129,7633,6,0,L|135:45,1,215.999993408203,0|0,0:0|0:0,0:0:0:0:
171,313,8084,1,0,0:0:0:0:
238,352,8174,6,0,L|452:308,1,215.999993408203
62,336,8624,5,0,0:0:0:0:
184,215,8714,2,0,P|236:199|315:239,1,143.999995605469,0|0,0:0|0:0,0:0:0:0:
313,236,8984,1,0,0:0:0:0:
129,154,9165,1,0,0:0:0:0:
105,227,9255,2,0,L|198:363,1,143.999995605469,0|0,0:0|0:0,0:0:0:0:
311,332,9525,2,0,P|213:319|181:351,1,143.999995605469,0|0,0:0|0:0,0:0:0:0:
443,249,9795,5,0,0:0:0:0:
310,207,9975,1,0,0:0:0:0:
318,239,10065,1,0,0:0:0:0:
129,154,10246,1,0,0:0:0:0:
137,186,10336,1,0,0:0:0:0:
380,48,10516,1,0,0:0:0:0:
388,80,10606,2,0,P|418:131|481:99,1,143.999995605469,0|0,0:0|0:0,0:0:0:0:
481,98,10876,6,0,L|426:343,1,251.999992309571
178,90,11327,1,0,0:0:0:0:
195,16,11417,2,0,B|123:51|123:51|115:114,1,143.999995605469
324,56,11687,2,0,P|268:16|192:17,1,143.999995605469
195,16,11957,5,0,0:0:0:0:
396,168,12138,1,0,0:0:0:0:
372,138,12228,1,0,0:0:0:0:
192,112,12408,1,0,0:0:0:0:
216,142,12498,1,0,0:0:0:0:
72,360,12678,1,0,0:0:0:0:
48,330,12768,6,0,P|40:264|64:192,1,143.999995605469
183,17,13038,2,0,L|431:57,1,251.999992309571
232,216,13579,2,0,P|244:310|292:358,1,167.999994873047
292,358,13849,1,0,0:0:0:0:
176,112,14029,6,0,L|136:188,1,83.9999974365235
348,320,14300,2,0,L|387:245,1,83.9999974365235
248,64,14570,2,0,L|208:140,1,83.9999974365235
284,356,14840,2,0,L|323:281,1,83.9999974365235
432,58,15111,5,0,0:0:0:0:
408,94,15201,2,0,L|208:138,1,204.000003890991
160,180,15471,2,0,L|360:136,1,204.000003890991
492,188,15741,2,0,L|292:232,1,204.000003890991
160,180,16011,2,0,L|204:380,1,204.000003890991
292,231,16282,2,0,L|248:31,1,204.000003890991
396,184,16552,2,0,P|429:199|492:187,2,102.000001945496
259,265,16822,5,0,0:0:0:0:
231,293,16912,1,0,0:0:0:0:
271,301,17002,1,0,0:0:0:0:
292,231,17093,5,0,0:0:0:0:
184,282,17183,1,0,0:0:0:0:
275,349,17273,1,0,0:0:0:0:
376,308,17363,6,0,L|468:124,1,204.000003890991
436,128,17633,2,0,P|354:92|405:17,1,204.000003890991
360,8,17903,2,0,L|152:56,1,204.000003890991
161,53,18174,1,0,0:0:0:0:
28,208,18354,1,0,0:0:0:0:
36,252,18444,2,0,P|56:292|200:296,1,204.000003890991
197,298,18714,1,0,0:0:0:0:
340,84,18894,1,0,0:0:0:0:
320,112,18984,2,0,B|300:148|300:148|344:304,1,204.000003890991
386,278,19255,5,0,0:0:0:0:
426,250,19345,1,0,0:0:0:0:
466,222,19435,1,0,0:0:0:0:
506,194,19525,2,0,P|526:134|414:106,1,204.000003890991
384,172,19795,2,0,L|480:356,1,204.000003890991
380,332,20065,2,0,P|344:312|424:240,1,204.000003890991
386,278,20336,5,0,0:0:0:0:
328,288,20426,1,0,0:0:0:0:
270,281,20516,1,0,0:0:0:0:
222,246,20606,2,0,P|167:218|23:246,1,204.000003890991
31,241,20876,1,0,0:0:0:0:
342,42,21056,2,0,L|446:30,1,102.000001945496
86,118,21327,1,0,0:0:0:0:
122,50,21417,6,0,P|222:50|138:162,1,306.000005836487
324,120,21777,1,0,0:0:0:0:
372,104,21867,1,0,0:0:0:0:
412,132,21957,2,0,L|504:324,1,204.000003890991
388,256,22228,2,0,P|341:235|200:283,1,204.000003890991
298,343,22498,2,0,L|499:315,1,204.000003890991
500,315,22768,5,0,0:0:0:0:
230,95,22948,1,0,0:0:0:0:
222,143,23038,2,0,L|194:344,1,204.000003890991
193,345,23309,1,0,0:0:0:0:
344,104,23489,2,0,L|448:96,1,102.000001945496
136,252,23759,2,0,P|88:216|224:144,1,306.000005836487
284,260,24120,6,0,L|492:324,1,204.000003890991
478,319,24390,1,0,0:0:0:0:
344,104,24570,2,0,L|352:208,1,102.000001945496
155,50,24930,6,0,P|83:90|155:178,1,227.999993911743
267,114,25201,2,0,L|163:318,1,227.999993911743
76,356,25471,1,0,0:0:0:0:
156,340,25561,1,0,0:0:0:0:
232,368,25651,1,0,0:0:0:0:
300,324,25741,1,0,0:0:0:0:
292,244,25831,1,0,0:0:0:0:
220,208,25921,1,0,0:0:0:0:
160,260,26011,6,0,P|136:272|104:272,2,60
220,208,26282,2,0,P|244:196|276:196,2,60
148,184,26552,2,0,P|100:120|104:84,1,120
120,68,26822,1,0,0:0:0:0:
140,56,26912,1,0,0:0:0:0:
160,44,27002,1,0,0:0:0:0:
180,32,27093,6,0,L|236:56,5,60
296,96,27633,2,0,P|324:152|308:204,1,120
216,248,27903,1,0,0:0:0:0:
192,252,27993,1,0,0:0:0:0:
168,256,28084,1,0,0:0:0:0:
144,260,28174,6,0,P|212:307|240:240,1,180
152,116,28624,2,0,L|160:176,1,60
228,108,28894,1,0,0:0:0:0:
224,88,28984,2,0,L|216:28,2,60
292,152,29255,2,0,B|319:162|319:162|351:157,1,60
468,60,29435,5,0,0:0:0:0:
444,52,29525,1,0,0:0:0:0:
420,60,29615,1,0,0:0:0:0:
348,84,29705,5,0,0:0:0:0:
324,92,29795,1,0,0:0:0:0:
300,84,29885,1,0,0:0:0:0:
228,44,29975,1,0,0:0:0:0:
208,32,30065,2,0,B|180:20|180:20|147:32,1,60
128,44,30246,1,0,0:0:0:0:
56,84,30336,6,0,B|43:115|43:115|54:201,1,120
18,236,30606,2,0,P|70:290|76:325,1,120
80,329,30876,2,0,P|119:380|163:360,1,120
221,302,31147,6,0,L|281:314,2,60
165,198,31417,2,0,L|106:186,2,60
277,358,31687,2,0,L|337:370,2,60
117,142,31957,2,0,L|58:130,2,60
221,302,32228,6,0,P|257:266|213:234,1,120
181,230,32498,6,0,P|136:278|191:314,1,150
191,314,32768,1,0,0:0:0:0:
348,188,32948,2,0,L|420:164,1,75
384,296,33219,1,0,0:0:0:0:
396,328,33309,2,0,P|423:353|477:355,2,75
288,272,33579,6,0,L|124:312,1,150
72,344,33849,2,0,L|218:309,1,150
239,192,34120,5,0,0:0:0:0:
259,164,34210,1,0,0:0:0:0:
207,160,34300,1,0,0:0:0:0:
287,120,34390,1,0,0:0:0:0:
171,112,34480,1,0,0:0:0:0:
315,64,34570,1,0,0:0:0:0:
131,56,34660,6,0,P|108:141|150:179,1,150
146,177,34930,2,0,P|175:252|135:312,1,150
142,307,35201,2,0,L|287:272,1,150
287,271,35471,1,0,0:0:0:0:
428,268,35651,1,0,0:0:0:0:
460,292,35741,2,0,P|484:328|484:360,2,75
348,256,36011,2,0,P|284:228|260:148,1,150
258,156,36282,5,0,0:0:0:0:
458,199,36462,2,0,L|426:271,1,75
356,104,36732,1,0,0:0:0:0:
348,72,36822,2,0,P|363:38|380:108,1,180.000006866455
276,84,37093,2,0,L|96:56,1,180.000006866455
36,96,37363,2,0,P|51:186|118:174,1,180.000006866455
184,140,37633,2,0,L|216:324,1,180.000006866455
284,272,37903,6,0,P|312:241|321:208,2,75
424,360,38174,2,0,P|383:351|350:359,2,75
452,208,38444,2,0,P|464:247|488:272,2,75
487,271,38714,2,0,P|515:240|492:116,1,180.000006866455
491,115,38984,1,0,0:0:0:0:
228,44,39255,6,0,P|200:75|223:199,1,180.000006866455
264,220,39525,2,0,L|92:296,1,180.000006866455
172,352,39795,2,0,P|256:368|340:332,1,180.000006866455
400,248,40065,2,0,P|444:236|484:256,2,90.0000034332277
304,216,40336,2,0,P|315:171|352:147,2,90.0000034332277
240,292,40606,2,0,L|64:328,1,180.000006866455
63,328,40876,1,0,0:0:0:0:
192,128,41147,6,0,L|228:46,2,90.0000034332277
275,209,41417,2,0,L|239:291,2,90.0000034332277
132,72,41687,2,0,L|53:28,2,90.0000034332277
332,260,41957,1,0,0:0:0:0:
371,281,42047,1,0,0:0:0:0:
410,303,42137,1,0,0:0:0:0:
448,328,42228,5,0,0:0:0:0:
448,284,42318,1,0,0:0:0:0:
448,232,42408,1,0,0:0:0:0:
448,176,42498,5,0,0:0:0:0:
448,112,42588,1,0,0:0:0:0:
404,176,42678,1,0,0:0:0:0:
404,92,42768,1,0,0:0:0:0:
364,176,42858,1,0,0:0:0:0:
368,76,42948,1,0,0:0:0:0:
332,180,43038,5,0,0:0:0:0:
332,64,43129,1,0,0:0:0:0:
300,184,43219,1,0,0:0:0:0:
292,52,43309,6,0,L|50:100,1,240
56,98,43579,2,0,L|265:225,1,240
261,222,43849,2,0,L|19:270,1,240
25,268,44120,1,0,0:0:0:0:
292,52,44390,6,0,L|50:100,1,240
261,223,44660,2,0,L|54:97,1,240
261,223,44930,2,0,L|19:271,1,240
25,269,45201,1,0,0:0:0:0:
55,98,45471,6,0,L|291:51,1,240
261,223,45741,2,0,L|52:96,1,240
261,223,46011,2,0,L|19:271,1,240
25,269,46282,1,0,0:0:0:0:
55,98,46552,6,0,L|292:51,1,240
261,223,46822,2,0,L|55:98,1,240
25,269,47092,2,0,L|262:222,1,240
276,240,47363,2,0,L|38:286,1,240
55,98,47633,6,0,L|291:51,1,240
261,223,47903,2,0,L|52:96,1,240
261,223,48174,2,0,L|19:271,1,240
25,269,48444,1,0,0:0:0:0:
465,98,48714,6,0,L|515:352,1,240
55,98,48984,6,0,L|4:352,1,240
261,223,49255,2,0,L|19:271,1,240
4,352,49525,1,0,0:0:0:0:
55,98,49795,6,0,L|291:51,1,240
261,223,50065,2,0,L|52:96,1,240
261,223,50335,2,0,L|19:271,1,240
25,269,50606,1,0,0:0:0:0:
55,98,50876,6,0,L|292:51,1,240
261,223,51146,2,0,L|55:98,1,240
25,269,51416,2,0,L|262:222,1,240
276,240,51687,2,0,L|38:286,1,240
260,136,51957,5,0,0:0:0:0:
328,60,52138,1,0,0:0:0:0:
336,88,52228,1,0,0:0:0:0:
396,236,52408,1,0,0:0:0:0:
404,268,52498,2,0,P|404:288|372:348,2,90
280,304,53219,1,0,0:0:0:0:
272,276,53309,1,0,0:0:0:0:
352,164,53489,1,0,0:0:0:0:
380,176,53579,2,0,L|407:278,1,90
52,312,54120,6,0,P|108:268|116:348,1,180
212,313,54570,1,0,0:0:0:0:
228,293,54660,2,0,P|256:237|224:129,1,180
24,20,55111,1,0,0:0:0:0:
56,44,55201,2,0,L|64:171,1,120
63,163,55471,2,0,P|83:215|139:207,1,120
140,214,55741,2,0,L|227:127,1,120
244,112,56011,1,0,0:0:0:0:
472,280,56282,5,0,0:0:0:0:
320,224,56462,1,0,0:0:0:0:
288,228,56552,2,0,P|240:256|228:316,1,120
227,315,56822,1,0,0:0:0:0:
92,156,57002,1,0,0:0:0:0:
116,168,57093,2,0,P|136:204|120:280,1,120
68,356,57363,6,0,L|16:248,1,120
0,168,57633,2,0,P|9:104|52:68,1,120
144,56,57903,2,0,P|156:28|148:0,2,60
208,148,58174,2,0,L|248:284,1,120
288,280,58444,5,0,0:0:0:0:
332,296,58534,1,0,0:0:0:0:
376,312,58624,1,0,0:0:0:0:
420,332,58714,2,0,L|448:384,2,60
440,276,58984,5,0,0:0:0:0:
460,220,59075,1,0,0:0:0:0:
480,164,59165,1,0,0:0:0:0:
508,112,59255,2,0,P|496:52|424:72,1,150
352,188,59525,5,0,0:0:0:0:
340,218,59615,1,0,0:0:0:0:
328,248,59705,1,0,0:0:0:0:
244,298,59795,2,0,L|280:134,1,150
156,152,60065,5,0,0:0:0:0:
40,112,60155,1,0,0:0:0:0:
80,200,60246,1,0,0:0:0:0:
119,67,60336,2,0,P|227:59|275:155,1,225
224,294,60786,1,0,0:0:0:0:
256,264,60876,2,0,L|96:304,1,150
8,176,61147,5,0,0:0:0:0:
264,120,61327,1,0,0:0:0:0:
276,108,61417,2,0,P|254:44|250:126,1,210.000002002716
332,184,61687,6,0,L|352:332,1,150
424,320,61957,2,0,P|368:272|284:288,1,150
232,336,62228,2,0,P|184:352|88:312,1,150
113,239,62498,2,0,L|333:183,1,225
424,24,62948,1,0,0:0:0:0:
400,47,63038,2,0,P|401:112|473:151,1,150
512,96,63309,5,0,0:0:0:0:
404,220,63489,1,0,0:0:0:0:
408,244,63579,1,0,0:0:0:0:
328,80,63759,1,0,0:0:0:0:
320,112,63849,2,0,L|284:260,1,150
184,316,64120,2,0,P|104:320|64:268,1,150
76,149,64390,5,0,0:0:0:0:
84,125,64480,1,0,0:0:0:0:
113,96,64570,1,0,0:0:0:0:
166,86,64660,1,0,0:0:0:0:
223,115,64750,1,0,0:0:0:0:
263,176,64840,1,0,0:0:0:0:
283,256,64930,6,0,P|340:319|351:199,1,225
172,172,65381,1,0,0:0:0:0:
148,192,65471,2,0,P|132:260|180:328,1,150
244,348,65741,1,0,0:0:0:0:
329,105,65921,1,0,0:0:0:0:
337,85,66011,2,0,P|365:137|329:120,1,150
257,197,66282,2,0,L|409:213,1,150
394,354,66552,2,0,B|387:291|387:291|327:275|327:373|239:347|239:347,1,225
40,24,67093,6,0,L|68:172,1,150
88,188,67363,1,0,0:0:0:0:
318,222,67633,2,0,P|404:163|401:131,1,150
344,84,67903,2,0,P|258:143|261:175,1,150
281,296,68174,6,0,P|184:335|159:315,1,150
140,194,68444,2,0,P|236:154|261:174,1,150
336,236,68714,1,0,0:0:0:0:
421,268,68804,1,0,0:0:0:0:
492,208,68894,1,0,0:0:0:0:
481,111,68984,1,0,0:0:0:0:
394,77,69074,1,0,0:0:0:0:
324,137,69164,1,0,0:0:0:0:
336,236,69255,6,0,P|328:312|164:352,1,270.000010299683
80,16,69795,2,0,L|232:272,1,270.000010299683
444,48,70336,1,0,0:0:0:0:
44,208,70606,1,0,0:0:0:0:
256,76,70876,2,0,P|328:92|320:184,1,180.000006866455
264,248,71147,2,0,L|172:93,1,180.000006866455
47,74,71417,6,0,L|31:150,2,75
111,142,71687,2,0,L|127:218,2,75
44,208,71957,2,0,L|28:284,2,75
108,276,72228,2,0,P|176:328|232:312,1,150
248,300,72498,1,0,0:0:0:0:
400,180,72678,1,0,0:0:0:0:
392,212,72768,2,0,B|384:252|384:252|440:360,1,150
484,264,73038,2,0,L|504:112,1,150
508,96,73309,1,0,0:0:0:0:
288,44,73579,6,0,L|120:108,1,180.000006866455
168,168,73849,2,0,P|284:172|324:132,1,180.000006866455
368,56,74120,2,0,L|456:212,1,180.000006866455
480,304,74390,2,0,P|448:364|336:352,1,180.000006866455
286,273,74660,2,0,P|282:178|352:144,1,180.000006866455
456,212,74930,6,0,L|270:279,1,180.000006866455
228,368,75201,2,0,L|161:182,1,180.000006866455
36,72,75471,2,0,L|103:258,1,180.000006866455
140,132,75741,2,0,P|240:87|290:120,1,180.000006866455
300,144,76011,5,0,0:0:0:0:
20,272,76192,2,0,L|8:364,1,90.0000034332277
416,188,76462,2,0,L|404:280,1,90.0000034332277
140,132,76732,2,0,L|128:224,1,90.0000034332277
488,36,77002,2,0,L|476:128,1,90.0000034332277
296,314,77273,1,0,0:0:0:0:
300,234,77363,5,0,0:0:0:0:
300,144,77453,1,0,0:0:0:0:
212,142,77543,1,0,0:0:0:0:
212,232,77633,5,0,0:0:0:0:
300,234,77723,1,0,0:0:0:0:
384,234,77813,1,0,0:0:0:0:
384,146,77903,6,0,P|460:104|464:232,1,270.000010299683
124,80,78354,1,0,0:0:0:0:
80,104,78444,2,0,L|56:292,1,180.000006866455
124,348,78714,2,0,P|228:320|244:260,1,180.000006866455
152,192,78984,2,0,L|348:152,1,180.000006866455
348,152,79255,5,0,0:0:0:0:
452,8,79435,1,0,0:0:0:0:
436,32,79525,2,0,P|420:116|492:184,1,180.000006866455
496,108,79795,2,0,P|412:92|344:164,1,180.000006866455
292,224,80065,2,0,L|24:259,1,270.000010299683
136,128,80516,1,0,0:0:0:0:
140,160,80606,2,0,L|163:338,1,180.000006866455
168,364,80876,5,0,0:0:0:0:
228,120,81056,1,0,0:0:0:0:
240,88,81147,2,0,P|308:48|392:96,1,180.000006866455
400,124,81417,1,0,0:0:0:0:
72,312,81597,1,0,0:0:0:0:
40,332,81687,2,0,L|44:236,5,90.0000034332277
64,232,82228,5,0,0:0:0:0:
416,64,82498,2,0,L|392:244,1,180.000006866455
384,280,82768,1,0,0:0:0:0:
240,64,82948,1,0,0:0:0:0:
232,104,83038,2,0,L|208:284,1,180.000006866455
204,300,83308,5,0,0:0:0:0:
200,312,83399,1,0,0:0:0:0:
196,324,83489,1,0,0:0:0:0:
192,336,83579,2,0,P|130:354|112:204,2,270.000010299683
328,88,84300,1,0,0:0:0:0:
356,100,84390,2,0,P|386:177|317:222,1,180.000006866455
232,204,84660,2,0,L|188:28,1,180.000006866455
160,12,84930,5,0,0:0:0:0:
480,188,85111,1,0,0:0:0:0:
488,212,85201,2,0,P|472:328|336:356,1,270.000010299683
200,316,85651,1,0,0:0:0:0:
212,288,85741,2,0,L|392:260,1,180.000006866455
412,256,86011,5,0,0:0:0:0:
404,216,86101,1,0,0:0:0:0:
396,176,86191,1,0,0:0:0:0:
300,108,86281,5,0,0:0:0:0:
252,116,86371,1,0,0:0:0:0:
204,124,86461,1,0,0:0:0:0:
156,132,86552,1,0,0:0:0:0:
40,40,86822,5,0,0:0:0:0:
8,184,87093,2,0,P|9:216|120:296,1,180.000006866455
144,288,87543,1,0,0:0:0:0:
176,272,87633,1,0,0:0:0:0:
256,144,87903,5,0,0:0:0:0:
360,256,88174,2,0,L|488:296,2,135.000005149842
260,216,88984,1,0,0:0:0:0:
188,296,89255,5,0,0:0:0:0:
100,232,89435,1,0,0:0:0:0:
84,208,89525,2,0,P|72:160|112:72,1,135.000005149842
208,24,90065,1,0,0:0:0:0:
203,159,90336,1,0,0:0:0:0:
100,232,90516,1,0,0:0:0:0:
84,208,90606,2,0,P|72:160|96:88,1,90.0000034332277
84,96,90876,6,0,L|204:160,1,135.000005149842
292,344,91417,2,0,P|352:312|376:208,1,180.000006866455
368,188,91867,1,0,0:0:0:0:
360,168,91957,1,0,0:0:0:0:
448,36,92228,1,0,0:0:0:0:
285,107,92498,2,0,P|208:92|184:44,1,135.000005149842
68,16,93038,6,0,L|100:208,1,180.000006866455
136,216,93489,6,0,L|106:38,1,180.000006866455
124,48,93939,1,0,0:0:0:0:
144,56,94029,1,0,0:0:0:0:
164,64,94120,1,0,0:0:0:0:
8,160,94390,1,0,0:0:0:0:
232,184,94660,1,0,0:0:0:0:
152,280,94840,1,0,0:0:0:0:
156,304,94930,1,0,0:0:0:0:
316,248,95111,5,0,0:0:0:0:
336,276,95201,2,0,P|376:272|416:288,8,75
304,296,96011,2,0,L|292:376,1,75
220,316,96192,5,0,0:0:0:0:
191,296,96282,2,0,P|156:312|111:312,8,75
214,266,97092,2,0,L|197:186,1,75
248,116,97273,5,0,0:0:0:0:
281,129,97363,2,0,B|316:136|316:136|358:120,4,75
285,153,97813,1,0,0:0:0:0:
287,174,97903,1,0,0:0:0:0:
289,190,97993,1,0,0:0:0:0:
291,210,98084,1,0,0:0:0:0:
292,227,98174,2,0,L|298:313,1,75
392,332,98354,5,0,0:0:0:0:
425,310,98444,2,0,L|456:378,2,75
424,281,98714,2,0,L|451:208,1,75
424,120,98894,5,0,0:0:0:0:
391,98,98984,2,0,L|359:166,2,75
392,69,99254,2,0,P|368:36|280:68,1,150
280,108,99525,2,0,P|288:148|307:177,8,75
236,96,100336,2,0,L|166:123,1,75
160,200,100516,5,0,0:0:0:0:
168,236,100606,2,0,L|226:282,2,75
120,300,100876,2,0,L|73:358,2,75
64,248,101147,2,0,L|5:201,2,75
108,184,101417,2,0,P|160:156|244:212,1,168.75
300,264,101687,6,0,B|336:280|336:280|376:272,4,75
304,256,102138,1,0,0:0:0:0:
308,248,102228,1,0,0:0:0:0:
312,240,102318,1,0,0:0:0:0:
316,232,102408,1,0,0:0:0:0:
320,224,102498,2,0,L|288:152,2,75
452,300,102768,1,0,0:0:0:0:
172,20,103309,6,0,P|232:84|140:108,1,210.000002002716
60,48,103579,2,0,L|120:368,1,315.000003004074
464,96,104120,6,0,P|360:128|408:32,1,270.000010299683
508,184,104660,1,0,0:0:0:0:
276,68,104840,5,0,0:0:0:0:
268,96,104930,1,0,0:0:0:0:
456,264,105111,1,0,0:0:0:0:
428,256,105201,1,0,0:0:0:0:
168,68,105471,6,0,L|128:288,1,210.000002002716
192,352,105741,2,0,P|292:340|260:172,1,315.000003004074
60,152,106282,5,0,0:0:0:0:
228,260,106462,1,0,0:0:0:0:
256,272,106552,2,0,P|348:256|392:180,1,180.000006866455
391,186,106822,1,0,0:0:0:0:
204,0,107002,1,0,0:0:0:0:
192,28,107092,2,0,P|208:120|284:164,1,180.000006866455
277,163,107362,1,0,0:0:0:0:
464,348,107633,6,0,L|256:324,1,210.000002002716
128,232,107903,2,0,L|440:267,1,315.000003004074
244,72,108444,5,0,0:0:0:0:
28,188,108624,2,0,L|12:276,1,90.0000034332277
128,108,108894,2,0,L|144:20,1,90.0000034332277
220,192,109165,1,0,0:0:0:0:
228,220,109255,2,0,P|224:304|140:324,1,180.000006866455
104,308,109525,1,0,0:0:0:0:
448,60,109795,6,0,P|533:31|511:110,1,210.000002002716
280,4,110065,2,0,P|219:108|340:60,1,315.000003004074
416,204,110516,1,0,0:0:0:0:
380,272,110606,2,0,L|172:324,1,210.000002002716
48,288,110876,2,0,P|8:156|148:96,1,315.000003004074
328,200,111327,5,0,0:0:0:0:
380,272,111417,2,0,B|436:300|436:300|484:268,2,120
239,209,111687,2,0,B|186:243|186:243|190:301,2,120
364,120,111957,2,0,B|360:57|360:57|308:31,2,120
328,200,112228,6,0,P|312:308|416:372,1,240
484,288,112498,2,0,L|436:48,1,240
288,8,112768,2,0,P|192:16|144:140,1,240
144,260,113038,2,0,L|328:88,1,240
440,96,113309,6,0,L|177:341,1,360
40,52,113759,5,0,0:0:0:0:
132,104,113849,2,0,P|144:208|40:336,1,240
68,200,114120,2,0,P|196:184|292:248,1,240
436,336,114390,2,0,P|400:200|456:120,1,240
508,24,114660,6,0,L|272:88,1,240
148,12,114930,2,0,L|212:248,1,240
292,344,115201,2,0,P|372:292|288:216,1,240
152,344,115471,2,0,P|104:360|8:224,1,240
96,120,115741,6,0,L|452:196,1,360
232,232,116192,1,0,0:0:0:0:
216,260,116282,2,0,P|220:320|356:280,1,240
364,180,116552,5,0,0:0:0:0:
314,75,116642,1,0,0:0:0:0:
201,47,116732,1,0,0:0:0:0:
92,96,116822,2,0,P|24:200|32:312,1,240
172,352,117093,2,0,L|412:332,1,240
512,256,117363,2,0,P|540:192|416:136,1,240
316,240,117633,6,0,P|140:256|20:128,1,360
276,64,118084,5,0,0:0:0:0:
208,128,118174,2,0,P|204:224|288:344,1,240
412,352,118444,2,0,L|372:108,1,240
500,180,118714,2,0,L|256:220,1,240
164,256,118984,6,0,P|188:212|96:72,1,240
0,144,119255,2,0,P|-24:188|68:328,1,240
184,348,119525,2,0,L|412:276,1,240
479,158,119795,2,0,P|359:142|383:58,1,240
506,49,120065,6,0,L|202:293,1,360
128,16,120516,5,0,0:0:0:0:
208,56,120606,2,0,P|216:88|180:172,1,120
68,188,120786,1,0,0:0:0:0:
60,308,120876,1,0,0:0:0:0:
168,360,120966,1,0,0:0:0:0:
248,268,121056,1,0,0:0:0:0:
186,166,121147,5,0,0:0:0:0:
432,96,121777,2,0,L|464:288,1,180,0|0,2:0|2:0,2:0:0:0:
352,48,122858,1,0,2:0:0:0:
316,164,123219,1,0,2:0:0:0:
68,276,125020,6,0,B|108:292|188:264|256:300,1,180,0|0,2:0|2:0,2:0:0:0:
388,344,126102,1,0,2:0:0:0:
288,196,126642,2,0,P|272:144|348:44,1,180,0|0,2:0|2:0,2:0:0:0:
180,80,127633,6,0,L|92:100,1,90,0|0,2:0|2:0,2:0:0:0:
384,148,128714,2,0,L|472:128,1,90,0|0,2:0|2:0,2:0:0:0:
168,180,129975,6,0,P|138:288|192:352,2,180,0|0|0,2:0|2:0|2:0,2:0:0:0:
284,84,131687,1,0,2:0:0:0:
328,228,132047,1,0,2:0:0:0:
328,228,133849,5,0,2:0:0:0:
144,200,134390,2,0,P|116:156|120:60,1,150,0|0,2:0|2:0,2:0:0:0:
196,104,134930,2,0,P|136:128|52:124,1,150,0|0,2:0|2:0,2:0:0:0:
24,112,135471,2,0,P|48:172|16:284,1,180,0|0,2:0|2:0,2:0:0:0:
196,320,136552,1,0,2:0:0:0:
168,144,137633,1,0,2:0:0:0:
256,192,137723,12,0,142498,0:0:0:0:
360,72,142768,5,0,0:0:0:0:
401,115,142858,1,0,0:0:0:0:
442,158,142948,1,0,0:0:0:0:
408,244,143038,5,0,0:0:0:0:
349,258,143128,1,0,0:0:0:0:
291,272,143218,1,0,0:0:0:0:
208,220,143309,5,0,0:0:0:0:
224,162,143399,1,0,0:0:0:0:
241,104,143489,1,0,0:0:0:0:
282,14,143579,5,0,0:0:0:0:
296,72,143669,1,0,0:0:0:0:
310,130,143759,1,0,0:0:0:0:
324,188,143849,1,0,0:0:0:0:
460,336,144120,5,0,2:0:0:0:
460,336,144390,1,0,2:0:0:0:
460,336,144660,1,0,2:0:0:0:
336,147,144930,5,0,0:0:0:0:
279,144,145020,1,0,0:0:0:0:
238,184,145111,1,0,0:0:0:0:
304,256,145201,5,0,0:0:0:0:
380,260,145291,1,0,0:0:0:0:
434,206,145381,1,0,0:0:0:0:
364,116,145471,5,0,0:0:0:0:
265,110,145561,1,0,0:0:0:0:
198,180,145651,1,0,0:0:0:0:
277,318,145741,5,0,0:3:0:0:
364,337,145831,1,0,0:3:0:0:
445,304,145921,1,0,0:3:0:0:
497,232,146011,1,0,0:3:0:0:
172,248,146282,6,0,P|116:290|97:340,1,120,0|0,2:0|2:0,2:0:0:0:
173,344,146552,2,0,L|71:282,1,120,0|0,2:0|2:0,2:0:0:0:
45,266,146822,1,0,2:0:0:0:
56,35,147093,5,0,0:0:0:0:
30,89,147183,1,0,0:0:0:0:
5,143,147273,1,0,0:0:0:0:
172,248,147363,5,0,0:0:0:0:
177,188,147453,1,0,0:0:0:0:
183,129,147543,1,0,0:0:0:0:
328,59,147633,5,0,0:0:0:0:
343,116,147723,1,0,0:0:0:0:
359,174,147813,1,0,0:0:0:0:
368,339,147903,5,0,0:0:0:0:
311,295,147993,1,0,0:0:0:0:
273,234,148083,1,0,0:0:0:0:
261,163,148173,1,0,0:0:0:0:
448,32,148444,5,0,2:0:0:0:
448,32,148714,1,0,2:0:0:0:
448,32,148984,1,0,2:0:0:0:
188,60,149255,1,0,0:0:0:0:
116,136,149525,6,0,L|72:376,1,240
396,136,150065,2,0,L|440:376,1,240
152,28,150606,6,0,P|163:135|276:184,1,240
290,50,150876,2,0,L|98:194,1,240
164,296,151147,2,0,P|271:306|360:220,1,240
216,12,151417,5,0,0:0:0:0:
290,50,151507,1,0,0:0:0:0:
221,91,151597,1,0,0:0:0:0:
290,133,151687,1,0,0:0:0:0:
226,178,151777,1,0,0:0:0:0:
301,216,151867,1,0,0:0:0:0:
231,258,151957,1,0,0:0:0:0:
301,299,152047,1,0,0:0:0:0:
236,338,152138,1,0,0:0:0:0:
306,379,152228,5,0,0:0:0:0:
384,196,152318,1,0,0:0:0:0:
172,304,152408,1,0,0:0:0:0:
428,324,152498,1,0,0:0:0:0:
256,192,152768,12,0,155471,0:0:0:0:
