osu file format v14

[General]
AudioFilename: audio.mp3
AudioLeadIn: 0
PreviewTime: 23084
Countdown: 0
SampleSet: Normal
StackLeniency: 0.2
Mode: 0
LetterboxInBreaks: 0
WidescreenStoryboard: 1

[Editor]
DistanceSpacing: 1
BeatDivisor: 4
GridSize: 8
TimelineZoom: 1.6

[Metadata]
Title:Pisscord
TitleUnicode:Pisscord
Artist:$44,000
ArtistUnicode:$44,000
Creator:gco
Version:Gamer
Source:
Tags:Discord $44000 $44k Skype
BeatmapID:1475740
BeatmapSetID:564192

[Difficulty]
HPDrainRate:4
CircleSize:4.3
OverallDifficulty:9.6
ApproachRate:10
SliderMultiplier:1.8
SliderTickRate:1

[Events]
//Background and Video events
0,0,"maxresdefault (1).jpg",0,0
//Break Periods
//Storyboard Layer 0 (Background)
//Storyboard Layer 1 (Fail)
//Storyboard Layer 2 (Pass)
//Storyboard Layer 3 (Foreground)
//Storyboard Sound Samples

[TimingPoints]
104,240,4,1,0,61,1,0
344,-133.333333333333,4,1,0,61,0,0
5864,-100,4,1,0,61,0,0
7544,-76.9230769230769,4,1,0,61,0,0
8744,-100,4,1,0,61,0,0
16184,-83.3333333333333,4,1,0,61,0,0
18344,-100,4,1,0,61,0,0
22904,-200,4,1,0,61,0,0
23144,-83.3333333333333,4,1,0,61,0,1
29864,-66.6666666666667,4,1,0,61,0,1
30224,-55.5555555555556,4,1,0,61,0,1
30584,-66.6666666666667,4,1,0,61,0,1
30824,-83.3333333333333,4,1,0,61,0,1
36344,-125,4,1,0,61,0,1
36584,-125,4,1,0,61,0,0
36944,-100,4,1,0,61,0,0
38504,-76.9230769230769,4,1,0,61,0,1
39464,-90.9090909090909,4,1,0,61,0,1
43304,-125,4,1,0,61,0,1
43544,-100,4,1,0,61,0,1
43784,-76.9230769230769,4,1,0,61,0,1
44744,-66.6666666666667,4,1,0,61,0,1
45224,-66.6666666666667,4,1,0,61,0,1
45464,-111.111111111111,4,1,0,61,0,1
45704,-76.9230769230769,4,1,0,61,0,1
45944,-142.857142857143,4,1,0,61,0,1
46184,-76.923076923077,4,1,0,61,0,1
47384,-90.9090909090909,4,1,0,61,0,1
53864,-90.9090909090909,4,1,0,61,0,0

[Colours]
Combo1 : 236,94,172
Combo2 : 240,23,39
Combo3 : 255,255,255
Combo4 : 64,219,227

[HitObjects]
91,120,104,5,0,0:0:0:0:
90,130,224,1,0,0:0:0:0:
208,144,344,1,0,0:0:0:0:
317,167,584,5,0,0:0:0:0:
316,177,704,1,0,0:0:0:0:
285,55,824,1,0,0:0:0:0:
284,65,944,1,0,0:0:0:0:
401,78,1064,6,0,L|484:95,1,67.5000025749208,0|0,0:0|0:0,0:0:0:0:
317,167,1304,1,0,0:0:0:0:
285,55,1424,1,0,0:0:0:0:
250,251,1544,5,0,0:0:0:0:
284,65,1664,1,0,0:0:0:0:
208,144,1784,1,0,0:0:0:0:
284,65,1904,1,0,0:0:0:0:
169,32,2024,5,0,0:0:0:0:
168,42,2144,1,0,0:0:0:0:
91,120,2264,1,0,0:0:0:0:
131,234,2504,5,0,0:0:0:0:
130,244,2624,1,0,0:0:0:0:
171,348,2744,2,0,L|88:365,1,67.5000025749208,0|0,0:0|0:0,0:0:0:0:
131,234,2984,6,0,L|64:220,1,67.5000025749208,0|0,0:0|0:0,0:0:0:0:
247,257,3224,1,0,0:0:0:0:
245,267,3344,1,0,0:0:0:0:
363,280,3464,6,0,L|446:297,1,67.5000025749208,0|0,0:0|0:0,0:0:0:0:
286,369,3704,2,0,L|369:385,1,67.5000025749208,0|0,0:0|0:0,0:0:0:0:
171,348,3944,5,0,0:0:0:0:
170,358,4064,1,0,0:0:0:0:
131,234,4184,1,0,0:0:0:0:
169,32,4424,5,0,0:0:0:0:
168,42,4544,1,0,0:0:0:0:
208,144,4664,1,0,0:0:0:0:
207,154,4784,1,0,0:0:0:0:
171,348,4904,6,0,L|104:334,1,67.5000025749208,0|0,0:0|0:0,0:0:0:0:
12,219,5144,1,0,0:0:0:0:
131,234,5264,1,0,0:0:0:0:
90,130,5384,5,0,0:0:0:0:
208,144,5504,1,0,0:0:0:0:
91,120,5624,1,0,0:0:0:0:
207,154,5744,1,0,0:0:0:0:
63,34,5864,6,0,L|96:137,3,90
293,151,6344,2,0,P|244:142|191:165,3,90,0|0|0|0,0:0|0:0|0:0|0:0,0:0:0:0:
270,309,6824,2,0,L|254:219,1,90,0|0,0:0|0:0,0:0:0:0:
370,66,7064,2,0,L|386:156,1,90,0|0,0:0|0:0,0:0:0:0:
321,352,7304,2,0,P|334:304|277:345,1,135,0|0,0:0|0:0,0:0:0:0:
192,379,7544,6,0,B|199:353|199:353|181:326|180:289|195:253|225:247|225:247|211:261|206:275,1,175.499991966248,0|0,0:0|0:0,0:0:0:0:
231,96,7784,6,0,B|175:116|175:116|173:111|173:111|88:152|60:124|60:124|104:132|134:108,1,233.999989288331,4|0,0:0|0:0,0:0:0:0:
76,45,8144,1,0,0:0:0:0:
231,96,8264,1,0,0:0:0:0:
12,220,8384,1,0,0:0:0:0:
164,180,8504,1,0,0:0:0:0:
101,261,8624,1,0,0:0:0:0:
164,154,8744,6,0,P|137:122|136:69,1,90,0|0,0:0|0:0,0:0:0:0:
244,144,8984,1,0,0:0:0:0:
322,78,9104,2,0,P|345:120|344:166,1,90,0|0,0:0|0:0,0:0:0:0:
258,235,9344,5,0,0:0:0:0:
35,100,9464,1,0,0:0:0:0:
234,58,9584,1,0,0:0:0:0:
47,116,9704,5,0,0:0:0:0:
242,74,9824,1,0,0:0:0:0:
74,237,9944,1,0,0:0:0:0:
167,161,10064,1,0,0:0:0:0:
137,313,10184,5,0,0:0:0:0:
165,143,10304,1,0,0:0:0:0:
268,249,10424,1,0,0:0:0:0:
331,67,10544,2,0,P|380:16|475:63,1,180,0|0,0:0|0:0,0:0:0:0:
401,218,10904,5,0,0:0:0:0:
170,46,11024,1,0,0:0:0:0:
404,105,11144,1,0,0:0:0:0:
198,222,11264,1,0,0:0:0:0:
275,168,11384,5,0,0:0:0:0:
293,354,11504,2,0,P|247:351|211:312,1,90,0|0,0:0|0:0,0:0:0:0:
198,222,11744,1,0,0:0:0:0:
267,75,11864,1,0,0:0:0:0:
284,261,11984,1,0,0:0:0:0:
430,172,12104,5,0,0:0:0:0:
195,234,12224,1,0,0:0:0:0:
421,91,12344,1,0,0:0:0:0:
275,168,12464,1,0,0:0:0:0:
502,206,12584,6,0,P|510:142|408:94,1,180,0|0,0:0|0:0,0:0:0:0:
195,234,12944,2,0,P|236:268|285:273,1,90,0|0,0:0|0:0,0:0:0:0:
359,154,13184,5,0,0:0:0:0:
129,88,13304,1,0,0:0:0:0:
195,234,13424,1,0,0:0:0:0:
191,43,13544,6,0,P|108:11|54:82,1,180,0|0,0:0|0:0,0:0:0:0:
445,179,13904,2,0,P|445:128|424:93,1,90,0|0,0:0|0:0,0:0:0:0:
340,69,14144,1,0,0:0:0:0:
359,154,14264,1,0,0:0:0:0:
403,11,14384,1,0,0:0:0:0:
263,180,14504,5,0,0:0:0:0:
440,179,14624,1,0,0:0:0:0:
258,176,14744,1,0,0:0:0:0:
456,265,14864,1,0,0:0:0:0:
256,103,14984,5,0,0:0:0:0:
264,260,15104,1,0,0:0:0:0:
251,99,15224,1,0,0:0:0:0:
133,226,15344,1,0,0:0:0:0:
190,43,15464,6,0,P|230:23|275:24,1,90,4|0,0:0|0:0,0:0:0:0:
181,299,15704,2,0,P|138:314|94:307,1,90,0|0,0:0|0:0,0:0:0:0:
190,31,15944,2,0,P|229:10|274:14,1,90,0|0,0:0|0:0,0:0:0:0:
338,340,16184,2,0,P|293:371|232:367,1,107.999996704102,0|0,0:0|0:0,0:0:0:0:
270,270,16424,6,0,B|258:237|229:219|229:219|303:163|350:77|350:77|370:109|408:125,1,323.999990112305,0|0,0:0|0:0,0:0:0:0:
501,102,16904,2,0,P|496:161|462:199,1,107.999996704102,0|0,0:0|0:0,0:0:0:0:
32,118,17144,2,0,P|37:59|71:21,1,107.999996704102,0|0,0:0|0:0,0:0:0:0:
465,196,17384,6,0,L|586:216,1,107.999996704102,0|0,0:0|0:0,0:0:0:0:
46,196,17624,2,0,L|-74:216,1,107.999996704102,0|0,0:0|0:0,0:0:0:0:
446,302,17864,2,0,L|466:184,1,107.999996704102,0|0,0:0|0:0,0:0:0:0:
64,302,18104,2,0,L|44:184,1,107.999996704102,0|0,0:0|0:0,0:0:0:0:
256,187,18344,6,0,P|306:212|326:258,1,90,0|0,0:0|0:0,0:0:0:0:
140,278,18584,2,0,L|128:174,1,90,0|0,0:0|0:0,0:0:0:0:
475,106,18824,2,0,L|465:196,1,90,0|0,0:0|0:0,0:0:0:0:
155,72,19064,2,0,P|199:48|254:48,1,90,0|0,0:0|0:0,0:0:0:0:
439,210,19304,5,0,0:0:0:0:
366,126,19424,1,0,0:0:0:0:
478,109,19544,1,0,0:0:0:0:
439,210,19664,1,0,0:0:0:0:
404,28,19784,5,0,0:0:0:0:
366,126,19904,1,0,0:0:0:0:
300,44,20024,1,0,0:0:0:0:
404,28,20144,1,0,0:0:0:0:
259,150,20264,5,0,0:0:0:0:
366,126,20384,1,0,0:0:0:0:
331,226,20504,1,0,0:0:0:0:
259,150,20624,1,0,0:0:0:0:
478,109,20744,5,0,0:0:0:0:
154,173,20864,1,0,0:0:0:0:
421,192,20984,5,0,0:0:0:0:
146,185,21104,1,0,0:0:0:0:
366,126,21224,5,0,0:0:0:0:
282,136,21344,1,0,0:0:0:0:
335,207,21464,1,0,0:0:0:0:
246,219,21584,1,0,0:0:0:0:
116,317,21704,5,0,0:0:0:0:
157,232,21824,1,0,0:0:0:0:
212,309,21944,1,0,0:0:0:0:
245,220,22064,1,0,0:0:0:0:
338,206,22184,5,0,0:0:0:0:
235,63,22304,1,0,0:0:0:0:
302,290,22424,1,0,0:0:0:0:
196,146,22544,1,0,0:0:0:0:
338,206,22664,1,0,0:0:0:0:
157,232,22784,1,0,0:0:0:0:
128,102,22904,6,0,L|106:63,1,45,0|0,0:0|0:0,0:0:0:0:
235,63,23144,2,0,B|302:57|302:57|386:19,1,107.999996704102,4|0,0:0|0:0,0:0:0:0:
128,102,23384,2,0,B|61:108|61:108|-23:146,1,107.999996704102,4|0,0:0|0:0,0:0:0:0:
259,217,23624,5,0,0:0:0:0:
282,20,23744,1,0,0:0:0:0:
253,223,23864,5,0,0:0:0:0:
422,104,23984,1,0,0:0:0:0:
169,192,24104,5,0,0:0:0:0:
439,220,24224,1,0,0:0:0:0:
83,161,24344,5,0,0:0:0:0:
457,334,24464,1,0,0:0:0:0:
161,55,24584,6,0,P|169:82|164:108,1,53.9999983520508,0|0,0:0|0:0,0:0:0:0:
239,139,24704,2,0,P|237:167|229:192,1,53.9999983520508,0|0,0:0|0:0,0:0:0:0:
303,241,24824,2,0,P|293:267|280:289,1,53.9999983520508,0|0,0:0|0:0,0:0:0:0:
318,365,24944,2,0,P|300:387|280:403,1,53.9999983520508,0|0,0:0|0:0,0:0:0:0:
162,337,25064,5,0,0:0:0:0:
457,334,25184,1,0,0:0:0:0:
169,192,25304,5,0,0:0:0:0:
398,384,25424,1,0,0:0:0:0:
296,95,25544,5,0,0:0:0:0:
318,365,25664,1,0,0:0:0:0:
434,147,25784,5,0,0:0:0:0:
235,372,25904,1,0,0:0:0:0:
457,334,26024,5,0,0:0:0:0:
51,283,26144,1,0,0:0:0:0:
321,12,26264,5,0,0:0:0:0:
380,309,26384,1,0,0:0:0:0:
41,205,26504,6,0,P|68:205|95:216,1,53.9999983520508,0|0,0:0|0:0,0:0:0:0:
168,159,26624,2,0,P|193:168|215:186,1,53.9999983520508,0|0,0:0|0:0,0:0:0:0:
318,130,26744,2,0,P|339:147|354:171,1,53.9999983520508,0|0,0:0|0:0,0:0:0:0:
486,174,26864,2,0,P|500:198|506:226,1,53.9999983520508,0|0,0:0|0:0,0:0:0:0:
324,364,26984,6,0,P|321:301|287:256,1,107.999996704102,0|0,0:0|0:0,0:0:0:0:
62,126,27224,2,0,P|21:167|11:232,1,107.999996704102,0|0,0:0|0:0,0:0:0:0:
118,348,27464,6,0,L|249:337,1,107.999996704102,0|0,0:0|0:0,0:0:0:0:
225,207,27704,2,0,L|94:218,1,107.999996704102,0|0,0:0|0:0,0:0:0:0:
62,126,27944,5,0,0:0:0:0:
309,129,28064,1,0,0:0:0:0:
118,217,28184,1,0,0:0:0:0:
302,209,28304,1,0,0:0:0:0:
204,294,28424,6,0,P|206:229|224:175,1,107.999996704102,0|0,0:0|0:0,0:0:0:0:
231,185,28664,1,0,0:0:0:0:
16,190,28904,5,0,0:0:0:0:
349,37,29024,1,0,0:0:0:0:
62,126,29144,5,0,0:0:0:0:
447,131,29264,1,0,0:0:0:0:
108,62,29384,5,0,0:0:0:0:
387,263,29504,1,0,0:0:0:0:
153,0,29624,5,0,0:0:0:0:
249,238,29744,1,0,0:0:0:0:
83,270,29864,6,0,P|123:162|18:218,1,270.000010299683,0|0,0:0|0:0,0:0:0:0:
21,186,30224,2,0,B|32:165|20:116|20:116|6:70|-21:36|-3:-9|19:-63|96:-25|124:11|90:26,1,323.999990112305,0|0,0:0|0:0,0:0:0:0:
56,117,30584,2,0,B|111:134|103:102|103:102|65:107|36:81,1,135.000005149842,0|0,0:0|0:0,0:0:0:0:
106,199,30824,6,0,P|152:182|181:112,1,107.999996704102,4|0,0:0|0:0,0:0:0:0:
0,1,31064,2,0,P|61:-6|92:30,1,107.999996704102,0|0,0:0|0:0,0:0:0:0:
56,117,31304,5,0,0:0:0:0:
90,27,31544,1,0,0:3:0:0:
85,42,31604,1,0,0:3:0:0:
80,57,31664,1,0,0:3:0:0:
75,72,31724,1,0,0:3:0:0:
56,117,31784,5,0,0:3:0:0:
395,108,32024,1,0,0:3:0:0:
58,131,32144,1,0,0:3:0:0:
346,213,32264,1,0,0:3:0:0:
22,249,32504,1,0,0:3:0:0:
355,210,32744,1,0,0:3:0:0:
239,33,32984,5,0,0:0:0:0:
255,326,33104,1,0,0:0:0:0:
396,74,33224,2,0,P|370:32|322:-1,1,107.999996704102,0|0,0:0|0:0,0:0:0:0:
58,25,33464,1,0,0:0:0:0:
355,210,33584,1,0,0:0:0:0:
239,33,33704,5,0,0:0:0:0:
259,318,33824,1,0,0:0:0:0:
323,0,33944,1,0,0:0:0:0:
255,326,34184,5,0,0:0:0:0:
235,41,34304,1,0,0:0:0:0:
179,371,34424,1,0,0:0:0:0:
123,52,34664,6,0,P|186:47|244:52,1,107.999996704102,0|0,0:0|0:0,0:0:0:0:
359,333,34904,2,0,P|305:337|251:334,1,107.999996704102,0|0,0:0|0:0,0:0:0:0:
139,246,35144,1,0,0:0:0:0:
148,251,35384,5,0,0:0:0:0:
123,52,35504,1,0,0:0:0:0:
232,220,35624,5,0,0:0:0:0:
376,25,35744,1,0,0:0:0:0:
261,303,35864,1,0,0:0:0:0:
415,247,35984,1,0,0:0:0:0:
289,384,36104,2,0,P|238:390|195:356,1,107.999996704102,0|0,0:0|0:0,0:0:0:0:
262,154,36344,2,0,L|230:218,1,72,0|0,0:0|0:0,0:0:0:0:
235,224,36584,5,0,0:0:0:0:
299,80,36824,1,0,0:0:0:0:
32,231,36944,2,0,P|71:259|118:265,1,90,0|0,0:0|0:0,0:0:0:0:
271,149,37184,1,0,0:0:0:0:
102,179,37304,1,0,0:0:0:0:
307,74,37424,1,0,0:0:0:0:
22,145,37544,6,0,P|95:94|178:134,1,180,0|0,0:0|0:0,0:0:0:0:
235,224,37904,1,0,0:0:0:0:
102,179,38024,2,0,B|91:41|91:41|100:63|115:74,1,180,0|0,0:0|0:0,0:0:0:0:
393,21,38504,6,0,P|342:57|256:21,1,116.999994644165,4|0,0:0|0:0,0:0:0:0:
161,15,38744,1,0,0:0:0:0:
434,108,38984,2,0,P|474:9|386:33,1,233.999989288331,0|0,0:0|0:0,0:0:0:0:
397,35,39344,1,0,0:0:0:0:
189,83,39464,6,0,P|247:99|273:131,1,99.0000030212403,0|0,0:0|0:0,0:0:0:0:
57,324,39704,2,0,P|14:281|8:240,1,99.0000030212403,0|0,0:0|0:0,0:0:0:0:
340,82,39944,6,0,P|355:140|340:178,1,99.0000030212403,0|0,0:0|0:0,0:0:0:0:
8,244,40184,2,0,P|24:186|56:159,1,99.0000030212403,0|0,0:0|0:0,0:0:0:0:
379,252,40424,5,0,0:0:0:0:
188,82,40544,1,0,0:0:0:0:
471,142,40664,1,0,0:0:0:0:
340,82,40784,1,0,0:0:0:0:
441,60,40904,6,0,B|526:55|526:55|508:68,1,99.0000030212403,0|0,0:0|0:0,0:0:0:0:
188,82,41144,2,0,B|103:77|103:77|121:90,1,99.0000030212403,0|0,0:0|0:0,0:0:0:0:
7,244,41384,6,0,P|20:291|56:323,1,99.0000030212403,0|0,0:0|0:0,0:0:0:0:
271,127,41624,2,0,P|236:92|189:82,1,99.0000030212403,0|0,0:0|0:0,0:0:0:0:
52,161,41864,6,0,P|17:196|8:244,1,99.0000030212403,0|0,0:0|0:0,0:0:0:0:
342,175,42105,2,0,P|355:128|340:82,1,99.0000030212403,0|0,0:0|0:0,0:0:0:0:
95,85,42344,6,0,P|47:72|1:87,1,99.0000030212403,0|0,0:0|0:0,0:0:0:0:
298,246,42584,2,0,P|345:259|391:244,1,99.0000030212403,0|0,0:0|0:0,0:0:0:0:
407,3,42824,6,0,B|418:-5|418:-5|333:0,1,99.0000030212403,0|0,0:0|0:0,0:0:0:0:
226,4,43064,1,0,0:0:0:0:
295,317,43304,6,0,P|301:277|296:239,1,72,0|0,0:0|0:0,0:0:0:0:
218,273,43544,2,0,P|215:217|238:175,1,90,0|0,0:0|0:0,0:0:0:0:
312,123,43784,6,0,P|330:178|320:235,1,116.999994644165,0|0,0:0|0:0,0:0:0:0:
246,51,44024,2,0,P|296:78|330:127,1,116.999994644165,0|0,0:0|0:0,0:0:0:0:
65,192,44264,6,0,B|108:129|176:107|233:105|265:137|295:170|285:243|238:240|204:257|158:246|175:187|203:193,1,350.999983932496,0|0,0:0|0:0,0:0:0:0:
150,44,44744,6,0,P|308:95|245:327,1,405.000015449525,0|0,0:0|0:0,0:0:0:0:
187,224,45224,6,0,P|131:188|65:192,1,135.000005149842,0|0,0:0|0:0,0:0:0:0:
43,346,45464,2,0,P|65:309|109:287,1,80.9999975280763,0|0,0:0|0:0,0:0:0:0:
272,304,45704,6,0,P|296:248|290:181,1,116.999994644165,0|0,0:0|0:0,0:0:0:0:
137,191,45944,2,0,P|170:206|196:235,1,62.9999980773926,0|0,0:0|0:0,0:0:0:0:
417,372,46184,6,0,B|425:316|421:278|421:278|413:302|400:322,1,116.999994644165,4|0,0:0|0:0,0:0:0:0:
401,148,46424,1,0,0:0:0:0:
36,143,46664,6,0,P|88:92|241:145,1,233.999989288331,0|0,0:0|0:0,0:0:0:0:
232,144,47024,1,0,0:0:0:0:
80,258,47144,5,0,0:0:0:0:
160,49,47264,1,0,0:0:0:0:
166,285,47384,2,0,P|117:287|70:237,1,99.0000030212403,0|0,0:0|0:0,0:0:0:0:
36,143,47624,5,0,0:0:0:0:
325,169,47744,1,0,0:0:0:0:
0,235,47864,2,0,L|41:129,1,99.0000030212403,0|0,0:0|0:0,0:0:0:0:
160,49,48104,5,0,0:0:0:0:
80,258,48224,1,0,0:0:0:0:
74,25,48344,2,0,P|129:21|164:58,1,99.0000030212403,0|0,0:0|0:0,0:0:0:0:
35,142,48584,5,0,0:0:0:0:
278,55,48704,1,0,0:0:0:0:
0,235,48824,2,0,L|41:129,1,99.0000030212403,0|0,0:0|0:0,0:0:0:0:
159,48,49064,5,0,0:0:0:0:
210,300,49184,1,0,0:0:0:0:
167,58,49304,1,0,0:0:0:0:
140,229,49424,1,0,0:0:0:0:
310,141,49544,5,0,0:0:0:0:
46,117,49664,1,0,0:0:0:0:
301,152,49784,1,0,0:0:0:0:
140,229,49904,1,0,0:0:0:0:
218,0,50024,6,0,P|268:-27|320:-17,1,99.0000030212403,0|0,0:0|0:0,0:0:0:0:
379,314,50264,2,0,P|329:341|277:331,1,99.0000030212403,0|0,0:0|0:0,0:0:0:0:
53,103,50504,2,0,B|88:84|88:84|155:95,1,99.0000030212403,0|0,0:0|0:0,0:0:0:0:
347,149,50744,1,0,0:0:0:0:
206,365,50984,6,0,P|204:316|231:275,1,99.0000030212403,0|0,0:0|0:0,0:0:0:0:
429,128,51224,2,0,P|431:177|404:218,1,99.0000030212403,0|0,0:0|0:0,0:0:0:0:
128,71,51464,6,0,B|170:62|170:62|229:92,1,99.0000030212403,0|0,0:0|0:0,0:0:0:0:
33,199,51704,2,0,P|46:147|53:99,1,99.0000030212403,0|0,0:0|0:0,0:0:0:0:
102,0,51944,6,0,B|179:-17|179:-17|288:35,2,198.000006042481,0|0|0,0:0|0:0|0:0,0:0:0:0:
256,192,52484,12,0,53864,0:0:0:0:
