osu file format v14

[General]
AudioFilename: audio.mp3
AudioLeadIn: 0
PreviewTime: -1
Countdown: 1
SampleSet: None
StackLeniency: 0.7
Mode: 0
LetterboxInBreaks: 0
WidescreenStoryboard: 0

[Editor]
DistanceSpacing: 1.3
BeatDivisor: 8
GridSize: 4
TimelineZoom: 1.8

[Metadata]
Title:Dagestanskie Moskvichi
TitleUnicode:Dagestanskie Moskvichi
Artist:#AVG
ArtistUnicode:#AVG
Creator:qwr
Version:xd
Source:
Tags:
BeatmapID:1317597
BeatmapSetID:625255

[Difficulty]
HPDrainRate:5
CircleSize:5
OverallDifficulty:8
ApproachRate:9
SliderMultiplier:2
SliderTickRate:1

[Events]
//Background and Video events
0,0,"GS5mY6x.jpg",0,0
//Break Periods
2,12868,25068
//Storyboard Layer 0 (Background)
//Storyboard Layer 1 (Fail)
//Storyboard Layer 2 (Pass)
//Storyboard Layer 3 (Foreground)
//Storyboard Sound Samples

[TimingPoints]
68,400,4,1,0,50,1,0
6468,-133.333333333333,4,1,0,50,0,0
9668,-100,4,1,0,50,0,0
32068,-133.333333333333,4,1,0,50,0,0
35268,-100,4,1,0,50,0,0
44868,-133.333333333333,4,1,0,50,0,0
48068,-100,4,1,0,50,0,0

[HitObjects]
56,140,68,6,0,P|108:256|180:240,1,200
436,136,668,2,0,P|384:120|332:132,1,100
32,192,1268,1,0,0:0:0:0:
284,268,1668,2,0,P|336:272|388:288,1,100
256,336,2068,2,0,P|209:338|157:350,1,100
376,224,2868,5,0,0:0:0:0:
332,292,3068,1,0,0:0:0:0:
256,320,3268,2,0,P|192:292|184:256,1,100
144,188,3668,2,0,P|200:180|244:200,1,100
252,280,4068,1,0,0:0:0:0:
464,264,4468,5,0,0:0:0:0:
412,176,4668,1,0,0:0:0:0:
376,164,4768,1,0,0:0:0:0:
340,152,4868,1,0,0:0:0:0:
108,64,5468,6,0,L|64:88,1,50
88,124,5668,2,0,P|88:152|108:176,1,50
172,256,5868,6,0,L|188:284,2,25
104,232,6068,2,0,L|76:236,2,25
160,188,6268,2,0,L|172:164,2,25
116,304,6468,6,0,P|164:364|256:340,1,150.000005722046
420,144,7068,2,0,P|384:72|288:56,1,150.000005722046
160,184,7668,2,0,P|112:196|80:176,1,75.0000028610231
328,304,8068,6,0,P|380:296|412:308,1,75.0000028610231
360,100,8468,1,0,0:0:0:0:
112,240,8668,2,0,P|112:292|128:320,1,75.0000028610231
248,336,9068,1,0,0:0:0:0:
220,100,9268,2,0,P|180:56|152:52,1,75.0000028610231
48,160,9668,5,0,0:0:0:0:
96,276,9868,1,0,0:0:0:0:
200,312,10068,6,0,L|192:348,2,25
240,304,10268,2,0,L|248:336,2,25
272,284,10468,1,0,0:0:0:0:
292,128,10668,1,0,0:0:0:0:
372,164,10868,6,0,L|400:160,2,25
240,196,11068,2,0,L|200:208,2,25
352,236,11268,5,0,0:0:0:0:
272,124,11468,1,0,0:0:0:0:
264,228,11668,1,0,0:0:0:0:
360,140,11868,1,0,0:0:0:0:
220,108,12068,6,0,L|216:80,2,25
252,292,12268,1,0,0:0:0:0:
48,264,12468,1,0,0:0:0:0:
172,200,12668,1,0,0:0:0:0:
384,96,25668,6,0,B|240:120|240:120|208:180,1,200
256,344,26268,1,0,0:0:0:0:
408,252,26468,2,0,B|356:232|356:232|312:236,1,100
176,80,26868,1,0,0:0:0:0:
152,280,27268,6,0,P|104:296|52:280,1,100
120,184,27668,2,0,P|168:168|220:184,1,100
368,352,28468,5,0,0:0:0:0:
380,268,28668,1,0,0:0:0:0:
392,184,28868,2,0,B|344:160|344:160|276:156,1,100
164,68,29268,2,0,L|148:172,1,100
204,220,29668,1,0,0:0:0:0:
432,204,30068,5,0,0:0:0:0:
388,92,30268,1,0,0:0:0:0:
356,83,30368,1,0,0:0:0:0:
325,75,30468,1,0,0:0:0:0:
184,52,31068,6,0,P|116:56|72:76,1,100
104,148,31468,2,0,L|68:156,2,25
112,212,31668,2,0,L|76:220,2,25
116,276,31868,2,0,L|80:284,2,25
152,376,32068,6,0,P|204:312|204:240,1,150.000005722046
200,24,32668,2,0,P|230:91|294:126,1,150.000005722046
384,248,33268,2,0,P|348:286|342:325,1,75.0000028610231
168,244,33668,6,0,L|12:224,1,150.000005722046
276,192,34268,2,0,L|432:172,1,150.000005722046
164,144,34868,2,0,L|84:124,1,75.0000028610231
236,28,35268,5,0,0:0:0:0:
256,244,35468,1,0,0:0:0:0:
368,164,35668,6,0,L|396:180,2,25
392,132,35868,2,0,L|423:140,2,25
388,100,36068,1,0,0:0:0:0:
268,64,36268,1,0,0:0:0:0:
320,172,36468,6,0,L|316:216,2,25
328,48,36668,2,0,L|332:4,2,25
328,116,36868,5,0,0:0:0:0:
328,116,36968,1,0,0:0:0:0:
328,116,37068,1,0,0:0:0:0:
236,100,37268,1,0,0:0:0:0:
416,124,37468,2,0,L|448:128,2,25
416,152,37668,5,0,0:0:0:0:
416,152,37768,1,0,0:0:0:0:
416,152,37868,1,0,0:0:0:0:
304,140,38068,1,0,0:0:0:0:
216,72,38268,1,0,0:0:0:0:
120,4,38468,6,0,P|96:120|28:172,1,200
112,304,39068,2,0,P|169:274|221:276,1,100
444,360,39668,1,0,0:0:0:0:
392,184,40068,6,0,L|376:68,1,100
282,144,40468,2,0,L|296:244,1,100
164,280,41268,5,0,0:0:0:0:
84,280,41468,1,0,0:0:0:0:
12,244,41668,2,0,P|28:176|68:148,1,100
76,56,42068,2,0,P|126:103|131:152,1,100
116,216,42468,1,0,0:0:0:0:
244,264,42868,5,0,0:0:0:0:
340,288,43068,1,0,0:0:0:0:
364,296,43168,1,0,0:0:0:0:
388,304,43268,1,0,0:0:0:0:
452,204,43868,6,0,L|460:152,1,50
480,132,44068,2,0,P|464:88|448:80,1,50
360,124,44268,2,0,L|324:132,2,25
264,144,44468,2,0,L|228:152,2,25
164,164,44668,2,0,L|128:172,2,25
68,232,44868,6,0,P|125:295|186:304,1,150.000005722046
276,384,45468,2,0,L|296:228,1,150.000005722046
432,144,46068,2,0,P|400:112|368:108,1,75.0000028610231
248,200,46468,6,0,P|192:208|172:200,1,75.0000028610231
100,136,46868,1,0,0:0:0:0:
232,280,47068,2,0,P|288:288|308:280,1,75.0000028610231
380,216,47468,1,0,0:0:0:0:
168,352,47668,2,0,P|128:332|116:304,1,75.0000028610231
48,228,48068,5,0,0:0:0:0:
72,140,48268,1,0,0:0:0:0:
96,48,48468,6,0,L|104:24,2,25
72,64,48668,2,0,L|48:56,2,25
84,88,48868,2,0,L|112:100,1,25
384,112,49268,6,0,L|407:101,2,25
180,128,49468,2,0,L|156:117,2,25
340,192,49668,1,0,0:0:0:0:
340,192,49768,1,0,0:0:0:0:
340,192,49868,1,0,0:0:0:0:
228,244,50068,1,0,0:0:0:0:
248,136,50268,1,0,0:0:0:0:
336,64,50468,6,0,L|361:61,2,25
320,76,50668,1,0,0:0:0:0:
224,100,50868,1,0,0:0:0:0:
120,128,51068,1,0,0:0:0:0:
