osu file format v14

[General]
AudioFilename: audio.mp3
AudioLeadIn: 0
PreviewTime: -1
Countdown: 1
SampleSet: Normal
StackLeniency: 0.7
Mode: 0
LetterboxInBreaks: 0
WidescreenStoryboard: 1

[Editor]
DistanceSpacing: 1
BeatDivisor: 4
GridSize: 4
TimelineZoom: 1

[Metadata]
Title:The Loud House | Extended Official Opening Theme Song | Nick
TitleUnicode:The Loud House | Extended Official Opening Theme Song | Nick
Artist:???
ArtistUnicode:???
Creator:MrDamix
Version:Hi
Source:
Tags:
BeatmapID:1473174
BeatmapSetID:695228

[Difficulty]
HPDrainRate:7
CircleSize:4
OverallDifficulty:6
ApproachRate:9
SliderMultiplier:2.2
SliderTickRate:1

[Events]
//Background and Video events
0,0,"Loud.jpg",0,0
//Break Periods
//Storyboard Layer 0 (Background)
//Storyboard Layer 1 (Fail)
//Storyboard Layer 2 (Pass)
//Storyboard Layer 3 (Foreground)
//Storyboard Sound Samples

[TimingPoints]
290,338.983050847458,4,1,0,100,1,0
19273,-66.6666666666667,4,1,0,100,0,0
27408,-100,4,1,0,100,0,0
30120,-133.333333333333,4,1,0,100,0,0

[HitObjects]
368,120,290,5,0,0:0:0:0:
368,120,374,1,0,0:0:0:0:
368,120,459,1,0,0:0:0:0:
108,272,628,5,0,0:0:0:0:
108,272,713,1,0,0:0:0:0:
108,272,798,1,0,0:0:0:0:
196,40,967,5,0,0:0:0:0:
196,40,1052,1,0,0:0:0:0:
196,40,1137,1,0,0:0:0:0:
328,288,1306,5,0,0:0:0:0:
328,288,1391,1,0,0:0:0:0:
328,288,1476,1,0,0:0:0:0:
280,328,1645,5,0,0:0:0:0:
140,288,1984,1,0,0:0:0:0:
188,72,2154,1,0,0:0:0:0:
436,144,2323,2,0,P|464:236|376:304,1,220
288,328,3001,5,0,0:0:0:0:
76,168,3171,1,0,0:0:0:0:
76,168,3340,1,0,0:0:0:0:
164,64,3510,1,0,0:0:0:0:
232,312,3679,1,0,0:0:0:0:
380,100,3849,1,0,0:0:0:0:
380,100,4018,1,0,0:0:0:0:
380,100,4188,1,0,0:0:0:0:
224,212,4357,6,0,P|228:296|72:332,1,220
80,200,4866,1,0,0:0:0:0:
176,84,5035,1,0,0:0:0:0:
176,84,5374,1,0,0:0:0:0:
352,320,5713,5,0,0:0:0:0:
224,120,6052,1,0,0:0:0:0:
84,360,6391,1,0,0:0:0:0:
108,84,6730,1,0,0:0:0:0:
364,152,7069,5,0,0:0:0:0:
300,104,7239,1,0,0:0:0:0:
40,224,7408,1,0,0:0:0:0:
116,280,7578,1,0,0:0:0:0:
172,44,7747,1,0,0:0:0:0:
196,160,7917,1,0,0:0:0:0:
112,116,8086,1,0,0:0:0:0:
392,136,8425,5,0,0:0:0:0:
224,52,8595,1,0,0:0:0:0:
316,288,8764,1,0,0:0:0:0:
160,208,8934,1,0,0:0:0:0:
144,64,9103,1,0,0:0:0:0:
272,116,9273,1,0,0:0:0:0:
152,188,9442,1,0,0:0:0:0:
320,236,9781,6,0,P|308:296|268:332,1,110
236,244,10120,2,0,P|192:204|168:140,1,110
248,100,10459,1,0,0:0:0:0:
248,100,10628,1,0,0:0:0:0:
68,204,10798,1,0,0:0:0:0:
192,232,11137,1,0,0:0:0:0:
304,284,11476,6,0,B|364:288|364:288|416:220,1,110
224,72,11815,2,0,B|160:64|160:64|128:16,1,110
52,244,12154,2,0,B|76:304|76:304|132:300,1,110
144,44,12493,5,0,0:0:0:0:
144,44,12662,1,0,0:0:0:0:
196,248,12832,1,0,0:0:0:0:
276,296,13001,1,0,0:0:0:0:
456,96,13171,1,0,0:0:0:0:
376,52,13340,1,0,0:0:0:0:
216,168,13510,1,0,0:0:0:0:
100,160,13849,5,0,0:0:0:0:
48,248,14018,1,0,0:0:0:0:
160,248,14188,1,0,0:0:0:0:
332,88,14357,1,0,0:0:0:0:
416,144,14527,1,0,0:0:0:0:
312,184,14696,1,0,0:0:0:0:
288,316,14866,1,0,0:0:0:0:
184,332,15205,6,0,P|156:260|176:216,1,110
88,180,15544,2,0,P|168:148|236:164,1,110
264,236,15883,1,0,0:0:0:0:
420,296,16052,1,0,0:0:0:0:
472,152,16222,1,0,0:0:0:0:
288,84,16561,5,0,0:0:0:0:
224,52,16900,1,0,0:0:0:0:
68,96,17069,1,0,0:0:0:0:
40,236,17239,1,0,0:0:0:0:
320,204,17408,1,0,0:0:0:0:
216,344,17578,1,0,0:0:0:0:
32,364,17747,1,0,0:0:0:0:
320,280,17917,5,0,0:0:0:0:
336,264,18001,1,0,0:0:0:0:
348,244,18086,1,0,0:0:0:0:
360,224,18171,1,0,0:0:0:0:
368,204,18256,1,0,0:0:0:0:
376,184,18340,1,0,0:0:0:0:
380,164,18425,1,0,0:0:0:0:
376,144,18510,1,0,0:0:0:0:
364,124,18595,1,0,0:0:0:0:
344,100,18679,5,0,0:0:0:0:
300,76,18764,1,0,0:0:0:0:
252,76,18849,1,0,0:0:0:0:
216,112,18934,1,0,0:0:0:0:
224,160,19018,1,0,0:0:0:0:
244,204,19103,1,0,0:0:0:0:
236,248,19188,1,0,0:0:0:0:
212,276,19273,6,0,P|160:308|60:128,1,330.000012588501
487,191,19781,1,0,0:0:0:0:
335,343,19951,1,0,0:0:0:0:
184,191,20120,1,0,0:0:0:0:
344,44,20290,1,0,0:0:0:0:
144,280,20459,1,0,0:0:0:0:
248,88,20628,6,0,B|400:200|400:200|384:304|384:304|312:352,1,330.000012588501
96,60,21137,1,0,0:0:0:0:
172,328,21306,1,0,0:0:0:0:
456,40,21476,1,0,0:0:0:0:
172,244,21645,1,0,0:0:0:0:
408,328,21815,1,0,0:0:0:0:
376,68,21984,6,0,L|432:168,1,82.5000031471254
192,288,22323,2,0,L|196:152,1,82.5000031471254
156,68,22662,1,0,0:0:0:0:
296,276,22832,1,0,0:0:0:0:
440,108,23001,1,0,0:0:0:0:
208,108,23340,5,0,0:0:0:0:
136,311,23510,5,0,0:0:0:0:
376,72,23679,1,0,0:0:0:0:
392,156,23849,1,0,0:0:0:0:
64,296,24018,1,0,0:0:0:0:
76,112,24188,1,0,0:0:0:0:
456,312,24357,1,0,0:0:0:0:
384,48,24696,6,0,B|448:132|448:132|340:160|340:160|268:184|268:184|312:200,1,330.000012588501
316,296,25204,1,0,0:0:0:0:
316,296,25289,1,0,0:0:0:0:
316,296,25374,1,0,0:0:0:0:
48,208,25544,1,0,0:0:0:0:
192,68,25713,1,0,0:0:0:0:
264,312,25883,1,0,0:0:0:0:
88,64,26052,6,0,B|256:152|256:152|132:176|132:176|196:200,1,330.000012588501
228,276,26561,1,0,0:0:0:0:
228,276,26645,1,0,0:0:0:0:
228,276,26730,1,0,0:0:0:0:
444,84,26900,1,0,0:0:0:0:
416,216,27069,1,0,0:0:0:0:
416,216,27239,1,0,0:0:0:0:
264,56,27408,6,0,L|356:160,2,110
216,136,27917,1,0,0:0:0:0:
256,224,28086,2,0,L|140:244,2,110
376,96,28764,5,0,0:0:0:0:
376,96,28934,1,0,0:0:0:0:
152,200,29103,1,0,0:0:0:0:
152,200,29273,1,0,0:0:0:0:
376,288,29442,1,0,0:0:0:0:
376,288,29612,1,0,0:0:0:0:
212,104,29781,1,0,0:0:0:0:
144,188,30120,6,0,P|208:272|260:312,1,165.000006294251
120,324,30628,1,0,0:0:0:0:
240,84,30798,2,0,P|336:116|400:152,1,165.000006294251
372,304,31476,5,0,0:0:0:0:
372,304,31645,1,0,0:0:0:0:
112,104,31815,2,0,L|72:184,1,82.5000031471254
256,336,32154,1,0,0:0:0:0:
464,164,32324,1,0,0:0:0:0:
464,164,32493,1,0,0:0:0:0:
336,64,32662,1,0,0:0:0:0:
148,44,32832,6,0,P|76:116|64:192,1,165.000006294251
176,148,33340,2,0,P|224:140|264:132,1,82.5000031471254
216,296,33849,1,0,0:0:0:0:
392,64,34188,1,0,0:0:0:0:
104,188,34527,5,0,0:0:0:0:
376,340,34866,5,0,0:0:0:0:
408,316,34951,1,0,0:0:0:0:
428,280,35035,1,0,0:0:0:0:
432,240,35120,2,0,P|432:196|432:192,1,41.2500015735627
424,156,35290,1,0,0:0:0:0:
408,120,35374,1,0,0:0:0:0:
168,116,35628,5,0,0:0:0:0:
168,116,35713,2,0,L|200:164,1,41.2500015735627
190,150,35883,1,0,0:0:0:0:
308,304,36137,6,0,L|288:244,1,41.2500015735627
404,148,36306,2,0,L|416:196,1,41.2500015735627
180,216,36476,2,0,L|200:264,1,41.2500015735627
288,156,36815,1,0,0:0:0:0:
280,196,36900,1,0,0:0:0:0:
288,236,36984,1,0,0:0:0:0:
296,276,37069,1,0,0:0:0:0:
264,300,37154,1,0,0:0:0:0:
224,288,37239,1,0,0:0:0:0:
140,128,37493,5,0,0:0:0:0:
140,128,37578,1,0,0:0:0:0:
140,128,37662,1,0,0:0:0:0:
140,128,37747,1,0,0:0:0:0:
140,128,37832,1,0,0:0:0:0:
140,128,37917,1,0,0:0:0:0:
328,308,38171,5,0,0:0:0:0:
356,296,38256,1,0,0:0:0:0:
376,276,38340,1,0,0:0:0:0:
392,252,38425,1,0,0:0:0:0:
404,224,38510,1,0,0:0:0:0:
416,196,38595,1,0,0:0:0:0:
412,172,38849,1,0,0:0:0:0:
384,164,38934,1,0,0:0:0:0:
348,184,39018,1,0,0:0:0:0:
312,208,39103,1,0,0:0:0:0:
272,232,39188,1,0,0:0:0:0:
236,224,39273,1,0,0:0:0:0:
204,284,39527,5,0,0:0:0:0:
284,260,39612,1,0,0:0:0:0:
348,208,39696,1,0,0:0:0:0:
384,136,39781,1,0,0:0:0:0:
440,196,39866,1,0,0:0:0:0:
432,272,39951,1,0,0:0:0:0:
124,272,40290,6,0,L|92:208,1,41.2500015735627
108,144,40459,2,0,L|136:108,1,41.2500015735627
176,196,40628,1,0,0:0:0:0:
