osu file format v14

[General]
AudioFilename: audio.mp3
AudioLeadIn: 0
PreviewTime: -1
Countdown: 1
SampleSet: None
StackLeniency: 0.7
Mode: 0
LetterboxInBreaks: 0
WidescreenStoryboard: 1

[Editor]
DistanceSpacing: 1
BeatDivisor: 3
GridSize: 4
TimelineZoom: 1

[Metadata]
Title:Best FriendS (Love Lab!)
TitleUnicode:Best FriendS (Love Lab!)
Artist:?
ArtistUnicode:?
Creator:ILostMyAc
Version:Medium
Source:
Tags:
BeatmapID:1742415
BeatmapSetID:831671

[Difficulty]
HPDrainRate:1.2
CircleSize:3
OverallDifficulty:1.6
ApproachRate:2.3
SliderMultiplier:1.4
SliderTickRate:1

[Events]
//Background and Video events
0,0,"Best FriendS.PNG",0,0
//Break Periods
//Storyboard Layer 0 (Background)
//Storyboard Layer 1 (Fail)
//Storyboard Layer 2 (Pass)
//Storyboard Layer 3 (Foreground)
//Storyboard Sound Samples

[TimingPoints]
3029.73614133058,365.853658536585,4,1,0,100,1,0

[HitObjects]
71,165,1200,6,0,P|120:297|224:280,1,233.333333333333
194,298,2054,2,0,P|351:220|234:109,1,373.333333333333
162,111,3273,1,0,0:0:0:0:
157,204,3517,1,0,0:0:0:0:
64,193,3761,1,0,0:0:0:0:
77,100,4005,2,0,P|174:58|327:168,2,280
84,193,5712,1,0,0:0:0:0:
95,285,5956,1,0,0:0:0:0:
185,260,6200,1,0,0:0:0:0:
160,169,6444,1,0,0:0:0:0:
252,154,6688,1,0,0:0:0:0:
274,244,6932,2,0,P|392:190|351:70,2,280
180,246,8639,2,0,L|125:244,3,46.6666666666667
96,214,9127,1,0,0:0:0:0:
130,182,9249,2,0,P|274:82|352:178,3,326.666666666667
334,264,12054,1,0,0:0:0:0:
241,251,12298,1,0,0:0:0:0:
188,174,12541,1,0,0:0:0:0:
119,237,12785,1,0,0:0:0:0:
25,238,13029,2,0,P|81:82|286:127,3,373.333333333333
232,185,16200,1,0,0:0:0:0:
321,211,16444,1,0,0:0:0:0:
358,125,16688,1,0,0:0:0:0:
267,101,16932,2,0,B|100:77|100:77|285:106,1,326.666666666667
256,101,18273,2,0,P|161:218|309:126,1,466.666666666667
369,192,19980,2,0,P|306:318|119:277,1,326.666666666667
71,161,21322,1,0,0:0:0:0:
160,133,21566,1,0,0:0:0:0:
248,161,21810,2,0,P|375:75|443:129,1,233.333333333333
384,188,22663,2,0,P|195:298|60:146,2,420
309,151,25102,1,0,0:0:0:0:
218,126,25346,1,0,0:0:0:0:
195,216,25590,1,0,0:0:0:0:
285,237,25834,2,0,B|471:126|412:90|412:90|397:326|397:326|412:79,1,700
260,193,28151,6,0,P|88:96|80:95,1,186.666666666667
222,173,29005,2,0,B|401:195|401:195|210:173,1,373.333333333333
115,172,30224,1,0,0:0:0:0:
124,79,30468,1,0,0:0:0:0:
214,102,30712,1,0,0:0:0:0:
232,193,30956,1,0,0:0:0:0:
325,194,31200,1,0,0:0:0:0:
417,208,31444,2,0,P|374:310|110:194,1,466.666666666667
110,214,33029,2,0,P|210:75|418:169,2,420
202,228,35468,1,0,0:0:0:0:
290,196,35712,1,0,0:0:0:0:
290,102,35956,1,0,0:0:0:0:
199,78,36200,1,0,0:0:0:0:
126,136,36444,1,0,0:0:0:0:
128,229,36688,2,0,P|356:275|366:171,1,373.333333333333
333,124,37907,1,0,0:0:0:0:
239,127,38151,1,0,0:0:0:0:
195,209,38395,1,0,0:0:0:0:
132,139,38639,1,0,0:0:0:0:
94,224,38883,1,0,0:0:0:0:
46,143,39127,2,0,P|8:322|276:188,1,653.333333333333
158,135,41810,2,0,P|57:124|58:127,2,186.666666666667
148,227,43273,1,0,0:0:0:0:
193,238,43517,1,0,0:0:0:0:
239,231,43761,1,0,0:0:0:0:
270,196,44005,1,0,0:0:0:0:
294,105,44249,2,0,B|81:79|321:105,4,186.666666666667
224,167,46444,1,0,0:0:0:0:
238,259,46688,1,0,0:0:0:0:
329,238,46932,1,0,0:0:0:0:
302,148,47176,1,0,0:0:0:0:
394,153,47419,1,0,0:0:0:0:
368,107,47785,2,0,P|157:103|129:235,1,373.333333333333
126,227,49005,2,0,P|376:285|350:144,1,513.333333333333
289,76,50590,1,0,0:0:0:0:
208,123,50834,1,0,0:0:0:0:
232,213,51078,1,0,0:0:0:0:
101,163,51444,2,0,P|261:129|249:262,1,326.666666666667
264,246,52541,2,0,P|73:290|106:169,1,373.333333333333
256,192,53761,12,0,55102,0:0:0:0:
146,87,56932,6,0,P|66:295|186:286,2,420
146,87,59493,2,0,P|312:156|145:297,2,466.666666666667
146,87,62419,2,0,P|14:213|143:84,2,560
349,201,65956,2,0,B|205:154|205:154|372:210,1,326.666666666667
371,209,67176,2,0,B|201:313|201:313|397:195,1,420
390,199,68639,2,0,B|243:71|243:71|407:211,1,373.333333333333
