osu file format v14

[General]
AudioFilename: audio.mp3
AudioLeadIn: 0
PreviewTime: 242759
Countdown: 1
SampleSet: Soft
StackLeniency: 0.7
Mode: 0
LetterboxInBreaks: 0
WidescreenStoryboard: 0

[Editor]
Bookmarks: 52457,88319,110388,132457,154526,176595,226250,242802,264871,309009,329699,331078,353147
DistanceSpacing: 0.8
BeatDivisor: 4
GridSize: 4
TimelineZoom: 2.4

[Metadata]
Title:?????? lol
TitleUnicode:?????? lol
Artist:???
ArtistUnicode:???
Creator:Secretpipe
Version:
Source:
Tags:
BeatmapID:1861782
BeatmapSetID:890590

[Difficulty]
HPDrainRate:8
CircleSize:4.5
OverallDifficulty:8.2
ApproachRate:9.4
SliderMultiplier:1.7
SliderTickRate:1

[Events]
//Background and Video events
0,0,"916226.jpg",0,0
//Break Periods
2,90933,93297
2,96940,98814
//Storyboard Layer 0 (Background)
//Storyboard Layer 1 (Fail)
//Storyboard Layer 2 (Pass)
//Storyboard Layer 3 (Foreground)
//Storyboard Sound Samples

[TimingPoints]
44,344.827586206897,4,2,0,25,1,0
22112,-133.333333333333,4,2,0,25,0,0
44181,-111.111111111111,4,2,0,25,0,0
88319,-58.8235294117647,4,2,0,25,0,0
110388,-55.5555555555556,4,2,0,25,0,0
112802,-50,4,2,0,25,0,0

[HitObjects]
114,141,21768,5,0,0:0:0:0:
192,203,21940,5,0,0:0:0:0:
62,279,22112,6,0,L|148:273,1,63.7500024318696
125,274,22630,1,0,0:0:0:0:
125,274,22802,1,0,0:0:0:0:
125,274,22975,1,0,0:0:0:0:
125,274,23147,1,0,0:0:0:0:
125,274,23319,1,0,0:0:0:0:
83,148,23492,6,0,L|77:220,1,63.7500024318696
341,336,24009,1,0,0:0:0:0:
271,228,24181,1,0,0:0:0:0:
287,201,24267,1,0,0:0:0:0:
290,169,24354,1,0,0:0:0:0:
197,274,24526,1,0,0:0:0:0:
371,139,24699,1,0,0:0:0:0:
140,183,24871,6,0,L|203:178,1,63.7500024318696
65,121,25388,1,0,0:0:0:0:
158,36,25561,2,0,L|146:108,1,63.7500024318696
28,281,25906,1,0,0:0:0:0:
280,192,26078,1,0,0:0:0:0:
6,351,26250,6,0,L|89:355,1,63.7500024318696
369,288,26767,1,0,0:0:0:0:
207,140,26940,1,0,0:0:0:0:
199,170,27026,1,0,0:0:0:0:
192,201,27112,1,0,0:0:0:0:
281,87,27285,2,0,L|319:90,1,31.8750012159348
112,153,27457,2,0,L|70:157,1,31.8750012159348
226,278,27630,6,0,B|258:284|279:266|279:266|314:282|345:261|345:261|389:275|416:242|416:242|388:178|433:192|402:115,1,318.750012159348
345,41,28664,2,0,L|358:96,1,31.8750012159348
294,137,28837,2,0,L|287:195,1,31.8750012159348
161,214,29009,2,0,B|156:159|199:130|199:130|192:167|195:201|210:224|228:241|228:241,1,191.250007295609
216,356,29699,1,0,0:0:0:0:
205,325,29785,1,0,0:0:0:0:
207,293,29871,1,0,0:0:0:0:
318,313,30044,2,0,L|258:320,1,31.8750012159348
135,346,30216,2,0,L|99:341,1,31.8750012159348
212,221,30388,5,0,0:0:0:0:
163,21,30561,1,0,0:0:0:0:
212,221,30733,2,0,P|159:211|106:236,1,95.6250036478044
36,338,31078,2,0,L|53:228,1,95.6250036478044
58,76,31423,2,0,L|72:171,1,95.6250036478044
163,21,31768,2,0,L|134:122,1,95.6250036478044
292,50,32112,2,0,L|209:113,1,95.6250036478044
381,153,32457,5,0,0:0:0:0:
359,129,32544,1,0,0:0:0:0:
356,97,32630,1,0,0:0:0:0:
483,174,32802,2,0,L|477:218,1,31.8750012159348
309,184,32975,2,0,L|319:226,1,31.8750012159348
434,32,33147,6,0,L|424:119,1,63.7500024318696
303,288,33664,1,0,0:0:0:0:
221,191,33837,1,0,0:0:0:0:
227,159,33923,2,0,L|216:93,1,63.7500024318696
148,57,34181,2,0,L|93:67,1,31.8750012159348
268,36,34354,2,0,L|299:39,1,31.8750012159348
470,146,34526,6,0,P|439:153|407:148,1,63.7500024318696
148,57,35044,1,0,0:0:0:0:
81,147,35216,1,0,0:0:0:0:
76,178,35302,2,0,L|83:269,1,63.7500024318696
139,301,35561,2,0,L|183:305,1,31.8750012159348
57,348,35733,2,0,L|7:342,1,31.8750012159348
247,271,35906,6,0,L|258:208,1,63.7500024318696
135,51,36423,1,0,0:0:0:0:
194,108,36595,2,0,L|199:142,2,31.8750012159348
360,62,36940,1,0,0:0:0:0:
153,231,37112,1,0,0:0:0:0:
408,127,37285,2,0,L|414:165,1,31.8750012159348
453,61,37457,5,0,0:0:0:0:
233,356,37802,2,0,L|238:272,1,63.7500024318696
224,262,38061,1,0,0:0:0:0:
217,230,38147,1,0,0:0:0:0:
331,305,38319,1,0,0:0:0:0:
121,280,38492,1,0,0:0:0:0:
338,45,38664,6,0,P|350:104|324:148,1,95.6250036478044
286,221,39009,2,0,L|281:169,3,31.8750012159348
234,131,39354,2,0,L|240:77,3,31.8750012159348
178,186,39699,1,0,0:0:0:0:
338,45,39871,1,0,0:0:0:0:
92,76,40044,2,0,L|101:163,1,63.7500024318696
66,324,40388,6,0,P|44:326|17:317,3,31.8750012159348
152,278,40733,2,0,P|174:276|201:285,3,31.8750012159348
238,333,41078,1,0,0:0:0:0:
445,253,41250,1,0,0:0:0:0:
238,333,41423,2,0,L|313:340,1,63.7500024318696
190,97,41768,6,0,B|179:135|179:135|196:195,1,95.6250036478044
339,241,42112,2,0,B|307:227|307:227|234:245,1,95.6250036478044
125,317,42457,2,0,B|157:331|157:331|230:313,1,95.6250036478044
50,214,42802,2,0,B|62:250|62:250|36:275|30:297|29:326|44:344,2,127.500004863739
50,214,43578,1,0,0:0:0:0:
50,214,43664,1,0,0:0:0:0:
216,72,43837,1,0,0:0:0:0:
65,38,44009,1,0,0:0:0:0:
315,257,44181,6,0,P|346:195|298:117,1,152.999995330811
120,192,44699,2,0,B|178:201|178:201|217:184|217:184|278:191,1,152.999995330811
406,268,45216,1,0,0:0:0:0:
314,350,45388,1,0,0:0:0:0:
464,127,45561,2,0,L|457:213,1,76.4999976654053
126,58,46250,6,0,L|138:158,1,76.4999976654053
89,232,46595,1,0,0:0:0:0:
148,364,46768,1,0,0:0:0:0:
211,189,46940,2,0,L|198:283,1,76.4999976654053
337,350,47457,1,0,0:0:0:0:
391,284,47630,2,0,L|403:195,1,76.4999976654053
364,100,47975,2,0,P|364:130|373:154,1,38.2499988327027
451,50,48147,2,0,P|425:44|401:53,1,38.2499988327027
206,137,48319,6,0,P|257:143|294:124,1,76.4999976654053
59,53,48837,1,0,0:0:0:0:
112,196,49009,2,0,L|118:143,2,38.2499988327027
59,53,49354,1,0,0:0:0:0:
34,133,49526,1,0,0:0:0:0:
214,247,49699,6,0,L|202:117,1,114.749996498108
146,87,50044,2,0,P|214:121|348:57,1,229.499992996216
381,10,50733,2,0,L|374:76,1,38.2499988327027
407,63,50906,2,0,L|400:121,1,38.2499988327027
374,249,51078,6,0,P|357:206|365:168,1,76.4999976654053
455,338,51595,1,0,0:0:0:0:
276,194,51767,1,0,0:0:0:0:
269,231,51853,1,0,0:0:0:0:
260,268,51940,1,0,0:0:0:0:
361,176,52112,1,0,0:0:0:0:
235,49,52285,1,0,0:0:0:0:
348,272,52457,1,0,0:0:0:0:
468,80,52802,6,0,P|407:67|343:94,1,114.749996498108
174,137,53147,2,0,P|225:115|290:131,1,114.749996498108
468,193,53492,2,0,P|419:169|349:182,1,114.749996498108
366,356,53837,2,0,B|376:325|429:312|429:312|388:278|405:226,2,152.999995330811
366,356,54612,1,0,0:0:0:0:
366,356,54699,1,0,0:0:0:0:
470,242,54871,1,0,0:0:0:0:
496,368,55044,1,0,0:0:0:0:
311,106,55216,6,0,L|305:205,1,76.4999976654053
123,253,55561,2,0,P|221:275|287:224,1,152.999995330811
68,188,56078,1,0,0:0:0:0:
190,42,56250,2,0,L|178:95,1,38.2499988327027
244,138,56423,2,0,L|249:175,1,38.2499988327027
404,227,56595,6,0,L|396:317,1,76.4999976654053
397,303,57112,1,0,0:0:0:0:
465,115,57285,1,0,0:0:0:0:
481,149,57371,2,0,L|477:206,1,38.2499988327027
298,41,57630,1,0,0:0:0:0:
298,41,57802,1,0,0:0:0:0:
397,303,57975,6,0,L|403:226,1,76.4999976654053
461,352,58492,1,0,0:0:0:0:
321,275,58664,2,0,L|310:186,1,76.4999976654053
299,73,59009,2,0,L|291:134,1,38.2499988327027
234,170,59181,1,0,0:0:0:0:
393,25,59354,6,0,L|404:118,1,76.4999976654053
401,100,59871,1,0,0:0:0:0:
135,44,60044,1,0,0:0:0:0:
149,79,60130,2,0,L|145:128,1,38.2499988327027
32,257,60388,2,0,P|48:243|81:237,1,38.2499988327027
176,275,60561,2,0,P|151:276|123:267,1,38.2499988327027
249,203,60733,6,0,L|343:213,1,76.4999976654053
325,211,61250,1,0,0:0:0:0:
195,73,61423,2,0,P|186:115|206:152,1,76.4999976654053
397,249,61768,2,0,P|405:227|404:194,1,38.2499988327027
446,135,61940,2,0,P|437:113|416:88,1,38.2499988327027
265,102,62112,6,0,L|357:107,1,76.4999976654053
195,73,62457,2,0,L|100:79,1,76.4999976654053
266,183,62802,1,0,0:0:0:0:
304,185,62888,1,0,0:0:0:0:
342,188,62975,1,0,0:0:0:0:
196,274,63147,1,0,0:0:0:0:
196,274,63319,1,0,0:0:0:0:
277,31,63492,2,0,P|259:69|267:108,1,76.4999976654053
324,301,63837,6,0,L|342:187,1,114.749996498108
450,184,64181,2,0,P|377:172|318:207,1,114.749996498108
232,184,64526,2,0,P|286:200|341:186,1,114.749996498108
359,34,64871,2,0,L|338:204,2,152.999995330811
364,52,65647,1,0,0:0:0:0:
373,68,65733,1,0,0:0:0:0:
271,115,65906,1,0,0:0:0:0:
412,181,66078,2,0,L|459:185,1,38.2499988327027
331,261,66250,6,0,B|261:227|215:255|215:255|165:283|93:241,1,229.499992996216
141,121,66940,2,0,P|167:157|162:198,1,76.4999976654053
51,326,67285,2,0,L|103:322,1,38.2499988327027
172,352,67457,2,0,L|228:359,1,38.2499988327027
404,259,67630,6,0,P|363:251|324:265,1,76.4999976654053
172,352,68147,1,0,0:0:0:0:
98,196,68319,1,0,0:0:0:0:
87,233,68406,2,0,L|92:279,1,38.2499988327027
207,154,68664,2,0,P|184:148|155:154,1,38.2499988327027
243,231,68837,2,0,P|264:236|289:233,1,38.2499988327027
309,74,69009,6,0,P|293:118|303:156,1,76.4999976654053
385,359,69526,1,0,0:0:0:0:
419,243,69699,2,0,L|422:293,1,38.2499988327027
466,339,69871,1,0,0:0:0:0:
343,274,70044,1,0,0:0:0:0:
466,173,70216,1,0,0:0:0:0:
323,25,70388,6,0,L|313:122,1,76.4999976654053
263,344,70906,1,0,0:0:0:0:
196,278,71078,1,0,0:0:0:0:
182,250,71164,2,0,L|191:186,1,38.2499988327027
231,145,71423,1,0,0:0:0:0:
89,57,71595,2,0,L|97:106,1,38.2499988327027
48,231,71768,6,0,P|41:189|61:152,1,76.4999976654053
270,83,72112,2,0,P|257:122|220:149,1,76.4999976654053
123,282,72457,2,0,L|115:190,1,76.4999976654053
53,339,72802,1,0,0:0:0:0:
53,339,72975,1,0,0:0:0:0:
257,302,73147,6,0,L|269:217,1,76.4999976654053
267,226,73664,1,0,0:0:0:0:
193,77,73837,2,0,L|187:117,2,38.2499988327027
105,209,74181,2,0,L|114:267,1,38.2499988327027
65,305,74354,2,0,L|56:349,1,38.2499988327027
219,179,74526,6,0,P|198:225|221:284,1,114.749996498108
284,324,74871,2,0,L|426:310,1,114.749996498108
449,142,75216,2,0,B|431:176|431:176|447:200|451:226|448:243|441:255,1,114.749996498108
259,219,75561,2,0,B|302:241|302:241|388:223,1,114.749996498108
214,152,75906,6,0,P|131:130|61:168,1,152.999995330811
259,219,76423,1,0,0:0:0:0:
382,43,76595,1,0,0:0:0:0:
398,68,76681,2,0,L|390:121,1,38.2499988327027
259,219,76940,2,0,L|297:212,1,38.2499988327027
375,235,77112,2,0,L|425:245,1,38.2499988327027
247,333,77285,6,0,L|151:323,1,76.4999976654053
170,325,77802,1,0,0:0:0:0:
117,172,77975,2,0,P|131:208|114:262,1,76.4999976654053
19,214,78319,2,0,L|65:218,1,38.2499988327027
124,244,78492,2,0,L|171:239,1,38.2499988327027
306,194,78664,6,0,L|226:188,2,76.4999976654053
124,244,79181,1,0,0:0:0:0:
89,37,79353,1,0,0:0:0:0:
82,67,79440,1,0,0:0:0:0:
89,96,79526,1,0,0:0:0:0:
176,184,79699,2,0,P|174:161|158:134,1,38.2499988327027
66,196,79871,2,0,P|96:199|113:193,1,38.2499988327027
302,94,80044,6,0,P|264:88|221:105,1,76.4999976654053
357,155,80388,1,0,0:0:0:0:
415,21,80561,1,0,0:0:0:0:
409,97,80733,2,0,L|415:21,1,76.4999976654053
468,158,81078,2,0,L|465:211,1,38.2499988327027
412,259,81250,2,0,L|416:312,1,38.2499988327027
291,142,81423,6,0,L|286:242,1,76.4999976654053
196,96,81768,2,0,L|204:6,1,76.4999976654053
16,167,82112,1,0,0:0:0:0:
39,187,82199,1,0,0:0:0:0:
69,191,82285,2,0,L|155:182,1,76.4999976654053
70,77,82630,2,0,L|80:132,1,38.2499988327027
145,183,82802,6,0,L|139:276,1,76.4999976654053
238,345,83147,1,0,0:0:0:0:
300,209,83319,1,0,0:0:0:0:
292,285,83492,2,0,L|300:209,1,76.4999976654053
357,355,83837,2,0,L|302:362,1,38.2499988327027
238,345,84009,2,0,L|177:338,1,38.2499988327027
81,354,84181,5,0,0:0:0:0:
256,192,84268,12,0,87802,0:0:0:0:
170,157,88319,6,0,B|240:170|276:135|276:135|339:119|380:151,1,216.750004134178
470,275,88664,2,0,B|407:271|365:305|365:305|314:283|240:295|240:295|310:265|320:188,1,361.250006890297
297,64,89181,2,0,B|249:76|205:47|205:47|244:98|225:147|225:147|252:175|247:206|247:206|222:244|163:243,1,361.250006890297
41,240,89699,2,0,B|69:206|69:206|51:171|68:127|68:127|105:180|89:257|89:257|130:304|114:349,1,361.250006890297
35,324,90216,2,0,B|110:298|164:317|164:317|215:337|268:314|268:314|271:286|294:268|294:268|296:226|247:207|247:207|207:233|218:272,1,433.500008268356
213,31,93837,6,0,B|231:71|216:105|216:105|251:126|262:162|262:162|222:163|202:190,1,216.750004134178
221,335,94181,2,0,B|270:350|310:325|310:325|351:338|373:309|373:309|353:282|309:293|309:293|287:263|237:271|237:271|267:255|264:217,1,361.250006890297
5,157,94699,2,0,B|26:163|38:188|38:188|68:178|78:141|78:141|87:96|120:90|120:90|137:122|108:154|108:154|124:198|147:209|171:216|195:209,1,361.250006890297
357,145,95216,2,0,B|325:148|325:148|285:115|241:123|212:146|212:146|227:100|255:86|255:86|256:42|282:28|282:28|312:52|294:94,1,361.250006890297
257,371,95733,2,0,B|265:350|253:325|253:325|273:300|273:300|259:271|259:271|267:253|281:243|252:214|268:194|268:194|262:252,1,216.750004134178
40,223,99354,6,0,B|96:255|96:255|155:238|155:238|196:269|251:252,1,216.750004134178
332,48,99699,2,0,B|276:61|264:108|264:108|291:147|274:186|274:186|324:229|305:296|305:296|335:283|367:295,1,361.250006890297
240,360,100216,2,0,B|170:335|111:356|111:356|67:329|15:340|15:340|45:302|53:260|53:260|36:237|40:206,1,361.250006890297
174,4,100733,2,0,B|221:65|188:137|188:137|113:88|113:88|165:143|106:218,1,361.250006890297
266,30,101250,2,0,B|281:136|230:196|230:196|229:251|259:281|259:281|313:263|319:302|360:288,1,361.250006890297
256,192,102112,12,0,104699,0:0:0:0:
134,274,104871,6,0,B|197:303|251:268|251:268|297:308|355:278,1,216.750004134178
397,53,105216,2,0,B|342:10|276:25|276:25|282:86|331:99|331:99|328:145|298:165|298:165|292:199|307:219,1,361.250006890297
402,365,105733,2,0,B|425:365|454:357|465:329|465:329|412:252|345:321|321:293|321:293|370:273|386:242|383:208|367:183,1,361.250006890297
131,121,106250,2,0,B|133:170|114:189|70:204|70:204|147:230|147:230|190:205|243:207|243:207|282:227|324:216,1,361.250006890297
441,61,106768,2,0,B|384:95|339:41|339:41|375:191|375:191|349:140|279:148,1,361.250006890297
300,146,107285,1,0,0:0:0:0:
300,146,107457,1,0,0:0:0:0:
357,323,107630,5,0,0:0:0:0:
357,323,107802,1,0,0:0:0:0:
451,175,107975,1,0,0:0:0:0:
451,175,108147,1,0,0:0:0:0:
201,252,108319,1,0,0:0:0:0:
201,252,108492,1,0,0:0:0:0:
450,323,108664,1,0,0:0:0:0:
450,323,108837,1,0,0:0:0:0:
230,95,109009,5,0,0:0:0:0:
230,95,109181,1,0,0:0:0:0:
234,353,109354,1,0,0:0:0:0:
234,353,109526,1,0,0:0:0:0:
411,120,109699,1,0,0:0:0:0:
411,120,109871,1,0,0:0:0:0:
135,199,110044,1,0,0:0:0:0:
334,314,110216,2,0,P|351:275|348:237,1,72.2500013780594
287,54,110388,6,0,B|285:84|265:111|265:111|305:153|294:205,1,152.999995330811
48,200,110733,2,0,P|163:129|236:203,1,229.499992996216
226,329,111078,2,0,L|206:225,1,76.4999976654053
290,361,111250,1,0,0:0:0:0:
426,156,111423,2,0,L|403:329,1,152.999995330811
298,18,111768,6,0,B|298:74|259:117|259:117|320:72|389:124,1,229.499992996216
324,244,112112,2,0,P|308:210|321:162,1,76.4999976654053
192,363,112285,2,0,L|222:204,2,152.999995330811
47,47,112802,6,0,B|32:123|94:140|94:140|75:186|108:219|108:219|87:251|96:285,1,255
394,115,113147,2,0,B|358:93|319:97|319:97|291:136|248:150|248:150|202:137|151:175,1,255
444,306,113492,2,0,L|467:115,1,170
165,165,113837,2,0,L|153:76,1,85
213,22,114009,1,0,0:0:0:0:
444,306,114181,2,0,L|467:115,1,170
