osu file format v14

[General]
AudioFilename: audio.mp3
AudioLeadIn: 0
PreviewTime: 79666
Countdown: 0
SampleSet: Normal
StackLeniency: 0.6
Mode: 0
LetterboxInBreaks: 0
WidescreenStoryboard: 0

[Editor]
Bookmarks: 22985
DistanceSpacing: 1.4
BeatDivisor: 4
GridSize: 8
TimelineZoom: 0.9

[Metadata]
Title:?
TitleUnicode:続?へたくそユートピア政策
Artist:/
ArtistUnicode:スズム/そらる
Creator:AngelSnow
Version:Love in Doomsday
Source:
Tags:
BeatmapID:1636034
BeatmapSetID:779011

[Difficulty]
HPDrainRate:6
CircleSize:4
OverallDifficulty:8
ApproachRate:8.5
SliderMultiplier:1.8
SliderTickRate:1

[Events]
//Background and Video events
0,0,"~GWBBZ$X5Y{`BET]3(2UF1D.png",0,0
//Break Periods
2,3312,5169
2,6740,8598
2,109972,120026
2,275830,278384
//Storyboard Layer 0 (Background)
//Storyboard Layer 1 (Fail)
//Storyboard Layer 2 (Pass)
//Storyboard Layer 3 (Foreground)
//Storyboard Sound Samples

[TimingPoints]
2629,428.571428571429,4,1,0,100,1,0
3059,428.571428571429,4,1,0,100,1,0
13342,-142.857142857143,4,1,0,100,0,0
15057,-192.307692307692,4,1,0,100,0,0
17628,-142.857142857143,4,1,0,100,0,0
18485,-125,4,1,0,100,0,0
32199,-125,4,1,0,100,0,0
55559,-185.185185185185,4,1,0,100,0,0
55773,-125,4,1,0,100,0,0
79773,-125,4,1,0,100,0,0
107630,-200,4,1,0,100,0,0
120701,-125,4,1,0,100,0,0
121344,-125,4,1,0,100,0,0
148773,-166.666666666667,4,1,0,100,0,0
162487,-125,4,1,0,100,0,0
169344,-111.111111111111,4,1,0,100,0,1
193344,-125,4,1,0,100,0,1
196773,-125,4,1,0,100,0,0
224201,-166.666666666667,4,1,0,100,0,0
243059,-333.333333333333,4,1,0,100,0,0
244666,-166.666666666667,4,1,0,100,0,0
250773,-100,4,1,0,100,0,0
251630,-100,4,1,0,100,0,1
266844,-83.3333333333333,4,1,0,100,0,1
268773,-100,4,1,0,100,0,1
275630,-125,4,1,0,100,0,0
279059,-166.666666666667,4,1,0,100,0,0
280773,-83.3333333333333,4,1,0,100,0,1
280880,-83.3333333333333,4,1,0,100,0,0
282487,-100,4,1,0,100,0,0
289344,-111.111111111111,4,1,0,100,0,0
296201,-125,4,1,0,100,0,0
303059,-166.666666666667,4,1,0,100,0,0

[HitObjects]
49,268,2629,5,0,0:0:0:0:
134,294,2843,1,0,0:0:0:0:
205,238,3059,2,0,L|215:197,1,22.5
460,279,5844,5,0,0:0:0:0:
378,317,6059,1,0,0:0:0:0:
291,301,6273,1,0,0:0:0:0:
228,237,6487,2,0,L|236:200,1,22.5
460,105,9273,5,0,0:0:0:0:
378,67,9488,1,0,0:0:0:0:
291,83,9702,1,0,0:0:0:0:
228,147,9916,2,0,L|236:184,1,22.5
256,288,11416,6,0,L|219:276,1,22.5
106,256,12273,2,0,L|134:230,1,22.5
228,147,13344,2,0,B|247:140|275:124|275:124|376:60|468:184|394:322|262:269|228:359,1,472.499985580445
227,359,15059,2,0,B|193:269|61:321|-12:183|83:66|180:123|180:123|208:140|231:148,1,467.999997143555
328,221,17630,6,0,P|350:132|307:51,1,188.999994232178
228,146,18487,6,0,L|154:158,1,72
156,157,18916,1,0,0:0:0:0:
121,240,19130,1,0,0:0:0:0:
121,240,19559,1,0,0:0:0:0:
190,290,19773,1,0,0:0:0:0:
140,361,19988,1,0,0:0:0:0:
69,311,20202,1,0,0:0:0:0:
190,290,21273,5,0,0:0:0:0:
199,204,21487,1,0,0:0:0:0:
190,290,21701,1,0,0:0:0:0:
273,279,21916,6,0,L|347:268,1,72
344,268,22345,1,0,0:0:0:0:
381,189,22559,1,0,0:0:0:0:
381,189,22987,1,0,0:0:0:0:
450,139,23201,1,0,0:0:0:0:
400,68,23416,1,0,0:0:0:0:
329,118,23630,1,0,0:0:0:0:
300,219,24701,5,0,0:0:0:0:
381,189,24915,1,0,0:0:0:0:
432,258,25130,1,0,0:0:0:0:
383,328,25344,1,0,0:0:0:0:
299,304,25987,5,0,0:0:0:0:
383,328,26201,1,0,3:0:0:0:
432,258,26415,1,0,3:0:0:0:
381,189,26630,1,0,3:0:0:0:
300,219,26844,1,0,0:0:0:0:
246,158,27059,1,0,3:0:0:0:
285,85,27274,1,0,3:0:0:0:
368,104,28773,5,0,0:0:0:0:
256,192,28880,12,0,32201,0:0:0:0:
199,86,32416,5,0,0:0:0:0:
264,140,32630,2,0,P|272:174|264:209,2,72
186,171,33273,1,0,0:0:0:0:
347,279,33701,1,0,0:0:0:0:
272,354,33916,2,0,L|264:202,1,144
185,170,34559,2,0,P|151:162|116:170,1,72
151,249,34987,1,0,0:0:0:0:
297,59,35630,5,0,3:0:0:0:
376,92,35844,1,0,3:0:0:0:
342,171,36059,2,0,L|374:257,2,72
263,139,36701,1,0,0:0:0:0:
334,314,37130,1,0,0:0:0:0:
256,283,37344,2,0,L|264:131,1,144
143,89,38201,2,0,L|135:241,1,144
263,139,39059,5,0,0:0:0:0:
343,107,39273,5,0,0:0:0:0:
367,238,39487,1,0,0:0:0:0:
390,253,39701,1,0,0:0:0:0:
375,276,39916,1,0,0:0:0:0:
350,261,40130,1,0,0:0:0:0:
270,293,40559,5,0,0:0:0:0:
179,346,40774,6,0,L|171:203,1,144
223,135,41416,1,0,0:0:0:0:
308,147,41630,1,0,0:0:0:0:
255,215,41844,1,0,0:0:0:0:
255,215,42487,5,0,0:0:0:0:
368,291,42701,2,0,P|387:261|392:226,1,72
420,216,43129,1,0,0:0:0:0:
410,189,43344,1,0,0:0:0:0:
383,199,43558,1,0,0:0:0:0:
255,215,43987,1,0,0:0:0:0:
210,131,44201,6,0,P|260:118|287:125,1,72
299,300,44629,2,0,P|249:313|222:306,1,72
171,260,45059,2,0,P|158:210|165:183,1,72
340,171,45487,2,0,P|353:221|346:248,1,72
255,215,45916,5,0,0:0:0:0:
340,171,46130,5,0,0:0:0:0:
307,91,46344,2,0,P|341:82|376:91,2,72
186,171,46987,1,0,0:0:0:0:
299,300,47415,1,0,0:0:0:0:
204,336,47630,2,0,P|195:301|204:266,1,72
186,171,48059,2,0,P|221:172|253:189,1,72
340,171,48487,1,0,0:0:0:0:
340,171,48701,2,0,P|340:206|309:257,1,72
186,171,49344,5,0,0:0:0:0:
309,69,49559,1,0,0:0:0:0:
305,41,49774,1,0,0:0:0:0:
330,27,49988,1,0,0:0:0:0:
351,48,50202,1,0,0:0:0:0:
337,73,50416,1,0,0:0:0:0:
340,171,50843,5,0,0:0:0:0:
274,228,51059,2,0,P|252:175|256:148,1,72
167,149,51487,2,0,P|132:194|106:204,1,72
150,281,51916,1,0,0:0:0:0:
150,281,52130,2,0,P|206:288|228:305,1,72
319,349,52773,5,0,0:0:0:0:
376,282,52987,5,0,0:0:0:0:
363,192,53201,2,0,P|373:140|375:109,1,72
267,117,53630,1,0,0:0:0:0:
272,204,53844,2,0,P|294:252|388:278,1,144
375,120,54701,6,0,P|370:85|362:50,1,72
256,67,55130,1,0,0:0:0:0:
149,50,55344,1,0,0:0:0:0:
149,50,55559,6,0,P|141:85|137:120,1,72.9000017797852
144,164,55987,1,0,0:0:0:0:
215,234,56201,6,0,P|223:198|227:162,1,72.9000017797852
227,162,56630,1,0,0:0:0:0:
256,67,56844,2,0,P|186:71|130:140,1,144
215,234,57701,5,0,0:0:0:0:
313,256,57915,2,0,P|315:221|301:182,1,72
215,234,58344,1,0,0:0:0:0:
185,137,58559,2,0,P|153:152|126:184,1,72
215,234,58988,1,0,0:0:0:0:
147,307,59201,2,0,P|177:326|212:333,1,72
310,311,59630,6,0,B|368:276|391:240|413:227|443:252|469:263|473:307|445:322|429:346|400:349|377:316|356:298|312:255,1,360
121,213,60916,5,0,0:0:0:0:
97,131,61130,1,0,0:0:0:0:
153,66,61344,2,0,B|178:59|206:42|206:42|238:65|292:66,1,144
372,82,61987,2,0,B|366:163|395:221|395:221|370:258|355:300,1,216
278,312,62844,1,0,0:0:0:0:
179,287,63059,6,0,L|105:287,1,72
68,209,63487,2,0,L|142:209,1,72
179,131,63916,2,0,L|105:131,1,72
68,53,64344,2,0,L|140:53,1,72
241,53,64773,2,0,B|306:42|348:56|348:56|396:42|460:54,2,216
197,192,66487,2,0,L|173:197,2,18
285,243,68201,6,0,L|301:261,2,18
285,140,69916,2,0,L|293:117,1,18
374,50,70344,2,0,P|401:96|401:150,1,108
385,202,70773,1,0,0:0:0:0:
284,208,70987,1,0,0:0:0:0:
396,233,71201,1,0,0:0:0:0:
269,202,71416,1,0,0:0:0:0:
297,90,71630,6,0,B|239:79|208:107|208:107|166:99|119:143,1,180
108,172,72273,2,0,B|37:241|97:293|164:282|166:230,1,180
177,207,72916,1,0,0:0:0:0:
345,208,73344,2,0,B|282:244|247:204|223:170|176:207,1,180
140,231,73987,2,0,L|109:241,3,18
307,52,74631,5,0,0:0:0:0:
360,119,74845,1,0,0:0:0:0:
345,208,75059,2,0,B|356:262|345:367,1,144
238,346,75701,2,0,B|202:358|167:346,2,72
204,220,76559,1,0,0:0:0:0:
102,258,76774,6,0,L|102:184,1,72
39,222,77202,2,0,L|103:185,1,72
163,222,77630,2,0,L|98:185,1,72
102,258,78059,2,0,L|102:184,1,72
187,119,78487,5,0,0:0:0:0:
252,22,78701,1,0,0:0:0:0:
256,138,78916,1,0,0:0:0:0:
184,47,79130,1,0,0:0:0:0:
296,79,79344,1,0,0:0:0:0:
353,302,79773,5,0,0:0:0:0:
379,296,79987,1,0,0:0:0:0:
359,275,80201,2,0,P|365:203|363:120,1,144
260,164,80844,2,0,P|254:207|259:258,2,72
172,99,81487,1,0,0:0:0:0:
153,205,81701,1,0,0:0:0:0:
84,288,81916,2,0,P|48:236|45:208,1,72
115,145,82344,2,0,P|151:197|154:225,1,72
123,308,82773,6,0,P|158:313|193:305,2,72
266,289,83416,1,0,0:0:0:0:
361,239,83630,2,0,P|339:210|309:191,1,72
172,99,84059,1,0,0:0:0:0:
309,191,84273,2,0,P|311:137|307:93,2,72
172,99,84916,5,0,0:0:0:0:
153,205,85130,1,0,0:0:0:0:
150,305,85344,1,0,0:0:0:0:
156,189,85559,1,0,0:0:0:0:
161,318,85773,1,0,0:0:0:0:
159,174,85987,1,0,0:0:0:0:
257,154,86201,6,0,L|236:134,1,18
332,50,86416,1,0,0:0:0:0:
378,114,86630,1,0,0:0:0:0:
332,178,86844,1,0,0:0:0:0:
370,271,87059,2,0,P|335:279|299:273,1,72
247,342,87487,2,0,P|212:350|176:344,1,72
136,268,87916,2,0,P|170:259|206:265,2,72
58,307,88559,1,0,0:0:0:0:
50,199,88773,5,0,0:0:0:0:
110,52,89201,1,0,0:0:0:0:
200,199,89630,1,0,0:0:0:0:
260,52,90059,1,0,0:0:0:0:
349,199,90487,2,0,L|425:218,2,72
323,282,91130,1,0,0:0:0:0:
247,354,91344,2,0,P|224:315|248:209,1,144
168,111,92201,6,0,P|139:119|126:125,1,36
304,111,92416,2,0,P|333:119|346:125,1,36
237,53,92630,2,0,L|237:12,1,36
237,181,92844,2,0,B|228:220|237:239|256:250|266:268|269:297|253:311|230:318|198:293|214:267,1,180
161,250,93487,6,0,P|125:255|73:229,1,72
6,227,93916,2,0,P|19:193|68:161,1,72
102,104,94344,5,0,0:0:0:0:
102,104,94559,2,0,P|124:132|127:190,1,72
215,146,94987,1,0,0:0:0:0:
314,118,95201,1,0,0:0:0:0:
289,223,95415,1,0,0:0:0:0:
207,252,95630,2,0,P|201:315|213:340,1,72
191,250,96059,1,0,0:0:0:0:
204,237,96273,1,0,0:0:0:0:
100,267,96487,1,0,0:0:0:0:
100,267,96701,6,0,P|95:232|103:197,1,72
204,237,97130,1,0,0:0:0:0:
307,266,97344,6,0,P|311:231|303:196,1,72
205,90,97773,1,0,0:0:0:0:
304,48,97987,2,0,P|339:46|375:48,2,72
172,99,98630,1,0,0:0:0:0:
153,205,98844,1,0,0:0:0:0:
89,146,99058,5,0,0:0:0:0:
217,162,99273,1,0,0:0:0:0:
150,77,99487,1,0,0:0:0:0:
158,219,99701,1,0,0:0:0:0:
265,230,99915,6,0,L|271:201,1,18
392,243,100130,1,0,0:0:0:0:
360,315,100344,1,0,0:0:0:0:
281,307,100558,1,0,0:0:0:0:
338,182,100773,2,0,P|308:150|278:140,1,72
198,212,101201,2,0,P|233:218|268:212,1,72
126,182,101630,1,0,0:0:0:0:
183,140,101844,1,0,0:0:0:0:
179,117,102273,1,0,0:0:0:0:
183,94,102701,5,0,0:0:0:0:
297,83,102915,1,0,0:0:0:0:
178,70,103130,1,0,0:0:0:0:
178,45,103559,1,0,0:0:0:0:
297,32,103774,1,0,0:0:0:0:
297,204,104201,6,0,L|373:223,2,72
213,180,104844,1,0,0:0:0:0:
180,282,105058,2,0,P|119:318|49:307,1,144
46,134,105916,5,0,0:0:0:0:
46,134,106130,1,0,0:0:0:0:
157,69,106559,2,0,P|210:75|253:107,1,108
290,130,106987,1,0,0:0:0:0:
290,130,107201,1,0,0:0:0:0:
398,122,107416,1,0,0:0:0:0:
351,211,107630,6,0,B|381:254|372:295|372:295|358:348,1,135
360,339,108487,2,0,B|264:315|264:315|182:315|182:315|93:338,1,270
26,136,120701,5,0,0:0:0:0:
129,70,120916,2,0,P|172:57|196:57,1,36
130,201,121130,2,0,P|173:213|197:213,1,36
240,136,121344,5,0,0:0:0:0:
361,110,121559,1,0,0:0:0:0:
278,17,121773,1,0,0:0:0:0:
308,158,121987,1,0,0:0:0:0:
412,58,122201,2,0,P|382:39|347:38,1,72
308,158,122630,2,0,P|337:177|373:179,1,72
395,263,123059,6,0,P|363:278|343:308,1,72
260,286,123487,2,0,P|262:250|246:218,2,72
138,316,124130,1,0,0:0:0:0:
189,269,124344,1,0,0:0:0:0:
123,247,124559,1,0,0:0:0:0:
101,163,124773,5,0,0:0:0:0:
101,163,124987,1,0,0:0:0:0:
34,63,125201,2,0,P|70:44|124:49,1,72
165,105,125630,2,0,L|244:105,2,72
101,163,126273,1,0,0:0:0:0:
301,163,126487,6,0,P|335:103|301:43,1,144
201,106,127130,1,0,0:0:0:0:
101,43,127344,2,0,P|66:102|100:162,1,144
133,222,127987,2,0,P|127:191|88:157,1,72
33,238,128416,5,0,0:0:0:0:
125,305,128630,1,0,0:0:0:0:
20,352,128844,1,0,0:0:0:0:
133,222,129059,1,0,0:0:0:0:
212,326,129273,2,0,P|264:316|289:317,1,72
282,316,129701,1,0,0:0:0:0:
401,330,129916,6,0,P|391:278|392:253,1,72
398,145,130344,2,0,P|346:155|321:154,1,72
204,140,130773,2,0,P|214:192|213:217,1,72
212,326,131201,2,0,P|264:316|289:317,1,72
401,330,131630,5,0,0:0:0:0:
421,262,131844,1,0,0:0:0:0:
401,330,132059,2,0,P|420:284|417:230,1,72
398,145,132487,1,0,0:0:0:0:
330,125,132701,1,0,0:0:0:0:
398,145,132916,2,0,P|352:126|298:129,1,72
212,326,133344,5,0,0:0:0:0:
204,140,133558,1,0,0:0:0:0:
280,346,133773,1,0,0:0:0:0:
184,208,133987,1,0,0:0:0:0:
212,326,134201,2,0,P|244:341|279:346,1,72
183,208,134630,2,0,P|187:172|203:140,1,72
293,233,135059,5,0,0:0:0:0:
384,262,135273,1,0,0:0:0:0:
465,231,135487,2,0,P|444:201|414:181,2,72
384,303,136130,2,0,P|380:351|383:392,1,72
296,334,136558,1,0,0:0:0:0:
202,373,136773,5,0,0:0:0:0:
233,206,136987,1,0,0:0:0:0:
180,292,137201,1,0,0:0:0:0:
92,240,137416,1,0,0:0:0:0:
294,262,137630,1,0,0:0:0:0:
294,262,137844,2,0,P|293:298|296:334,2,72
293,145,138487,5,0,0:0:0:0:
162,210,138701,1,0,0:0:0:0:
268,71,138917,1,0,0:0:0:0:
335,269,139131,1,0,0:0:0:0:
337,73,139345,1,0,0:0:0:0:
206,149,139559,1,0,0:0:0:0:
206,149,139773,1,0,0:0:0:0:
340,171,139986,1,0,0:0:0:0:
252,246,140201,5,0,0:0:0:0:
252,246,140416,1,0,0:0:0:0:
168,334,140630,1,0,0:0:0:0:
255,333,140844,1,0,0:0:0:0:
167,249,141059,2,0,P|135:232|99:230,1,72
252,246,141487,2,0,P|268:214|270:178,1,72
147,180,141916,5,0,0:0:0:0:
270,178,142130,5,0,0:0:0:0:
126,185,142344,1,0,0:0:0:0:
284,169,142558,1,0,0:0:0:0:
190,40,142773,1,0,0:0:0:0:
328,79,142987,2,0,P|379:128|380:198,1,144
431,284,143844,6,0,P|394:298|348:293,1,72
289,281,144273,1,0,0:0:0:0:
266,174,144487,1,0,0:0:0:0:
181,246,144701,2,0,P|130:294|129:364,1,144
129,364,145344,6,0,B|184:374|210:353|210:353|237:333|289:363,1,144
365,307,145987,2,0,B|390:254|368:212|368:212|299:248,1,144
262,350,146630,5,0,0:0:0:0:
234,342,146844,1,0,0:0:0:0:
184,348,147059,1,0,0:0:0:0:
67,243,147273,1,0,0:0:0:0:
217,194,147487,2,0,L|296:169,1,72
246,273,147916,1,0,0:0:0:0:
97,321,148130,1,0,0:0:0:0:
129,168,148344,2,0,L|146:87,1,72
239,75,148773,6,0,L|234:39,3,26.9999991760254
290,81,149201,2,0,L|303:47,3,26.9999991760254
334,111,149630,2,0,L|362:88,3,26.9999991760254
360,159,150059,2,0,L|396:154,3,26.9999991760254
359,214,150487,6,0,P|354:270|312:318,1,107.999996704102
251,226,151130,2,0,L|186:200,1,53.9999983520508
251,301,151559,2,0,L|187:325,1,53.9999983520508
87,268,151987,1,0,0:0:0:0:
87,268,152201,6,0,P|64:245|50:220,1,53.9999983520508
119,152,152630,2,0,L|126:205,1,53.9999983520508
208,152,153059,2,0,L|200:205,1,53.9999983520508
240,268,153488,2,0,P|258:247|272:225,1,53.9999983520508
336,159,153916,5,0,0:0:0:0:
439,99,154130,1,0,0:0:0:0:
439,217,154344,1,0,0:0:0:0:
334,117,154559,1,0,0:0:0:0:
476,117,154773,1,0,0:0:0:0:
405,240,154987,1,0,0:0:0:0:
355,72,155201,1,0,0:0:0:0:
503,158,155415,1,0,0:0:0:0:
422,316,155630,6,0,L|450:337,3,26.9999991760254
382,347,156058,2,0,L|396:380,3,26.9999991760254,0|0|0|0,0:0|0:0|0:0|0:0,0:0:0:0:
330,357,156487,2,0,L|326:393,3,26.9999991760254,0|0|0|0,0:0|0:0|0:0|0:0,0:0:0:0:
278,342,156916,2,0,L|256:370,3,26.9999991760254,0|0|0|0,0:0|0:0|0:0|0:0,0:0:0:0:
242,300,157344,2,0,P|192:283|142:301,1,107.999996704102
49,329,157987,2,0,L|37:270,1,53.9999983520508
153,248,158416,2,0,L|142:300,1,53.9999983520508
242,300,158844,5,0,0:0:0:0:
242,300,158951,1,0,0:0:0:0:
242,300,159059,2,0,L|294:310,3,53.9999983520508
387,280,159916,1,0,0:0:0:0:
387,280,160130,1,0,0:0:0:0:
401,184,160344,1,0,0:0:0:0:
325,91,160559,1,0,0:0:0:0:
221,149,160773,6,0,P|183:163|151:162,1,53.9999983520508
325,91,161201,1,0,0:0:0:0:
269,214,161416,2,0,P|231:228|199:227,1,53.9999983520508
372,156,161844,1,0,0:0:0:0:
317,279,162059,1,0,0:0:0:0:
325,91,162273,1,0,0:0:0:0:
421,221,162487,6,0,P|450:182|451:142,1,72
325,91,162916,1,0,0:0:0:0:
509,50,163130,1,0,0:0:0:0:
372,156,163344,5,0,0:0:0:0:
372,156,163558,1,0,0:0:0:0:
221,149,163773,1,0,0:0:0:0:
262,333,163987,1,0,0:0:0:0:
148,350,164201,6,0,P|83:362|10:320,1,144
198,201,164844,1,0,0:0:0:0:
113,135,165058,1,0,0:0:0:0:
98,242,165273,1,0,0:0:0:0:
223,274,165487,2,0,P|264:245|272:205,1,72
253,141,165916,5,0,0:0:0:0:
422,174,166130,1,0,0:0:0:0:
333,7,166344,1,0,0:0:0:0:
271,226,166559,1,0,0:0:0:0:
235,57,166773,2,0,P|191:52|145:65,1,72
235,57,167201,5,0,0:0:0:0:
271,226,167416,1,0,0:0:0:0:
422,174,167630,1,0,0:0:0:0:
256,157,168487,6,0,L|256:125,7,18
256,105,168916,2,0,L|256:73,7,18
235,57,169344,6,0,P|181:46|115:78,1,121.499996292114
90,108,169773,1,0,0:0:0:0:
306,157,169987,1,0,0:0:0:0:
144,278,170201,1,0,0:0:0:0:
187,133,170416,1,0,0:0:0:0:
436,92,170630,1,0,0:0:0:0:
274,77,170844,1,0,0:0:0:0:
379,16,171059,5,0,0:0:0:0:
203,42,171273,1,0,0:0:0:0:
347,94,171487,1,0,0:0:0:0:
368,237,171701,1,0,0:0:0:0:
335,329,171916,1,0,0:0:0:0:
335,329,172130,2,0,P|378:337|427:312,2,80.9999975280763
188,321,172773,6,0,B|145:298|94:318|94:318|104:259,1,121.499996292114
58,266,173201,1,0,0:0:0:0:
63,119,173416,2,0,P|111:111|168:121,1,80.9999975280763
247,176,173844,1,0,0:0:0:0:
227,30,174059,1,0,0:0:0:0:
364,78,174273,1,0,0:0:0:0:
247,176,174487,5,0,0:0:0:0:
209,266,174701,1,0,0:0:0:0:
286,264,174916,2,0,P|247:275|208:265,1,80.9999975280763
340,185,175344,5,0,0:0:0:0:
429,145,175559,1,0,0:0:0:0:
430,222,175773,2,0,P|440:184|429:145,1,80.9999975280763
188,63,176201,6,0,B|153:84|99:66|99:66|70:126,1,121.499996292114
97,139,176629,1,0,0:0:0:0:
43,248,176844,2,0,P|81:260|147:246,1,80.9999975280763
209,215,177272,1,0,0:0:0:0:
199,142,177487,1,0,0:0:0:0:
267,166,177701,1,0,0:0:0:0:
410,208,177916,6,0,P|427:143|390:88,1,121.499996292114
347,156,178344,2,0,L|262:166,1,80.9999975280763
244,310,178773,2,0,P|165:326|103:301,1,121.499996292114
145,236,179201,2,0,P|185:227|233:235,1,80.9999975280763
347,156,179630,6,0,P|301:100|212:86,1,161.999995056153
224,231,180273,1,0,0:0:0:0:
109,284,180487,2,0,P|155:340|244:354,1,161.999995056153
186,147,181344,6,0,P|166:151|147:159,1,40.4999987640381
322,147,181559,2,0,P|341:151|360:159,1,40.4999987640381
255,88,181773,2,0,L|255:47,1,40.4999987640381
256,229,181987,1,0,0:0:0:0:
256,229,182416,1,0,0:0:0:0:
109,284,182630,1,0,0:0:0:0:
99,250,182737,1,0,0:0:0:0:
99,219,182844,1,0,0:0:0:0:
106,187,182951,1,0,0:0:0:0:
115,155,183059,6,0,P|139:105|205:73,1,121.499996292114
244,68,183488,1,0,0:0:0:0:
307,199,183702,1,0,0:0:0:0:
115,155,183916,1,0,0:0:0:0:
285,151,184131,1,0,0:0:0:0:
99,250,184345,1,0,0:0:0:0:
293,246,184559,1,0,0:0:0:0:
196,74,184774,5,0,0:0:0:0:
211,249,184988,1,0,0:0:0:0:
293,74,185201,1,0,0:0:0:0:
293,246,185416,1,0,0:0:0:0:
366,148,185631,1,0,0:0:0:0:
366,148,185845,2,0,P|409:140|458:165,2,80.9999975280763
293,246,186487,6,0,L|277:86,1,121.499996292114
293,74,186916,1,0,0:0:0:0:
108,159,187131,2,0,P|153:176|197:213,1,80.9999975280763
280,125,187559,1,0,0:0:0:0:
170,73,187773,1,0,0:0:0:0:
179,194,187988,1,0,0:0:0:0:
289,243,188201,5,0,0:0:0:0:
308,203,188416,1,0,0:0:0:0:
305,159,188630,1,0,0:0:0:0:
280,125,188844,1,0,0:0:0:0:
179,194,189059,5,0,0:0:0:0:
146,310,189273,2,0,P|184:320|223:309,2,80.9999975280763
99,197,189916,2,0,P|128:128|199:117,1,121.499996292114
208,140,190344,2,0,P|247:149|286:139,1,80.9999975280763
319,48,190773,2,0,P|370:88|363:197,1,161.999995056153
252,281,191416,6,0,P|222:251|216:168,1,121.499996292114
245,138,191844,2,0,L|298:125,1,40.4999987640381
374,179,192059,2,0,L|318:193,1,40.4999987640381
102,145,192273,6,0,P|132:115|215:109,1,121.499996292114
245,138,192701,2,0,L|258:191,1,40.4999987640381
204,267,192916,2,0,L|190:211,1,40.4999987640381
143,316,193130,1,0,0:0:0:0:
259,340,193344,6,0,P|335:352|393:298,1,144
461,335,193987,1,0,0:0:0:0:
442,258,194201,2,0,P|436:161|437:110,1,144
269,67,195059,6,0,P|193:55|135:109,1,144
164,220,195701,2,0,P|259:200|308:186,1,144
390,199,196344,1,0,0:0:0:0:
377,284,196559,1,0,0:0:0:0:
291,272,196773,6,0,P|227:227|237:141,1,144
252,100,197416,2,0,P|253:44|249:21,2,72
153,124,198059,1,0,0:0:0:0:
91,203,198273,2,0,P|82:252|85:290,1,72
187,349,198701,2,0,P|196:300|193:262,1,72
291,272,199130,5,0,0:0:0:0:
325,149,199344,1,0,0:0:0:0:
370,268,199559,1,0,0:0:0:0:
263,198,199773,1,0,0:0:0:0:
391,192,199987,1,0,0:0:0:0:
391,192,200201,6,0,P|439:229|437:311,2,144
263,198,201273,1,0,0:0:0:0:
291,272,201487,1,0,0:0:0:0:
235,124,201701,1,0,0:0:0:0:
192,277,201916,6,0,P|175:321|172:357,1,72
313,176,202344,1,0,0:0:0:0:
155,188,202559,2,0,P|107:185|72:193,1,72
291,272,202988,1,0,0:0:0:0:
235,123,203202,1,0,0:0:0:0:
192,277,203416,1,0,0:0:0:0:
155,188,203630,6,0,P|135:116|157:61,1,108
170,47,204059,1,0,0:0:0:0:
333,107,204273,1,0,0:0:0:0:
239,193,204487,2,0,L|235:122,1,72
366,12,204916,1,0,0:0:0:0:
363,119,205130,6,0,P|372:168|369:206,1,72
248,264,205558,2,0,P|239:215|242:177,1,72
416,257,205987,2,0,P|381:271|345:265,1,72
248,264,206416,1,0,0:0:0:0:
175,310,206630,2,0,L|170:265,1,36
95,280,206845,5,0,0:0:0:0:
83,238,206952,1,0,0:0:0:0:
88,195,207059,2,0,P|96:145|98:110,2,72
95,280,207701,1,0,0:0:0:0:
239,193,207916,1,0,0:0:0:0:
218,173,208130,1,0,0:0:0:0:
239,152,208344,1,0,0:0:0:0:
259,173,208559,1,0,0:0:0:0:
241,265,208773,5,0,0:0:0:0:
241,80,208987,1,0,0:0:0:0:
146,175,209201,1,0,0:0:0:0:
331,175,209416,1,0,0:0:0:0:
241,80,209630,5,0,0:0:0:0:
241,265,209844,1,0,0:0:0:0:
264,292,209951,1,0,0:0:0:0:
293,312,210058,1,0,0:0:0:0:
327,325,210165,1,0,0:0:0:0:
363,328,210272,1,0,0:0:0:0:
398,322,210379,1,0,0:0:0:0:
431,307,210487,6,0,P|460:285|477:197,1,108
363,125,210916,1,0,0:0:0:0:
396,228,211130,1,0,0:0:0:0:
288,203,211344,2,0,P|234:201|209:189,1,72
267,74,211773,1,0,0:0:0:0:
363,125,211987,1,0,0:0:0:0:
297,236,212201,6,0,P|250:261|222:264,1,72
209,121,212630,1,0,0:0:0:0:
363,125,212844,1,0,0:0:0:0:
320,262,213059,6,0,P|292:307|269:323,1,72
144,287,213487,1,0,0:0:0:0:
209,121,213701,1,0,0:0:0:0:
320,262,213916,6,0,P|392:264|428:195,1,144
408,124,214559,1,0,0:0:0:0:
209,121,214773,2,0,P|236:72|272:53,1,72
359,204,215201,2,0,P|331:252|295:271,1,72
237,288,215630,5,0,0:0:0:0:
111,219,215844,1,0,0:0:0:0:
254,201,216059,1,0,0:0:0:0:
209,121,216273,2,0,P|222:66|252:39,1,72,0|0,0:0|0:0,0:0:0:0:
297,112,216701,2,0,P|338:148|349:187,2,72,0|0|0,0:0|0:0|0:0,0:0:0:0:
223,278,217344,6,0,P|155:274|109:206,1,144
126,132,217987,1,0,0:0:0:0:
230,54,218201,2,0,P|258:101|257:142,1,72
299,247,218630,2,0,P|243:252|207:234,1,72
41,200,219058,5,0,0:0:0:0:
188,110,219272,1,0,0:0:0:0:
229,248,219487,1,0,0:0:0:0:
119,154,219701,1,0,0:0:0:0:
297,112,219916,1,0,0:0:0:0:
360,249,220130,1,0,0:0:0:0:
426,172,220344,2,0,P|441:140|441:104,1,72
492,250,220773,6,0,P|430:274|352:241,1,144
237,288,221416,1,0,0:0:0:0:
111,219,221630,1,0,0:0:0:0:
254,201,221845,1,0,0:0:0:0:
150,299,222059,1,0,0:0:0:0:
176,157,222273,1,0,0:0:0:0:
300,120,222487,5,0,0:0:0:0:
265,108,222701,1,0,0:0:0:0:
265,72,222916,1,0,0:0:0:0:
300,61,223130,1,0,0:0:0:0:
321,90,223344,5,0,0:0:0:0:
258,180,223559,1,0,0:0:0:0:
153,144,223773,1,0,0:0:0:0:
153,35,223987,1,0,0:0:0:0:
258,180,224201,6,0,P|318:203|377:184,1,107.999996704102
454,216,224844,1,0,0:0:0:0:
385,284,225059,2,0,L|368:348,1,53.9999983520508
425,123,225487,6,0,P|414:59|368:17,2,107.999996704102
359,194,226559,1,0,0:0:0:0:
308,111,226773,2,0,P|265:128|245:128,1,53.9999983520508
150,136,227201,2,0,P|144:90|149:70,1,53.9999983520508
211,217,227630,6,0,P|162:238|110:230,2,107.999996704102
268,296,228701,1,0,0:0:0:0:
395,250,228916,1,0,0:0:0:0:
268,296,229130,1,0,0:0:0:0:
263,145,229344,6,0,P|261:108|250:75,1,53.9999983520508
211,217,229773,1,0,0:0:0:0:
335,197,229987,2,0,P|372:195|405:184,1,53.9999983520508
263,145,230416,1,0,0:0:0:0:
283,269,230630,6,0,P|285:306|296:339,1,53.9999983520508
263,145,231059,2,0,B|264:106|259:70|259:32,2,107.999996704102
211,217,232130,1,0,0:0:0:0:
99,258,232344,6,0,L|96:197,1,53.9999983520508
263,145,232773,2,0,P|296:193|293:252,1,107.999996704102
275,319,233416,1,0,0:0:0:0:
156,330,233630,2,0,P|113:311|99:297,1,53.9999983520508
170,218,234059,2,0,P|215:212|235:217,1,53.9999983520508
313,155,234487,6,0,P|344:112|346:58,2,107.999996704102
205,139,235559,1,0,0:0:0:0:
131,181,235773,2,0,P|147:203|170:218,1,53.9999983520508
275,319,236201,2,0,P|299:271|294:218,1,107.999996704102
205,139,236844,5,0,0:0:0:0:
21,191,237058,1,0,0:0:0:0:
200,254,237273,1,0,0:0:0:0:
97,95,237487,2,0,P|99:58|110:24,1,53.9999983520508
205,139,237916,2,0,B|257:161|318:135,2,107.999996704102
200,254,238987,1,0,0:0:0:0:
97,95,239201,5,0,0:0:0:0:
87,284,239416,1,0,0:0:0:0:
200,254,239630,2,0,P|228:254|258:258,1,53.9999983520508
372,245,240059,1,0,0:0:0:0:
300,150,240273,1,0,0:0:0:0:
416,174,240487,2,0,P|458:192|472:206,1,53.9999983520508
414,330,240916,2,0,P|368:323|350:313,1,53.9999983520508
253,257,241344,5,0,0:0:0:0:
58,171,241559,1,0,0:0:0:0:
253,86,241773,1,0,0:0:0:0:
58,257,241987,5,0,0:0:0:0:
253,171,242202,1,0,0:0:0:0:
58,86,242416,1,0,0:0:0:0:
253,257,242630,5,0,0:0:0:0:
253,86,242844,1,0,0:0:0:0:
58,171,243059,1,0,0:0:0:0:
175,315,243809,6,0,P|173:333|226:327,1,94.4999971160889
249,302,244666,6,0,L|272:294,2,13.4999995880127
145,80,246380,6,0,L|126:64,2,13.4999995880127
389,101,248094,6,0,L|412:93,2,13.4999995880127
174,194,249809,6,0,L|151:202,2,13.4999995880127
145,80,250987,5,0,0:0:0:0:
388,100,251201,1,0,0:0:0:0:
249,301,251416,1,0,0:0:0:0:
229,167,251630,6,0,P|207:108|126:81,1,135
123,190,252059,2,0,P|70:203|31:191,1,90
114,304,252487,1,0,0:0:0:0:
229,167,252701,1,0,0:0:0:0:
36,194,252916,1,0,0:0:0:0:
161,250,253131,1,0,0:0:0:0:
178,97,253344,5,0,0:0:0:0:
355,139,253559,1,0,0:0:0:0:
249,252,253773,5,0,0:0:0:0:
349,52,253987,1,0,0:0:0:0:
426,294,254201,5,0,0:0:0:0:
229,167,254416,1,0,0:0:0:0:
256,345,254630,5,0,0:0:0:0:
375,224,254844,1,0,0:0:0:0:
178,97,255059,2,0,P|146:140|185:240,1,135
166,269,255487,2,0,B|192:287|192:287|260:282,1,90
280,90,255916,5,0,0:0:0:0:
426,294,256130,1,0,0:0:0:0:
256,345,256344,1,0,0:0:0:0:
256,345,256451,1,0,0:0:0:0:
256,345,256559,1,0,0:0:0:0:
165,155,256773,6,0,P|138:160|113:170,1,45
345,155,256988,2,0,P|370:160|395:170,1,45
256,76,257202,2,0,L|256:21,1,45
256,255,257416,1,0,0:0:0:0:
256,300,257844,1,0,0:0:0:0:
256,345,258059,2,0,L|256:248,1,90
165,155,258487,6,0,P|83:124|79:61,1,135
85,41,258916,1,0,0:0:0:0:
226,28,259130,1,0,0:0:0:0:
302,104,259344,2,0,P|309:148|309:193,1,90
201,295,259773,2,0,P|245:302|290:302,1,90
165,155,260201,5,0,0:0:0:0:
309,193,260416,1,0,0:0:0:0:
201,295,260630,5,0,0:0:0:0:
302,104,260844,1,0,0:0:0:0:
276,277,261058,5,0,0:0:0:0:
379,142,261273,1,0,0:0:0:0:
351,283,261487,5,0,0:0:0:0:
444,197,261702,1,0,0:0:0:0:
302,104,261916,6,0,P|246:80|175:150,1,135
165,155,262344,2,0,B|157:179|157:179|168:248,1,90
263,292,262773,5,0,0:0:0:0:
387,162,262987,1,0,0:0:0:0:
373,271,263201,1,0,0:0:0:0:
289,100,263416,1,0,0:0:0:0:
263,292,263630,2,0,P|223:325|160:318,1,90
84,363,264059,2,0,P|75:311|112:260,1,90
114,173,264487,1,0,0:0:0:0:
183,221,264701,6,0,P|156:186|114:173,2,90
263,292,265344,2,0,P|327:296|384:255,1,135
342,186,265773,2,0,P|292:187|260:209,1,90
136,212,266201,1,0,0:0:0:0:
91,212,266416,1,0,0:0:0:0:
114,173,266630,1,0,0:0:0:0:
202,131,266844,6,0,P|139:83|52:101,1,161.999995056153
22,131,267273,1,0,0:0:0:0:
114,287,267487,1,0,0:0:0:0:
297,287,267701,6,0,P|360:335|447:317,1,161.999995056153
477,287,268130,1,0,0:0:0:0:
385,131,268344,1,0,0:0:0:0:
297,287,268559,1,0,0:0:0:0:
168,327,268773,6,0,P|158:283|172:241,1,90
93,168,269201,2,0,P|144:131|184:131,1,90
197,24,269630,2,0,P|254:50|274:84,1,90
371,35,270059,2,0,P|377:98|356:132,1,90
359,240,270487,5,0,0:0:0:0:
172,241,270701,1,0,0:0:0:0:
268,70,271130,6,0,B|310:94|370:91|370:91|370:111|366:127,1,135
342,168,271559,1,0,0:0:0:0:
172,241,271773,1,0,0:0:0:0:
359,240,271987,1,0,0:0:0:0:
230,304,272201,5,0,0:0:0:0:
268,70,272415,1,0,0:0:0:0:
131,144,272630,5,0,0:0:0:0:
367,120,272844,1,0,0:0:0:0:
182,194,273059,5,0,0:0:0:0:
383,209,273273,1,0,0:0:0:0:
210,259,273487,5,0,0:0:0:0:
376,301,273701,1,0,0:0:0:0:
150,311,273916,5,0,0:0:0:0:
316,269,274130,1,0,0:0:0:0:
143,219,274344,5,0,0:0:0:0:
344,204,274558,1,0,0:0:0:0:
260,123,274773,5,0,0:0:0:0:
233,346,274987,1,0,0:0:0:0:
157,125,275201,5,0,0:0:0:0:
393,149,275415,1,0,0:0:0:0:
233,346,275630,5,0,0:0:0:0:
256,192,279059,12,0,280666,0:0:0:0:
106,123,280773,6,0,P|164:127|231:94,1,107.999996704102
261,94,281094,6,0,P|319:90|386:123,1,107.999996704102
404,144,281416,1,0,0:0:0:0:
394,283,281630,6,0,P|346:296|320:296,1,53.9999983520508
279,212,281844,2,0,P|231:198|205:198,1,53.9999983520508
92,195,282058,2,0,P|104:242|117:265,1,53.9999983520508
162,370,282273,2,0,P|197:335|210:312,1,53.9999983520508
279,212,282487,6,0,B|326:188|370:216|370:216|401:207|427:177,1,135
404,144,282916,2,0,P|402:85|376:41,1,90
282,40,283344,2,0,P|245:66|202:76,1,90
121,148,283773,2,0,P|157:174|200:184,1,90
336,159,284201,5,0,0:0:0:0:
439,99,284415,1,0,0:0:0:0:
439,217,284629,1,0,0:0:0:0:
334,117,284844,1,0,0:0:0:0:
476,117,285058,1,0,0:0:0:0:
405,240,285272,1,0,0:0:0:0:
355,72,285486,5,0,0:0:0:0:
503,158,285700,1,0,0:0:0:0:
355,247,285916,2,0,P|348:300|354:348,1,90
457,158,286344,1,0,0:0:0:0:
457,158,286559,1,0,0:0:0:0:
283,203,286773,2,0,P|240:235|210:273,1,90
408,158,287201,1,0,0:0:0:0:
408,158,287416,1,0,0:0:0:0:
269,121,287630,6,0,P|224:112|183:94,1,90
141,235,288059,2,0,P|136:190|121:147,1,90
283,203,288487,2,0,P|240:235|210:273,1,90
183,94,288916,1,0,0:0:0:0:
380,89,289130,1,0,0:0:0:0:
388,234,289344,6,0,B|399:279|382:323|382:323|355:310|338:291,1,121.499996292114
307,300,289773,2,0,P|266:315|216:314,1,80.9999975280763
