osu file format v14

[General]
AudioFilename: audio.mp3
AudioLeadIn: 0
PreviewTime: -1
Countdown: 1
SampleSet: None
StackLeniency: 0.7
Mode: 0
LetterboxInBreaks: 0
WidescreenStoryboard: 0

[Editor]
DistanceSpacing: 1
BeatDivisor: 8
GridSize: 8
TimelineZoom: 1

[Metadata]
Title:rabi ribi.
TitleUnicode:rabi ribi.
Artist:!
ArtistUnicode:!
Creator:dfsgh75659
Version:Insane
Source:
Tags:
BeatmapID:1114817
BeatmapSetID:525293

[Difficulty]
HPDrainRate:6
CircleSize:2
OverallDifficulty:8
ApproachRate:9
SliderMultiplier:3.59999990463257
SliderTickRate:1

[Events]
//Background and Video events
//Break Periods
//Storyboard Layer 0 (Background)
//Storyboard Layer 1 (Fail)
//Storyboard Layer 2 (Pass)
//Storyboard Layer 3 (Foreground)
//Storyboard Sound Samples

[TimingPoints]
25815.4948453608,60.00006000006,4,1,0,100,1,0

[HitObjects]
240,184,10230,5,0,0:0:0:0:
240,184,10237,1,0,0:0:0:0:
240,184,10245,1,0,0:0:0:0:
240,184,10252,1,0,0:0:0:0:
240,184,10260,1,0,0:0:0:0:
240,184,10267,1,0,0:0:0:0:
288,200,10275,1,0,0:0:0:0:
288,200,10282,1,0,0:0:0:0:
240,184,10290,1,0,0:0:0:0:
288,200,10297,1,0,0:0:0:0:
256,168,10305,1,0,0:0:0:0:
272,128,10312,1,0,0:0:0:0:
272,128,10320,1,0,0:0:0:0:
312,152,10327,1,0,0:0:0:0:
312,152,10335,1,0,0:0:0:0:
320,192,10342,1,0,0:0:0:0:
288,200,10350,1,0,0:0:0:0:
288,200,10357,1,0,0:0:0:0:
240,184,10365,1,0,0:0:0:0:
240,184,10372,1,0,0:0:0:0:
288,176,10380,1,0,0:0:0:0:
312,152,10387,1,0,0:0:0:0:
272,128,10395,1,0,0:0:0:0:
272,128,10402,1,0,0:0:0:0:
320,192,10410,1,0,0:0:0:0:
320,192,10417,1,0,0:0:0:0:
272,184,10425,1,0,0:0:0:0:
240,208,10432,1,0,0:0:0:0:
256,256,10440,1,0,0:0:0:0:
296,272,10447,1,0,0:0:0:0:
296,272,10455,1,0,0:0:0:0:
280,232,10462,1,0,0:0:0:0:
288,200,10470,1,0,0:0:0:0:
288,200,10477,1,0,0:0:0:0:
288,200,10485,1,0,0:0:0:0:
320,192,10492,1,0,0:0:0:0:
320,192,10500,1,0,0:0:0:0:
320,192,10507,1,0,0:0:0:0:
320,192,10515,1,0,0:0:0:0:
360,192,10522,1,0,0:0:0:0:
360,192,10530,1,0,0:0:0:0:
360,192,10537,1,0,0:0:0:0:
360,192,10545,1,0,0:0:0:0:
360,192,10552,1,0,0:0:0:0:
360,192,10560,1,0,0:0:0:0:
352,232,10567,1,0,0:0:0:0:
352,232,10575,1,0,0:0:0:0:
352,232,10582,1,0,0:0:0:0:
352,232,10590,1,0,0:0:0:0:
352,232,10597,1,0,0:0:0:0:
256,256,10612,1,0,0:0:0:0:
256,256,10620,1,0,0:0:0:0:
216,240,10627,1,0,0:0:0:0:
216,240,10635,1,0,0:0:0:0:
176,240,10642,1,0,0:0:0:0:
176,240,10650,1,0,0:0:0:0:
136,216,10657,1,0,0:0:0:0:
136,216,10665,1,0,0:0:0:0:
144,176,10672,1,0,0:0:0:0:
144,176,10680,1,0,0:0:0:0:
144,136,10687,1,0,0:0:0:0:
168,96,10695,1,0,0:0:0:0:
200,72,10702,1,0,0:0:0:0:
264,192,10725,1,0,0:0:0:0:
248,152,10732,1,0,0:0:0:0:
216,120,10740,1,0,0:0:0:0:
168,96,10747,1,0,0:0:0:0:
168,96,10755,1,0,0:0:0:0:
184,136,10762,1,0,0:0:0:0:
208,176,10770,1,0,0:0:0:0:
240,184,10777,1,0,0:0:0:0:
240,184,10785,1,0,0:0:0:0:
240,184,10792,1,0,0:0:0:0:
280,160,10800,1,0,0:0:0:0:
280,160,10807,1,0,0:0:0:0:
280,160,10815,1,0,0:0:0:0:
272,128,10822,1,0,0:0:0:0:
312,152,10830,1,0,0:0:0:0:
304,112,10837,1,0,0:0:0:0:
304,112,10845,1,0,0:0:0:0:
304,112,10852,1,0,0:0:0:0:
272,128,10860,1,0,0:0:0:0:
304,112,10867,1,0,0:0:0:0:
304,112,10875,1,0,0:0:0:0:
344,128,10882,1,0,0:0:0:0:
376,168,10890,1,0,0:0:0:0:
376,168,10897,1,0,0:0:0:0:
376,168,10905,1,0,0:0:0:0:
360,192,10912,1,0,0:0:0:0:
336,232,10920,1,0,0:0:0:0:
328,272,10927,1,0,0:0:0:0:
360,312,10935,1,0,0:0:0:0:
360,312,10942,1,0,0:0:0:0:
384,272,10950,1,0,0:0:0:0:
408,240,10957,1,0,0:0:0:0:
400,192,10965,1,0,0:0:0:0:
288,200,10972,1,0,0:0:0:0:
240,208,10980,1,0,0:0:0:0:
256,256,10987,1,0,0:0:0:0:
224,288,10995,1,0,0:0:0:0:
112,216,11017,1,0,0:0:0:0:
144,176,11025,1,0,0:0:0:0:
144,176,11032,1,0,0:0:0:0:
144,136,11040,1,0,0:0:0:0:
184,152,11047,1,0,0:0:0:0:
224,176,11055,1,0,0:0:0:0:
264,192,11062,1,0,0:0:0:0:
288,200,11070,1,0,0:0:0:0:
240,184,11077,1,4,0:0:0:0:
240,208,11085,1,4,0:0:0:0:
288,200,11092,1,4,0:0:0:0:
288,200,11100,1,4,0:0:0:0:
320,192,11107,1,4,0:0:0:0:
288,200,11115,1,4,0:0:0:0:
248,192,11122,1,4,0:0:0:0:
200,192,11130,1,4,0:0:0:0:
200,192,11137,1,0,0:0:0:0:
280,232,11145,1,0,0:0:0:0:
320,216,11152,1,0,0:0:0:0:
320,192,11160,1,0,0:0:0:0:
280,176,11167,1,0,0:0:0:0:
240,184,11175,1,0,0:0:0:0:
208,176,11182,1,0,0:0:0:0:
200,192,11190,1,0,0:0:0:0:
216,240,11197,1,0,0:0:0:0:
256,256,11205,1,0,0:0:0:0:
296,272,11212,1,0,0:0:0:0:
360,192,11220,1,0,0:0:0:0:
360,192,11227,1,0,0:0:0:0:
312,152,11235,1,0,0:0:0:0:
272,136,11242,1,0,0:0:0:0:
200,72,11250,1,0,0:0:0:0:
208,112,11257,1,2,0:0:0:0:
232,152,11265,1,2,0:0:0:0:
280,232,11272,1,2,0:0:0:0:
336,232,11280,1,2,0:0:0:0:
320,192,11287,1,2,0:0:0:0:
312,152,11295,1,2,0:0:0:0:
272,128,11302,1,2,0:0:0:0:
184,136,11310,1,2,0:0:0:0:
168,176,11317,1,2,0:0:0:0:
184,224,11325,1,0,0:0:0:0:
224,288,11332,1,0,0:0:0:0:
256,256,11340,1,0,0:0:0:0:
280,232,11347,1,0,0:0:0:0:
280,232,11355,1,0,0:0:0:0:
352,232,11362,1,0,0:0:0:0:
336,232,11370,1,0,0:0:0:0:
384,272,11377,1,0,0:0:0:0:
352,232,11392,1,8,0:0:0:0:
304,240,11400,1,8,0:0:0:0:
360,192,11407,1,8,0:0:0:0:
360,192,11415,1,8,0:0:0:0:
312,152,11422,1,8,0:0:0:0:
280,120,11430,1,8,0:0:0:0:
256,88,11437,1,0,0:0:0:0:
256,88,11445,1,0,0:0:0:0:
256,88,11452,1,0,0:0:0:0:
256,88,11460,1,0,0:0:0:0:
296,72,11467,1,0,0:0:0:0:
296,72,11475,1,0,0:0:0:0:
336,96,11482,1,0,0:0:0:0:
336,96,11490,1,0,0:0:0:0:
336,96,11497,1,0,0:0:0:0:
336,96,11505,1,0,0:0:0:0:
336,96,11512,1,0,0:0:0:0:
344,128,11520,1,0,0:0:0:0:
344,128,11527,1,0,0:0:0:0:
344,128,11535,1,0,0:0:0:0:
344,128,11542,1,0,0:0:0:0:
344,128,11550,1,0,0:0:0:0:
344,128,11565,1,0,0:0:0:0:
344,128,11572,1,0,0:0:0:0:
344,128,11580,1,0,0:0:0:0:
344,128,11587,1,0,0:0:0:0:
344,128,11610,1,0,0:0:0:0:
344,128,11617,1,0,0:0:0:0:
344,128,11632,1,0,0:0:0:0:
344,128,11647,1,0,0:0:0:0:
344,128,11655,1,0,0:0:0:0:
344,128,11670,1,0,0:0:0:0:
344,128,11677,1,0,0:0:0:0:
344,128,11685,1,0,0:0:0:0:
344,128,11700,1,0,0:0:0:0:
344,128,11707,1,0,0:0:0:0:
344,128,11722,1,0,0:0:0:0:
344,128,11737,1,0,0:0:0:0:
344,128,11752,1,0,0:0:0:0:
344,128,11760,1,0,0:0:0:0:
344,128,11775,1,0,0:0:0:0:
344,128,11790,1,0,0:0:0:0:
344,128,11797,1,0,0:0:0:0:
344,128,11805,1,0,0:0:0:0:
288,200,11820,1,0,0:0:0:0:
240,208,11827,1,0,0:0:0:0:
152,200,11842,2,0,B|216:144|248:168|264:304|304:264|248:120|232:80,7,269.999992847443
168,152,12337,1,0,0:0:0:0:
184,136,12352,1,0,0:0:0:0:
256,88,12367,1,0,0:0:0:0:
296,72,12382,1,0,0:0:0:0:
296,72,12397,1,0,0:0:0:0:
216,104,12412,1,0,0:0:0:0:
232,112,12427,1,0,0:0:0:0:
312,152,12442,5,0,0:0:0:0:
400,128,12457,1,0,0:0:0:0:
352,136,12465,1,0,0:0:0:0:
264,160,12480,1,0,0:0:0:0:
144,216,12502,1,0,0:0:0:0:
48,216,12517,5,0,0:0:0:0:
96,208,12525,1,0,0:0:0:0:
224,168,12532,5,0,0:0:0:0:
96,296,12570,1,0,0:0:0:0:
136,288,12577,1,0,0:0:0:0:
224,256,12592,1,0,0:0:0:0:
288,200,12607,1,0,0:0:0:0:
384,104,12630,1,0,0:0:0:0:
224,168,12990,1,0,0:0:0:0:
224,168,13005,1,0,0:0:0:0:
168,152,13027,1,0,0:0:0:0:
128,24,13050,1,0,0:0:0:0:
168,104,13065,1,0,0:0:0:0:
168,104,13080,1,0,0:0:0:0:
256,88,13102,1,0,0:0:0:0:
296,72,13117,1,0,0:0:0:0:
384,72,13132,1,0,0:0:0:0:
384,104,13147,1,0,0:0:0:0:
256,192,13245,12,0,13252,0:0:0:0:
256,192,13260,12,0,13267,0:0:0:0:
256,192,13267,12,0,13282,0:0:0:0:
256,192,13290,12,0,13305,0:0:0:0:
256,192,13320,12,0,13327,0:0:0:0:
256,192,13342,12,0,13350,0:0:0:0:
256,192,13365,12,0,13380,0:0:0:0:
256,192,13387,12,0,13410,0:0:0:0:
256,192,13410,12,0,13432,0:0:0:0:
256,192,13440,12,0,13455,0:0:0:0:
256,192,13462,12,0,13477,0:0:0:0:
256,192,13492,12,0,13500,0:0:0:0:
256,192,13515,12,0,13530,0:0:0:0:
256,192,13537,12,0,13552,0:0:0:0:
256,192,13560,12,0,13575,0:0:0:0:
256,192,13582,12,0,13597,0:0:0:0:
256,192,13612,12,0,13620,0:0:0:0:
256,192,13635,12,0,13642,0:0:0:0:
256,192,13657,12,0,13672,0:0:0:0:
256,192,13687,12,0,13695,0:0:0:0:
256,192,13702,12,0,13717,0:0:0:0:
256,192,13732,12,0,13747,0:0:0:0:
256,192,13755,12,0,13770,0:0:0:0:
256,192,13777,12,0,13792,0:0:0:0:
256,192,13800,12,0,13822,0:0:0:0:
256,192,13830,12,0,13875,0:0:0:0:
40,24,14062,5,0,0:0:0:0:
8,352,14137,1,0,0:0:0:0:
464,352,14227,1,0,0:0:0:0:
472,32,14280,1,0,0:0:0:0:
40,24,14332,1,0,0:0:0:0:
8,352,14385,1,0,0:0:0:0:
464,352,14445,1,0,0:0:0:0:
472,32,14482,1,0,0:0:0:0:
40,24,14505,1,0,0:0:0:0:
8,352,14542,1,0,0:0:0:0:
464,352,14587,1,0,0:0:0:0:
472,32,14617,1,0,0:0:0:0:
40,24,14655,1,0,0:0:0:0:
8,352,14692,1,0,0:0:0:0:
464,352,14745,1,0,0:0:0:0:
472,32,14790,1,0,0:0:0:0:
40,24,14842,1,0,0:0:0:0:
8,352,14872,1,0,0:0:0:0:
