Вопросы и проблемы

posted
Total Posts
11,677
show more
h3k1ru

SilverOne wrote:

на планшете... *мини аимбот*... мне не приходится точно в цель наводить, само наводится, такие дела.
дайте две

по теме:

1. не использовать режим мыши (зачем тебе тогда вообще планшет?)
2. снять галку Enable mouse precision mode в настройках осу
SilverOne
1. не удобно, очень не удобно -_-
2. по умолчанию выключен
3. ????
4. не помогло
Gordon_Freeman0
Аппаратный не палящийся чит, круто.

h3k1ru wrote:

дайте две
senaya

SilverOne wrote:

1. не удобно, очень не удобно -_-
2. по умолчанию выключен
3. ????
4. не помогло
играй мышью же :P
MarKKaM
А я бы радовался, если бы у меня авто аим был :P
SilverOne
хорошего тут мало. не удобно же.
неужто больше идей нет?
PackegerX
Нужна помощь по созданию карты, не могу залить видео в битмап, кидаю его как бэкграунд(фон), видео формата *.flv , может быть надо как-то по-другому? или формат не подходит?
Сконвертировать не могу, пробовал разные конверторы, может, подскажите один нормальный, который может конвертить из flv в AVI или mp4? Подскажите, пожалуйста, что я делаю не так?
Параметры видео
General
Complete name : C:\Users\Infarnoy\Desktop\enemy.flv
Format : Flash Video
File size : 10.3 MiB
Duration : 4mn 10s
Overall bit rate : 345 Kbps
httphostheader : o-o.preferred.comstar-svo1.v4.lscache4.c.youtube.com

Video
Format : AVC
Format/Info : Advanced Video Codec
Format profile : Main@L3.0
Format settings, CABAC : Yes
Format settings, ReFrames : 3 frames
Codec ID : 7
Duration : 4mn 10s
Bit rate : 213 Kbps
Width : 640 pixels
Height : 480 pixels
Display aspect ratio : 4:3
Frame rate mode : Constant
Frame rate : 30.000 fps
Color space : YUV
Chroma subsampling : 4:2:0
Bit depth : 8 bits
Scan type : Progressive
Bits/(Pixel*Frame) : 0.023
Stream size : 6.35 MiB (61%)

Audio
Format : AAC
Format/Info : Advanced Audio Codec
Format profile : LC
Codec ID : 10
Duration : 4mn 11s
Bit rate : 124 Kbps
Channel(s) : 2 channels
Channel positions : Front: L R
Sampling rate : 44.1 KHz
Compression mode : Lossy
Stream size : 3.72 MiB (36%)
PackegerX

Nekomimi_badik wrote:

TKiller wrote:

alt+Enter
я пробовал чото нихуя =\
нужно сам клиент в полный режим перевести в опциях вначале ставишь полный режим и заходишь в едит. а если ты хочешь из едит-режима то никак, нет горячей клавиши
Gordon_Freeman0

PackegerX wrote:

может, подскажите один нормальный, который может конвертить из flv в AVI или mp4?
Format Factory
PackegerX

Gordon_Freeman0 wrote:

PackegerX wrote:

может, подскажите один нормальный, который может конвертить из flv в AVI или mp4?
Format Factory
спасибо большое, хорошая прога.
Nekomimi_badik

PackegerX wrote:

нужно сам клиент в полный режим перевести в опциях вначале ставишь полный режим и заходишь в едит. а если ты хочешь из едит-режима то никак, нет горячей клавиши
когда в игре полный заходишь в эдит делает окно.
stalkerscar
у меня вот вопрос...
как можно набрать 705 миллионов очков на ИЗИ карте с 33 комбо?
http://osu.ppy.sh/b/3516&m=0
германец смог
snimai_oblizhu

stalkerscar wrote:

у меня вот вопрос...
как можно набрать 705 миллионов очков на ИЗИ карте с 33 комбо?
http://osu.ppy.sh/b/3516&m=0
германец смог
Читанул, да.
Aleksart

stalkerscar wrote:

у меня вот вопрос...
как можно набрать 705 миллионов очков на ИЗИ карте с 33 комбо?
http://osu.ppy.sh/b/3516&m=0
германец смог
Нихуёво спиннер наверно крутанул, на 705кк, да
Ну и макс 39 комбо было у него =/
tentaql

stalkerscar wrote:

у меня вот вопрос...
как можно набрать 705 миллионов очков на ИЗИ карте с 33 комбо?
http://osu.ppy.sh/b/3516&m=0
германец смог
Порой мне хочется сделать также. Я за полгода только половину набрал.
Меня всегда интересовало: почему почти всегда читеры играют на изи и почему они совершают такие глупые ошибки?
***
Дабы сообщение не было флудом, спрошу: где можно достать курсор из стандартного скина?
senaya

tentaql wrote:

Дабы сообщение не было флудом, спрошу: где можно достать курсор из стандартного скина?
не поверишь.. скачай стандартный скин и ну ты понел(с)
tentaql
Откуда? ._.
Aleks719

tentaql wrote:

Откуда? ._.
в папке осу есть файл osume.exe
запускаешь его.вкладка extras. он там предложит сдуть скинов, там выбираешь template скин. загружешь. идешь в папку осу, ишешь там папку skins, тебе туда, там папка templateskin. заходишь, копируешь оттуда курсор, перемещаешь в папку своего скина. все.
tentaql
Мда. Это я и так знаю. Открою вам большой секрет:
senaya
сюда, коли луиджи не обманывает.
добраться до дефолт крусора можно никак.
show more
Please sign in to reply.

New reply