osu file format v5

[General]
AudioFilename: kero9 destiny.mp3
AudioLeadIn: 0
PreviewTime: -1
Countdown: 1
SampleSet: Normal
StackLeniency: 0.7
Mode: 0

[Metadata]
Title:TAG kero 9 destiny
Artist:zun
Creator:zhou317432
Version:Normal

[Difficulty]
HPDrainRate:5
CircleSize:5
OverallDifficulty:5
SliderMultiplier:1.6
SliderTickRate:4

[Events]
//Background and Video events
1,0,"kero9 destin.avi"
//Break Periods
2,72749,76930
2,128557,131342
2,172854,180871
//Storyboard Layer 0 (Background)
//Storyboard Layer 1 (Failing)
//Storyboard Layer 2 (Passing)
//Storyboard Layer 3 (Foreground)
//Storyboard Sound Samples
//Background Colour Transformations
3,100,128,128,255

[TimingPoints]
0,697.59330310429,4,1,0,100

[HitObjects]
160,224,11161,2,0,B|480:192,1,160
352,224,12556,5,0
288,256,13254,1,0
224,288,13951,1,0
160,288,14649,1,0
128,224,15347,6,0,B|288:160|288:160|352:160,1,160
288,96,16742,5,0
224,96,17439,1,0
160,96,18137,1,0
96,96,18835,1,0
96,128,19532,1,0
96,160,20230,1,0
96,192,20927,2,0,B|288:256|320:256,1,160
256,128,22322,5,0
192,64,23020,1,0
96,64,23718,1,0
96,160,24415,1,0
160,224,25113,1,0
256,256,25810,1,0
256,256,26508,6,0,B|96:352,1,160
256,352,27903,1,0
352,352,28601,1,0
416,288,29298,1,0
384,224,29996,1,0
352,160,30694,1,0
288,128,31391,1,0
244,82,32089,2,0,B|325:233,1,160
320,224,32786,6,0,B|188:224|188:224|188:88|188:88|348:87|348:87|348:348|348:348|160:347|160:347|160:396|160:396|44:279|44:279|46:82|46:82|174:-10|174:-10|372:-10|372:-10|498:112|498:112|499:272|499:272|416:389|416:389|181:392|181:392|189:390,1,2360
184,392,43250,5,0
163,292,43948,1,0
128,192,44645,5,0
128,128,45343,1,0
192,128,46041,1,0
256,128,46738,1,0
320,128,47436,1,0
384,128,48133,1,0
448,128,48831,2,0,B|448:320,1,160
384,288,50226,5,0
320,288,50924,1,0
256,288,51621,1,0
192,288,52319,1,0
128,288,53017,1,0
64,288,53714,1,0
64,224,54412,2,0,B|64:32,1,160
160,64,55807,5,0
224,128,56505,1,0
288,192,57202,1,0
352,256,57900,1,0
224,128,58597,1,0
224,128,59295,2,0,B|352:256|352:256|224:320,1,320
128,320,61388,5,0
64,320,62085,1,0
64,256,62783,1,0
64,192,63480,1,0
64,128,64178,1,0
64,64,64876,1,0
64,320,65573,2,0,B|224:192,1,160
177,192,66968,6,0,B|362:191,3,160
384,224,69759,5,0
384,160,70456,1,0
384,96,71154,1,0
315,136,71852,1,0
255,190,72549,1,4
32,64,78130,5,0
32,192,78828,1,0
128,128,79525,1,0
192,256,80223,1,0
224,128,80920,1,0
96,64,81618,1,0
128,64,82316,2,0,B|352:64,1,160
288,128,83478,5,0
288,160,83711,1,0
288,224,84408,1,0
288,288,85106,1,0
352,288,85803,1,0
416,288,86501,2,0,B|416:32,1,160
358,119,87896,5,2
358,119,88129,2,2,B|360:216,2,53.3333333333333
285,120,89291,6,2,B|71:96,1,160
66,145,90687,1,2
154,202,91384,1,2
251,221,92082,1,2
363,228,92779,1,2
370,321,93477,2,2,B|368:102,1,160
315,117,94872,6,0,B|133:193,1,160
192,256,96267,1,0
128,320,96965,1,0
32,320,97663,1,0
32,224,98360,1,0
32,128,99058,2,0,B|384:128|320:320|384:320,1,320
192,256,101151,5,0
96,256,101848,1,0
32,320,102546,1,0
128,352,103243,1,0
224,352,103941,1,0
224,352,104638,2,0,B|416:160,1,160
320,160,106034,5,0
224,160,106731,1,0
128,160,107429,1,0
32,160,108126,1,0
32,64,108824,1,0
128,64,109522,1,0
224,64,110219,2,0,B|256:128,3,53.3333333333333
320,224,111614,5,0
224,256,112312,1,0
128,224,113010,1,0
64,160,113707,1,0
128,96,114405,1,0
192,160,115102,1,0
224,256,115800,2,0,B|384:160|288:320|288:288,1,160
256,320,117195,6,0,B|384:192|512:256,1,160
391,239,117893,1,0
416,128,118590,1,0
352,64,119288,1,0
256,64,119986,1,0
192,128,120683,1,0
224,128,121381,2,0,B|256:128,6,26.6666666666667
60,64,122776,5,4
122,64,123125,1,4
187,66,123474,1,4
251,68,123822,1,4
316,70,124171,1,4
384,72,124520,1,4
448,74,124869,1,4
445,318,125566,5,4
380,319,125915,1,4
315,322,126264,1,4
248,321,126613,1,4
184,321,126961,1,4
118,320,127310,1,4
51,318,127659,1,4
256,160,128357,5,0
416,64,132542,5,0
384,64,132658,1,0
352,64,132775,1,0
320,64,132891,1,0
288,64,133007,1,0
256,64,133124,1,0
224,64,133240,1,0
192,64,133356,1,0
160,64,133472,1,0
128,64,133589,1,0
96,64,133705,1,0
64,64,133821,1,0
64,96,133937,1,0
64,128,134054,1,0
64,160,134170,1,0
64,192,134286,1,0
64,224,134402,1,0
64,256,134519,1,0
64,288,134635,1,0
64,320,134751,1,0
96,320,134868,1,0
128,320,134984,1,0
160,320,135100,1,0
192,320,135216,1,0
224,320,135333,1,0
256,320,135449,1,0
288,320,135565,1,0
320,320,135681,1,0
352,320,135798,1,0
384,320,135914,1,0
416,320,136030,1,0
416,288,136146,1,0
416,256,136263,1,0
416,224,136379,1,0
416,192,136495,1,0
416,160,136612,1,0
416,128,136728,1,0
416,96,136844,1,0
416,64,136960,1,0
416,64,137077,1,0
416,64,137077,2,0,B|256:160|288:64,1,160
224,64,138123,5,0
160,128,138821,1,0
128,224,139518,1,0
224,256,140216,1,0
320,256,140913,1,0
416,256,141611,1,0
416,160,142309,2,0,B|192:32,1,160
224,128,143704,5,0
160,192,144401,1,0
96,256,145099,1,0
32,320,145797,1,0
160,320,146494,1,0
288,320,147192,1,0
416,320,147889,1,0
448,320,148064,1,0
448,320,148238,2,0,B|448:224,1,80
384,192,149284,5,0
288,192,149982,1,0
192,192,150680,1,0
96,192,151377,1,0
64,128,152075,1,0
128,64,152772,1,0
224,64,153470,2,0,B|416:160,1,160
352,192,154865,5,0
288,256,155563,1,0
192,256,156260,1,0
96,256,156958,1,0
32,320,157656,1,0
96,352,158353,1,0
160,352,159051,1,0
192,352,159225,1,0
224,352,159400,2,0,B|288:288,1,80
322,196,160446,5,0
252,259,160795,1,0
193,190,161144,1,0
256,128,161492,1,0
416,192,161841,2,0,B|64:192,1,320
192,192,163934,5,0
320,192,164283,1,0
192,128,166027,2,0,B|224:160,1,40
224,224,166376,2,0,B|192:256,1,40
320,256,166899,1,0
320,192,167073,1,0
160,192,168468,1,0
256,192,168643,1,0
352,192,168817,1,0
304,191,169863,1,0
204,191,170212,1,0
320,128,171608,2,0,B|288:160,1,40
288,224,171957,2,0,B|320:256,1,40
192,256,172479,1,0
192,192,172654,1,0
