osu file format v14

[General]
AudioFilename: exec.mp3
AudioLeadIn: 0
PreviewTime: 130902
Countdown: 0
SampleSet: Soft
StackLeniency: 0.7
Mode: 0
LetterboxInBreaks: 0
WidescreenStoryboard: 1

[Editor]
DistanceSpacing: 1.1
BeatDivisor: 4
GridSize: 4
TimelineZoom: 1

[Metadata]
Title:the executioner
TitleUnicode:the executioner
Artist:zts
ArtistUnicode:zts
Creator:-kevincela-
Version:Insane
Source:うみねこのなく頃に散
Tags:07th Expansion Sieg Umineko no Naku Koro ni Chiru czl code zts label musicbox red
BeatmapID:756752
BeatmapSetID:342360

[Difficulty]
HPDrainRate:6.5
CircleSize:4
OverallDifficulty:7
ApproachRate:8.3
SliderMultiplier:1.8
SliderTickRate:2

[Events]
//Background and Video events
0,0,"ghfg.jpg",0,0
//Break Periods
2,100654,113407
2,174534,178556
//Storyboard Layer 0 (Background)
//Storyboard Layer 1 (Fail)
//Storyboard Layer 2 (Pass)
//Storyboard Layer 3 (Foreground)
//Storyboard Sound Samples

[TimingPoints]
7320,447.761194029851,4,1,0,80,1,0
28140,-66.6666666666667,4,1,0,80,0,0
28812,-100,4,1,0,80,0,0
28924,-100,4,2,1,65,0,0
29931,-100,4,2,1,40,0,0
30043,-100,4,2,1,65,0,0
42245,-133.333333333333,4,2,1,65,0,0
42693,-76.9230769230769,4,2,1,80,0,0
43140,-100,4,2,1,65,0,0
44484,-83.3333333333333,4,2,1,65,0,0
44931,-100,4,2,1,65,0,0
45715,-100,4,2,1,45,0,0
46275,-100,4,2,1,65,0,0
57021,-76.9230769230769,4,2,1,80,0,0
57469,-100,4,2,1,65,0,0
58812,-83.3333333333333,4,2,1,65,0,0
59260,-100,4,2,1,65,0,0
71125,-66.6666666666667,4,1,1,65,0,0
71349,-66.6666666666667,4,2,1,80,0,0
71797,-100,4,2,1,70,0,0
73140,-83.3333333333333,4,2,1,70,0,0
74931,-100,4,2,1,70,0,0
85454,-76.9230769230769,4,2,1,70,0,0
86125,-100,4,2,1,70,0,0
87021,-95.2380952380952,4,2,1,70,0,0
87917,-90.9090909090909,4,2,1,70,0,0
88812,-86.9565217391304,4,2,1,70,0,0
89708,-83.3333333333333,4,2,1,70,0,0
90603,-80,4,2,1,70,0,0
91499,-76.9230769230769,4,2,1,70,0,0
92394,-71.4285714285714,4,2,1,70,0,0
93290,-68.9655172413793,4,2,1,70,0,0
94185,-66.6666666666667,4,2,1,70,0,0
95081,-64.5161290322581,4,2,1,70,0,0
95976,-62.5,4,2,1,70,0,0
98215,-76.9230769230769,4,2,1,70,0,0
98663,-100,4,2,1,70,0,0
99111,-76.9230769230769,4,2,1,70,0,0
99222,-100,4,2,1,70,0,0
100006,-62.5,4,2,1,70,0,0
115230,-100,4,2,0,50,0,0
115342,-100,4,2,1,70,0,0
116121,-100,4,2,0,50,0,0
116238,-100,4,2,1,70,0,0
117021,-100,4,2,0,50,0,0
117133,-100,4,2,1,70,0,0
117917,-100,4,2,0,50,0,0
118029,-100,4,2,1,70,0,0
118365,-100,4,2,1,50,0,0
118477,-100,4,2,1,70,0,0
118813,-100,4,2,0,50,0,0
118924,-100,4,2,1,70,0,0
119708,-100,4,2,0,50,0,0
119820,-100,4,2,1,70,0,0
120604,-100,4,2,0,50,0,0
120715,-100,4,2,1,70,0,0
121499,-100,4,1,1,70,0,0
121555,-100,4,1,1,40,0,0
121946,-100,4,1,1,70,0,0
122395,-100,4,2,0,50,0,0
122507,-100,4,2,1,70,0,0
123290,-100,4,2,1,70,0,0
123346,-100,4,1,1,40,0,0
123737,-90.9090909090909,4,1,1,70,0,0
124186,-100,4,2,0,60,0,0
124298,-100,4,2,1,70,0,0
125081,-100,4,2,1,70,0,0
125137,-100,4,1,1,40,0,0
125528,-83.3333333333333,4,1,1,70,0,0
126424,-76.9230769230769,4,1,1,70,0,0
127320,-71.4285714285714,4,1,1,40,0,0
127769,-66.6666666666667,4,1,1,50,0,0
128214,-62.5,4,1,1,55,0,0
128662,-200,4,2,1,70,0,0
130454,-76.9230769230769,4,2,1,70,0,0
130902,-90.9090909090909,4,2,1,70,0,1
135379,-76.9230769230769,4,2,1,70,0,1
138066,-90.9090909090909,4,2,1,70,0,1
142543,-76.9230769230769,4,2,1,70,0,1
144782,-66.6666666666667,4,2,1,70,0,1
145230,-83.3333333333333,4,2,1,70,0,1
147469,-86.9565217391304,4,2,1,70,0,1
147917,-90.9090909090909,4,2,1,70,0,1
148364,-95.2380952380952,4,2,1,70,0,1
148812,-100,4,2,1,70,0,1
149260,-76.9230769230769,4,2,1,70,0,1
152394,-83.3333333333333,4,2,1,70,0,1
153737,-76.9230769230769,4,2,1,70,0,1
154185,-83.3333333333333,4,2,1,70,0,1
154633,-86.9565217391304,4,2,1,70,0,1
155081,-90.9090909090909,4,2,1,70,0,1
155528,-76.9230769230769,4,2,1,70,0,1
155976,-83.3333333333333,4,2,1,70,0,1
159111,-90.9090909090909,4,2,1,70,0,1
159558,-66.6666666666667,4,2,1,70,0,1
160006,-100,4,2,1,70,0,0
170977,-100,4,1,1,30,0,0
172096,-100,4,1,1,40,0,0
172992,-100,4,1,1,30,0,0
173439,-100,4,1,1,40,0,0
181506,447.761194029851,4,1,0,50,1,0
181835,-200,4,2,1,40,0,0
188670,-133.333333333333,4,2,0,20,0,0
188782,-133.333333333333,4,2,1,40,0,0
190461,-133.333333333333,4,1,1,30,0,0
190573,-133.333333333333,4,2,1,50,0,0
192252,-133.333333333333,4,1,1,40,0,0
192364,-117.647058823529,4,2,1,40,0,0
194043,-117.647058823529,4,2,1,50,0,0
194491,-117.647058823529,4,2,1,55,0,0
194938,-117.647058823529,4,2,1,60,0,0
195050,-117.647058823529,4,2,1,50,0,0
195834,-76.9230769230769,4,2,1,70,0,0
196729,-100,4,2,1,70,0,0
196841,-76.9230769230769,4,2,1,70,0,0
201201,-200,4,1,1,70,0,0
201319,-200,4,1,1,40,0,0
201543,-200,4,1,1,30,0,0
201881,-200,4,1,1,10,0,0
202326,-50,4,1,1,50,0,0
202438,-50,4,1,1,10,0,0
202544,-66.6666666666667,4,2,1,70,0,0
202998,-66.6666666666667,4,2,1,80,0,1
226282,-66.6666666666667,4,2,1,70,0,1
227177,-66.6666666666667,4,2,1,60,0,1
228185,-76.9230769230769,4,2,1,60,0,1
228520,-100,4,2,1,40,0,1
228744,-133.333333333333,4,2,1,40,0,1
229192,-133.333333333333,4,2,1,65,0,1
230759,-66.6666666666667,4,2,1,65,0,1
231655,-66.6666666666667,4,2,1,65,0,0

[Colours]
Combo1 : 0,128,192
Combo2 : 255,89,89
Combo3 : 145,0,145
Combo4 : 126,0,253

[HitObjects]
88,248,28141,6,0,L|96:320,1,67.5000025749208,0|0,0:0|2:0,0:0:0:0:
168,208,28365,5,0,0:0:0:0:
180,176,28476,1,0,0:0:0:0:
184,143,28588,1,0,0:0:0:0:
180,109,28700,1,0,0:0:0:0:
168,78,28812,6,0,L|288:72,1,90,6|0,0:2|0:0,0:0:0:0:
448,168,29260,2,0,L|310:160,1,135,2|0,0:0|0:0,0:0:0:0:
292,152,29708,2,0,P|296:200|292:256,1,90,2|4,0:0|1:2,0:0:0:0:
184,328,30155,2,0,L|88:324,1,90,0|0,1:0|0:0,0:0:0:0:
36,264,30491,1,0,0:0:0:0:
52,232,30603,6,0,P|60:184|56:128,1,90,2|0,0:0|0:0,0:0:0:0:
188,52,31051,2,0,P|182:119|193:185,1,135,2|0,0:0|0:0,0:0:0:0:
248,260,31499,1,2,0:0:0:0:
276,256,31611,1,0,0:0:0:0:
304,252,31722,1,0,1:0:0:0:
456,332,31946,2,0,L|364:320,1,90,0|0,1:0|0:0,0:0:0:0:
392,236,32282,1,0,0:0:0:0:
420,232,32394,6,0,L|512:220,1,90,2|0,0:0|0:0,0:0:0:0:
352,164,32842,2,0,P|344:100|364:24,1,135,2|0,0:0|0:0,0:0:0:0:
376,8,33290,2,0,L|280:4,1,90,2|0,0:0|1:0,0:0:0:0:
80,112,33737,2,0,L|176:108,1,90,0|0,1:0|0:0,0:0:0:0:
252,144,34073,1,0,0:0:0:0:
244,176,34185,6,0,P|240:216|252:272,1,90,2|0,0:0|0:0,0:0:0:0:
372,340,34633,2,0,L|380:184,1,135,2|0,0:0|0:0,0:0:0:0:
460,156,35081,1,2,0:0:0:0:
464,184,35193,1,0,0:0:0:0:
468,212,35305,1,0,1:0:0:0:
288,216,35528,2,0,P|294:172|324:132,1,90,0|0,1:0|0:0,0:0:0:0:
378,205,35864,1,0,0:0:0:0:
376,240,35976,6,0,L|372:336,1,90,4|0,1:0|0:0,0:0:0:0:
176,352,36424,1,2,0:0:0:0:
176,352,36760,1,0,0:0:0:0:
176,352,36872,1,2,0:0:0:0:
384,344,37096,1,0,1:0:0:0:
160,328,37320,2,0,L|64:320,1,90,0|0,1:0|0:0,0:0:0:0:
16,248,37655,1,0,0:0:0:0:
4,216,37767,6,0,P|0:176|16:124,1,90,2|0,0:0|0:0,0:0:0:0:
200,80,38215,1,2,0:0:0:0:
200,80,38551,1,0,0:0:0:0:
200,80,38663,1,2,0:0:0:0:
28,104,38887,1,0,1:0:0:0:
216,108,39111,2,0,L|312:100,1,90,0|0,1:0|0:0,0:0:0:0:
392,140,39446,1,0,0:0:0:0:
404,168,39558,6,0,P|412:208|408:268,1,90,2|0,0:0|0:0,0:0:0:0:
192,320,40006,2,0,L|336:332,1,135,2|0,0:0|0:0,0:0:0:0:
408,368,40454,1,2,0:0:0:0:
280,224,40678,1,0,1:2:0:0:
192,320,40902,2,0,L|58:332,1,135,0|0,1:0|0:0,0:0:0:0:
0,256,41349,5,0,1:0:0:0:
12,128,41573,1,0,1:0:0:0:
124,188,41797,1,0,1:0:0:0:
260,88,42021,5,0,1:0:0:0:
260,88,42133,1,0,0:0:0:0:
260,88,42245,2,0,L|192:84,1,67.5000025749208,2|0,0:0|1:0,0:0:0:0:
292,76,42693,6,0,L|96:68,1,175.499991966248,4|0,0:0|0:0,0:0:0:0:
12,128,43140,5,4,1:0:0:0:
124,188,43364,1,0,0:0:0:0:
24,320,43588,2,0,L|36:216,1,90,0|0,1:0|0:0,0:0:0:0:
124,188,43924,1,0,0:0:0:0:
152,204,44036,2,0,P|192:212|256:192,1,90,2|2,0:0|0:0,0:0:0:0:
328,52,44484,6,0,L|332:180,1,107.999996704102,0|0,1:0|0:0,0:0:0:0:
396,224,44820,5,0,0:0:0:0:
424,208,44932,2,0,P|464:200|528:220,1,90,2|2,1:2|0:0,0:0:0:0:
436,344,45379,2,0,P|396:352|332:332,1,90,0|2,1:0|0:0,0:0:0:0:
308,316,45715,1,0,1:0:0:0:
264,303,45826,1,2,0:2:0:0:
220,311,45938,1,0,1:0:0:0:
183,337,46050,1,0,0:0:0:0:
48,288,46275,1,0,1:0:0:0:
172,148,46499,5,0,0:0:0:0:
172,148,46611,1,0,0:0:0:0:
172,148,46722,1,0,1:0:0:0:
144,248,46946,1,0,0:0:0:0:
48,148,47170,2,0,L|44:40,1,90,0|0,1:0|0:0,0:0:0:0:
72,24,47506,1,0,0:0:0:0:
114,11,47617,1,2,0:0:0:0:
158,17,47729,1,0,0:0:0:0:
192,44,47841,1,2,0:0:0:0:
144,248,48066,2,0,L|40:244,1,90,0|0,1:0|0:0,0:0:0:0:
71,351,48402,1,0,0:0:0:0:
108,348,48514,6,0,L|212:344,1,90,0|2,1:0|0:0,0:0:0:0:
344,260,48961,1,0,1:0:0:0:
168,144,49185,1,0,0:0:0:0:
168,144,49297,1,0,0:0:0:0:
168,144,49409,1,2,0:0:0:0:
197,344,49633,1,2,0:0:0:0:
387,270,49857,6,0,L|335:258,1,45,0|0,1:0|1:0,0:0:0:0:
440,180,50081,2,0,L|396:190,1,45,0|0,1:0|1:0,0:0:0:0:
484,104,50305,5,4,1:0:0:0:
387,270,50528,1,0,0:0:0:0:
168,144,50752,2,0,L|276:136,1,90,0|0,1:0|0:0,0:0:0:0:
232,228,51088,1,0,0:0:0:0:
192,240,51200,2,0,P|144:240|92:212,1,90,2|2,0:0|0:0,0:0:0:0:
161,54,51648,2,0,L|169:162,1,90,0|0,1:0|0:0,0:0:0:0:
106,223,51984,1,0,0:0:0:0:
96,256,52096,6,0,L|104:364,1,90,0|0,1:0|0:0,0:0:0:0:
248,316,52543,2,0,P|284:328|344:320,1,90,0|0,1:0|0:0,0:0:0:0:
376,300,52879,1,0,1:0:0:0:
401,263,52990,1,0,1:0:0:0:
407,219,53102,1,0,1:0:0:0:
393,176,53214,1,2,0:0:0:0:
248,316,53439,1,0,1:0:0:0:
136,152,53663,5,0,0:0:0:0:
136,152,53775,1,0,0:0:0:0:
136,152,53887,2,0,L|140:48,1,90,0|0,1:0|0:0,0:0:0:0:
244,226,54334,2,0,L|247:315,1,90,0|0,1:0|0:0,0:0:0:0:
152,376,54670,1,0,0:0:0:0:
140,344,54782,2,0,L|143:254,1,90,2|2,0:0|0:0,0:0:0:0:
344,188,55230,2,0,L|347:277,1,90,0|0,1:0|0:0,0:0:0:0:
259,347,55566,1,0,0:0:0:0:
247,315,55678,5,0,1:0:0:0:
344,188,55902,1,0,0:0:0:0:
412,336,56125,1,0,1:0:0:0:
244,226,56349,1,0,0:0:0:0:
244,226,56461,1,0,0:0:0:0:
244,226,56573,1,0,1:0:0:0:
428,152,56797,1,0,1:0:0:0:
260,44,57021,6,0,B|196:36|196:36|152:52|152:52|64:40,1,175.499991966248,4|0,0:0|0:0,0:0:0:0:
12,104,57469,5,4,1:0:0:0:
40,252,57693,1,2,0:0:0:0:
152,152,57917,1,0,1:0:0:0:
12,104,58140,5,2,0:0:0:0:
12,104,58252,1,0,0:0:0:0:
12,104,58364,1,0,1:0:0:0:
152,264,58588,1,2,0:0:0:0:
291,87,58812,2,0,P|304:140|296:193,1,107.999996704102,0|2,1:0|0:0,0:0:0:0:
260,296,59148,1,0,0:0:0:0:
296,288,59260,6,0,P|344:288|400:312,1,90,0|2,1:0|0:0,0:0:0:0:
184,344,59708,1,0,1:0:0:0:
296,193,59931,1,2,0:0:0:0:
296,193,60043,1,0,0:0:0:0:
296,193,60155,1,0,1:0:0:0:
332,376,60379,1,2,0:0:0:0:
152,264,60603,2,0,P|136:196|160:120,1,135,0|0,1:0|1:0,0:0:0:0:
168,108,61051,6,0,L|56:104,1,90,0|2,1:0|0:0,0:0:0:0:
236,32,61499,1,0,1:0:0:0:
296,193,61722,1,2,0:0:0:0:
296,193,61834,1,0,0:0:0:0:
296,193,61946,1,0,1:0:0:0:
348,72,62170,1,2,0:0:0:0:
192,196,62394,2,0,L|200:292,1,90,0|2,1:0|0:0,0:0:0:0:
199,285,62730,1,0,0:0:0:0:
199,285,62842,5,0,1:0:0:0:
244,116,63066,1,2,0:0:0:0:
92,192,63290,2,0,L|104:332,1,135,0|2,1:0|0:0,0:0:0:0:
120,352,63737,2,0,L|28:344,1,90,0|0,1:0|1:0,0:0:0:0:
199,285,64185,6,0,L|268:280,1,45,0|0,1:0|1:0,1:0:0:0:
308,336,64409,2,0,L|352:339,1,45,0|0,1:0|1:0,1:0:0:0:
428,376,64633,5,4,1:0:0:0:
348,228,64857,1,2,0:0:0:0:
120,352,65081,2,0,L|28:344,1,90,0|2,1:0|0:0,0:0:0:0:
30,344,65417,1,0,0:0:0:0:
30,344,65528,1,0,1:0:0:0:
110,196,65752,1,2,0:0:0:0:
308,336,65976,2,0,L|448:323,1,135,0|0,1:0|1:0,0:0:0:0:
504,256,66424,5,0,1:0:0:0:
396,168,66648,1,2,0:0:0:0:
424,32,66872,1,0,1:0:0:0:
492,116,67096,1,2,0:0:0:0:
492,116,67208,1,0,0:0:0:0:
492,116,67320,1,0,1:2:0:0:
332,80,67543,1,2,0:0:0:0:
172,44,67767,2,0,L|56:52,1,90,0|0,1:0|1:0,0:0:0:0:
12,120,68103,1,0,0:0:0:0:
24,152,68215,6,0,B|36:196|36:196|28:260,1,90,4|2,1:0|0:0,0:0:0:0:
124,356,68663,2,0,B|107:302|107:302|118:204,1,135,0|0,1:0|0:0,0:0:0:0:
200,292,69111,1,0,1:0:0:0:
30,240,69334,1,2,0:0:0:0:
224,160,69558,1,0,1:0:0:0:
260,148,69670,1,0,0:0:0:0:
296,136,69782,1,0,1:0:0:0:
328,124,69894,1,0,0:0:0:0:
360,112,70006,5,4,1:0:0:0:
444,208,70230,1,0,0:0:0:0:
440,224,70342,1,0,0:0:0:0:
436,240,70454,1,4,1:0:0:0:
328,312,70678,1,0,0:0:0:0:
332,328,70790,1,0,0:0:0:0:
336,344,70902,1,4,1:0:0:0:
208,268,71125,6,0,L|212:208,2,33.7500012874604,2|0|0,1:0|0:0|0:0,0:0:0:0:
104,340,71349,1,4,0:0:0:0:
108,316,71461,2,0,L|124:168,1,135.000005149842
208,268,71797,6,0,L|220:376,1,90,4|0,1:0|0:0,0:0:0:0:
342,177,72245,2,0,L|328:312,1,135.000005149842,0|0,1:0|0:0,0:0:0:0:
432,364,72693,2,0,L|422:274,1,90,2|0,0:0|1:0,0:0:0:0:
219,160,73140,6,0,L|208:268,1,107.999996704102,0|0,1:0|0:0,0:0:0:0:
228,296,73476,1,0,0:0:0:0:
248,328,73588,5,0,1:0:0:0:
432,364,73812,1,2,0:0:0:0:
296,232,74036,1,0,1:0:0:0:
344,376,74260,1,0,0:0:0:0:
340,348,74372,1,0,0:0:0:0:
336,324,74484,1,2,0:0:0:0:
360,160,74708,1,0,1:0:0:0:
428,257,74931,2,0,P|372:244|296:232,1,135,0|0,1:0|1:0,0:0:0:0:
360,160,75379,6,0,P|400:152|476:144,1,90,0|0,1:0|0:0,0:0:0:0:
423,346,75827,2,0,P|423:301|428:257,1,90,0|0,1:0|0:0,0:0:0:0:
444,55,76275,2,0,P|448:96|448:145,1,90,2|0,0:0|1:0,0:0:0:0:
324,296,76722,2,0,L|220:288,1,90,0|0,1:0|0:0,0:0:0:0:
156,192,77058,1,0,0:0:0:0:
192,188,77170,6,0,L|296:180,1,90,0|2,1:0|0:0,0:0:0:0:
124,280,77618,1,0,1:0:0:0:
252,88,77842,1,2,0:0:0:0:
252,88,77954,1,0,0:0:0:0:
252,88,78066,1,0,1:0:0:0:
356,292,78290,6,0,L|360:332,2,22.5,0|0|2,1:0|0:0|0:0,0:0:0:0:
360,260,78514,1,0,1:0:0:0:
372,232,78625,1,0,0:0:0:0:
392,208,78737,1,2,0:0:0:0:
416,188,78849,1,0,0:0:0:0:
448,180,78961,5,4,1:0:0:0:
476,296,79185,1,2,0:0:0:0:
248,332,79409,2,0,L|92:320,1,135,0|0,1:0|0:0,0:0:0:0:
32,344,79857,1,2,0:0:0:0:
164,232,80081,1,0,1:0:0:0:
72,84,80305,2,0,P|68:132|88:192,1,90,0|0,1:0|0:0,0:0:0:0:
164,232,80640,1,0,0:0:0:0:
200,240,80752,6,0,L|308:228,1,90,0|2,1:0|0:0,0:0:0:0:
464,276,81200,1,0,1:0:0:0:
400,164,81424,1,0,0:0:0:0:
400,164,81536,1,0,0:0:0:0:
400,164,81648,1,2,0:0:0:0:
360,328,81872,1,0,1:0:0:0:
488,184,82096,2,0,L|492:36,1,135,0|0,1:0|0:0,0:0:0:0:
500,24,82543,5,0,1:0:0:0:
400,164,82767,1,2,0:0:0:0:
180,68,82991,2,0,L|336:60,1,135,0|0,1:0|0:0,0:0:0:0:
336,84,83439,2,0,L|224:92,1,90,2|0,0:0|1:0,0:0:0:0:
8,32,83887,2,0,L|120:40,1,90,0|2,1:0|0:0,0:0:0:0:
97,38,84222,1,0,0:0:0:0:
97,38,84334,5,0,1:0:0:0:
112,164,84558,1,2,0:0:0:0:
246,90,84782,1,0,1:0:0:0:
32,108,85006,5,2,0:0:0:0:
28,136,85118,1,0,0:0:0:0:
24,164,85230,1,4,2:0:0:0:
20,188,85342,1,0,0:0:0:0:
16,212,85454,6,0,L|20:260,2,29.2499986610413,2|0|0,0:0|0:0|0:0,0:0:0:0:
112,164,85678,1,4,0:0:0:0:
128,196,85790,2,0,P|132:260|104:316,1,116.999994644165,0|2,0:0|0:0,0:0:0:0:
184,360,86125,6,0,L|272:345,1,90,4|2,1:0|0:0,0:0:0:0:
440,272,86573,2,0,L|352:257,1,90,0|0,1:0|0:0,0:0:0:0:
256,200,86909,1,0,0:0:0:0:
279,172,87021,2,0,P|324:148|372:148,1,94.499997116089,2|0,0:0|1:0,0:0:0:0:
220,284,87469,2,0,P|180:248|172:160,1,141.749995674133,0|0,1:0|0:0,0:0:0:0:
256,200,87917,5,0,1:0:0:0:
80,244,88140,1,2,0:0:0:0:
232,372,88364,2,0,P|276:351|301:309,1,99.0000030212403,0|2,1:0|0:0,0:0:0:0:
80,244,88812,2,0,L|88:364,1,103.500001974106,2|0,0:0|1:0,0:0:0:0:
140,160,89260,1,0,1:0:0:0:
301,309,89484,5,0,0:0:0:0:
301,309,89596,1,0,0:0:0:0:
301,309,89708,2,0,B|343:294|381:305|381:305|419:316|461:302,1,161.999995056153,0|0,1:0|0:0,0:0:0:0:
420,228,90155,1,0,1:0:0:0:
344,384,90379,1,0,1:0:0:0:
130,268,90603,2,0,P|124:213|139:159,1,112.5,2|0,0:0|1:0,0:0:0:0:
308,52,91051,2,0,L|315:164,1,112.5,0|0,1:0|0:0,0:0:0:0:
468,304,91499,6,0,P|508:248|464:148,1,175.499991966248,2|0,1:2|0:0,0:0:0:0:
420,228,91946,1,2,1:2:0:0:
344,384,92170,1,0,1:0:0:0:
220,256,92394,1,0,0:0:0:0:
308,100,92618,6,0,L|312:52,2,31.4999990386963,0|0|0,1:0|0:0|0:0,0:0:0:0:
282,130,92842,1,0,1:0:0:0:
246,143,92953,1,2,0:0:0:0:
207,137,93065,1,2,0:0:0:0:
175,116,93177,1,0,0:0:0:0:
157,81,93290,6,0,L|160:224,1,130.500003982544,4|2,1:0|0:0,0:0:0:0:
0,308,93737,2,0,L|4:104,1,195.750005973816,0|0,1:0|0:0,0:0:0:0:
159,211,94185,2,0,L|162:354,1,135.000005149842,0|2,1:0|0:0,0:0:0:0:
336,248,94633,2,0,L|338:113,1,135.000005149842,0|0,1:0|0:0,0:0:0:0:
424,12,94969,1,0,0:0:0:0:
444,40,95081,6,0,B|468:104|468:104|452:192,1,139.500001064301,4|0,0:0|0:0,0:0:0:0:
252,316,95528,2,0,L|104:312,1,139.500001064301,4|0,0:0|0:0,0:0:0:0:
60,292,95864,1,0,0:0:0:0:
26,248,95975,1,0,1:0:0:0:
18,193,96087,1,0,0:0:0:0:
38,142,96199,1,2,0:0:0:0:
184,68,96424,1,2,1:2:0:0:
252,316,96648,5,0,0:0:0:0:
252,316,96760,1,0,0:0:0:0:
252,316,96872,2,0,L|256:164,1,144,4|0,1:0|0:0,0:0:0:0:
317,19,97320,2,0,B|316:92|316:92|348:148|348:148|346:250,1,216,0|0,1:0|0:0,0:0:0:0:
252,316,97767,1,0,0:0:0:0:
152,168,97991,1,0,1:0:0:0:
346,226,98215,2,0,P|417:231|484:200,1,116.999994644165,4|0,1:0|0:0,0:0:0:0:
152,168,98663,6,0,L|144:284,1,90,4|0,0:0|0:0,0:0:0:0:
346,226,99111,2,0,L|336:104,1,116.999994644165,4|0,0:0|0:0,0:0:0:0:
252,316,99558,5,0,1:0:0:0:
287,343,99669,1,0,0:0:0:0:
329,357,99781,1,2,0:0:0:0:
374,355,99893,1,2,0:0:0:0:
415,337,100006,6,0,B|420:264|420:264|452:212|452:212|456:128,1,216,4|0,0:0|2:0,0:0:0:0:
404,20,100454,5,4,1:0:0:0:
224,288,114111,5,4,0:0:0:0:
324,280,114334,1,4,2:0:0:0:
424,268,114558,1,8,0:0:0:0:
268,200,114782,5,4,0:0:0:0:
168,192,115005,1,4,0:0:0:0:
68,180,115229,1,8,2:0:0:0:
68,180,115566,5,0,1:0:0:0:
68,180,115678,1,0,0:0:0:0:
104,268,115902,1,0,1:0:0:0:
128,104,116125,1,8,2:0:0:0:
128,104,116461,5,0,0:0:0:0:
128,104,116573,1,0,1:0:0:0:
168,192,116797,1,0,1:0:0:0:
208,280,117021,1,8,2:0:0:0:
228,112,117245,1,0,0:0:0:0:
228,112,117357,1,0,1:0:0:0:
228,112,117469,1,0,0:0:0:0:
268,200,117693,1,0,1:0:0:0:
168,192,117917,1,8,2:0:0:0:
184,24,118140,5,0,0:0:0:0:
184,24,118252,1,0,1:0:0:0:
184,24,118364,1,4,0:0:0:0:
228,112,118588,1,0,1:0:0:0:
68,180,118812,1,8,2:0:0:0:
68,180,119148,5,0,1:0:0:0:
68,180,119260,1,0,0:0:0:0:
128,104,119484,1,0,1:0:0:0:
268,200,119708,1,8,2:0:0:0:
268,200,120043,5,0,0:0:0:0:
268,200,120155,1,0,1:0:0:0:
208,280,120379,1,0,1:0:0:0:
128,104,120603,1,8,2:0:0:0:
332,124,120827,1,0,0:0:0:0:
332,124,120939,1,0,1:0:0:0:
332,124,121051,1,0,0:0:0:0:
208,280,121275,1,0,1:0:0:0:
228,112,121499,1,4,2:0:0:0:
320,288,121722,6,0,L|336:324,4,22.5,0|0|0|0|4,0:0|0:0|0:0|0:0|1:0,0:0:0:0:
268,200,122170,1,0,0:0:0:0:
120,284,122394,2,0,P|64:288|-4:248,1,135,8|0,2:0|1:0,0:0:0:0:
80,200,122842,1,0,0:0:0:0:
168,372,123066,1,0,1:0:0:0:
268,200,123290,2,0,P|324:196|392:236,1,135,4|0,2:0|0:0,0:0:0:0:
424,312,123737,5,4,0:0:0:0:
396,128,123961,1,0,1:0:0:0:
308,292,124185,2,0,P|244:300|180:248,1,148.50000453186,8|0,2:0|1:0,0:0:0:0:
176,152,124633,1,0,0:0:0:0:
152,356,124857,1,0,1:0:0:0:
268,200,125081,2,0,L|404:184,1,135,4|0,2:0|0:0,0:0:0:0:
488,216,125528,5,4,1:0:0:0:
268,200,125752,1,0,1:0:0:0:
412,96,125976,2,0,P|479:138|488:216,1,161.999995056153,4|0,2:0|0:0,0:0:0:0:
432,296,126424,5,4,1:0:0:0:
412,96,126648,1,0,0:0:0:0:
264,292,126872,2,0,P|200:260|196:152,1,175.499991966248,4|0,2:0|0:0,0:0:0:0:
240,76,127320,6,0,L|88:60,1,125.999996154785,4|0,1:0|2:0,0:0:0:0:
268,200,127767,2,0,L|396:186,1,125.999996154785,4|0,1:0|2:0,0:0:0:0:
114,62,128215,6,0,P|88:120|112:208,1,144,4|0,1:0|2:0,0:0:0:0:
402,279,128663,6,0,P|480:156|340:116,1,337.5,4|0,2:1|0:0,0:0:0:0:
253,143,130454,6,0,P|312:203|396:188,1,175.499991966248,4|0,1:0|0:0,0:0:0:0:
340,115,130902,5,4,1:0:0:0:
160,160,131125,1,0,0:0:0:0:
395,188,131349,1,0,1:0:0:0:
272,48,131573,1,2,0:0:0:0:
220,236,131797,5,0,1:0:0:0:
340,115,132020,1,2,0:0:0:0:
176,68,132244,1,0,1:0:0:0:
316,216,132468,1,2,0:0:0:0:
272,48,132693,5,4,1:0:0:0:
253,143,132917,1,0,0:0:0:0:
428,148,133140,5,4,1:0:0:0:
409,53,133364,1,0,0:0:0:0:
316,216,133588,5,0,1:0:0:0:
297,311,133812,1,0,1:0:0:0:
440,268,134036,1,0,1:0:0:0:
253,143,134260,5,0,1:0:0:0:
253,143,134372,1,0,0:0:0:0:
253,143,134484,2,0,L|132:136,1,99.0000030212403,4|0,1:0|0:0,0:0:0:0:
72,256,134931,2,0,L|193:249,1,99.0000030212403,0|2,1:0|0:0,0:0:0:0:
340,164,135379,2,0,P|332:104|288:60,1,116.999994644165,0|2,1:0|0:0,0:0:0:0:
170,250,135827,2,0,P|176:307|215:350,1,116.999994644165,0|2,1:0|0:0,0:0:0:0:
260,268,136163,1,0,0:0:0:0:
260,268,136275,5,0,1:0:0:0:
112,176,136499,1,0,1:0:0:0:
264,80,136722,1,0,1:0:0:0:
72,256,136946,1,0,1:0:0:0:
38,227,137057,1,0,0:0:0:0:
22,187,137169,1,2,1:2:0:0:
28,144,137281,1,2,0:0:0:0:
53,109,137393,1,2,0:0:0:0:
170,250,137618,2,0,L|166:322,1,58.4999973220826,0|0,1:0|0:0,0:0:0:0:
260,268,137842,2,0,L|268:336,1,58.4999973220826,2|0,0:0|0:0,0:0:0:0:
348,224,138066,5,4,1:0:0:0:
166,308,138290,1,0,0:0:0:0:
364,352,138514,1,0,1:0:0:0:
272,168,138737,1,0,1:0:0:0:
80,260,138961,5,4,1:0:0:0:
248,360,139185,1,0,0:0:0:0:
272,168,139409,1,0,1:0:0:0:
84,348,139633,1,0,1:0:0:0:
100,92,139857,5,4,1:0:0:0:
204,80,140081,1,0,0:0:0:0:
212,264,140304,5,4,1:0:0:0:
149,179,140528,1,0,0:0:0:0:
314,72,140752,5,0,1:0:0:0:
272,168,140976,1,0,1:0:0:0:
100,92,141200,1,0,1:0:0:0:
314,72,141424,5,0,1:0:0:0:
314,72,141536,1,0,0:0:0:0:
314,72,141648,2,0,L|428:60,1,99.0000030212403,4|2,1:0|0:0,0:0:0:0:
272,168,142096,2,0,L|160:156,1,99.0000030212403,0|2,1:0|0:0,0:0:0:0:
332,252,142543,6,0,P|364:216|372:140,1,116.999994644165,0|0,1:0|1:0,0:0:0:0:
131,55,142991,2,0,P|137:112|173:157,1,116.999994644165,0|2,1:0|0:0,0:0:0:0:
224,76,143327,1,0,0:0:0:0:
224,76,143439,5,4,1:0:0:0:
40,28,143663,1,2,0:0:0:0:
72,208,143887,1,0,1:0:0:0:
280,164,144110,1,2,0:0:0:0:
131,55,144334,1,0,1:0:0:0:
168,272,144558,1,0,1:0:0:0:
382,141,144782,6,0,P|320:66|224:75,1,202.500007724762,4|0,0:0|0:0,0:0:0:0:
280,164,145230,6,0,L|292:352,1,161.999995056153,4|0,1:0|0:0,0:0:0:0:
264,352,145678,2,0,L|396:340,1,107.999996704102,4|0,0:0|1:0,0:0:0:0:
168,272,146125,6,0,P|96:276|24:204,1,161.999995056153,4|0,1:0|0:0,0:0:0:0:
8,192,146573,2,0,L|16:68,1,107.999996704102,0|0,1:0|1:0,0:0:0:0:
96,36,146909,1,0,0:0:0:0:
124,60,147021,6,0,P|180:68|240:44,1,107.999996704102,4|0,1:0|0:0,0:0:0:0:
408,124,147469,2,0,P|352:116|292:140,1,103.500001974106,4|0,1:0|0:0,0:0:0:0:
360,304,147917,2,0,L|364:204,1,99.0000030212403,0|0,1:0|1:0,0:0:0:0:
204,152,148364,2,0,L|207:250,1,94.499997116089,0|0,1:0|1:0,0:0:0:0:
144,312,148700,1,0,0:0:0:0:
112,328,148812,6,0,P|52:316|8:232,1,135,4|0,1:0|0:0,0:0:0:0:
24,228,149260,2,0,L|25:105,1,116.999994644165,4|2,2:0|0:0,0:0:0:0:
148,48,149708,1,0,1:0:0:0:
332,148,149931,1,2,0:0:0:0:
204,152,150155,1,0,1:0:0:0:
372,36,150379,1,0,1:0:0:0:
404,240,150603,5,4,1:0:0:0:
332,148,150827,1,2,0:0:0:0:
488,24,151051,5,0,1:0:0:0:
445,132,151275,1,2,0:0:0:0:
257,53,151499,5,0,1:0:0:0:
372,36,151723,1,0,1:0:0:0:
288,248,151946,2,0,L|132:240,1,116.999994644165,4|0,2:0|1:0,0:0:0:0:
44,288,152282,1,0,0:0:0:0:
60,252,152394,6,0,P|72:192|48:76,1,161.999995056153,4|0,1:0|0:0,0:0:0:0:
40,60,152842,2,0,L|147:65,1,107.999996704102,4|0,0:0|1:0,0:0:0:0:
352,152,153290,6,0,L|156:168,1,161.999995056153,4|0,1:0|0:0,0:0:0:0:
288,248,153737,2,0,L|404:256,1,116.999994644165,4|0,0:0|1:0,0:0:0:0:
344,340,154073,1,0,0:0:0:0:
308,344,154185,6,0,L|200:349,1,107.999996704102,4|0,1:0|0:0,0:0:0:0:
352,152,154633,2,0,P|384:188|396:248,1,103.500001974106,4|0,1:0|0:0,0:0:0:0:
240,148,155081,2,0,P|251:97|284:59,1,99.0000030212403,4|0,1:0|1:0,0:0:0:0:
288,248,155528,6,0,B|232:256|232:256|176:236,1,116.999994644165,4|0,0:0|1:0,0:0:0:0:
56,100,155864,1,0,0:0:0:0:
76,124,155976,6,0,B|108:208|52:200|96:304,1,161.999995056153,4|0,1:0|0:0,0:0:0:0:
164,356,156424,1,0,1:0:0:0:
288,248,156648,1,2,0:0:0:0:
192,132,156872,5,0,1:0:0:0:
260,344,157096,1,0,1:0:0:0:
396,168,157320,1,0,1:0:0:0:
164,248,157543,5,0,0:0:0:0:
164,248,157655,1,0,1:0:0:0:
164,248,157767,1,0,1:0:0:0:
368,324,157991,1,0,1:0:0:0:
192,132,158215,1,4,1:2:0:0:
260,344,158439,1,0,1:0:0:0:
304,108,158663,5,0,1:0:0:0:
68,160,158887,1,0,1:0:0:0:
280,224,159111,1,0,1:0:0:0:
280,224,159222,2,0,L|396:220,1,99.0000030212403,0|0,1:0|1:0,0:0:0:0:
404,256,159558,6,0,B|400:176|400:176|416:136|416:136|412:48,1,202.500007724762,4|0,0:0|0:0,0:0:0:0:
304,108,160006,5,4,1:0:0:0:
216,152,160230,1,2,0:0:0:0:
120,124,160454,1,0,1:0:0:0:
80,32,160678,1,2,0:0:0:0:
180,40,160902,5,0,1:0:0:0:
152,220,161126,1,2,0:0:0:0:
12,112,161349,1,2,0:0:0:0:
120,124,161573,5,0,1:0:0:0:
120,124,161797,1,0,0:0:0:0:
152,220,162021,1,2,0:0:0:0:
96,304,162245,1,0,1:0:0:0:
4,332,162469,1,2,1:2:0:0:
24,236,162693,5,0,1:0:0:0:
200,312,162917,1,2,1:2:0:0:
356,204,163140,1,0,1:0:0:0:
389,199,163251,1,2,0:0:0:0:
422,204,163363,1,2,0:0:0:0:
453,217,163475,1,2,0:0:0:0:
479,238,163588,6,0,L|472:140,1,90,0|2,1:0|0:0,0:0:0:0:
396,292,164036,2,0,L|389:381,1,90,0|2,1:0|0:0,0:0:0:0:
266,197,164484,2,0,L|356:204,1,90,0|2,1:0|0:0,0:0:0:0:
200,312,164931,2,0,L|110:318,1,90,0|2,1:0|1:2,0:0:0:0:
110,318,165267,1,2,0:0:0:0:
110,318,165379,5,0,1:0:0:0:
136,224,165603,1,2,1:2:0:0:
132,124,165827,1,0,0:0:0:0:
100,32,166051,1,2,1:2:0:0:
28,100,166275,5,0,1:0:0:0:
224,176,166499,1,2,1:2:0:0:
372,28,166722,1,4,0:0:0:0:
405,26,166833,1,2,0:0:0:0:
438,35,166945,1,2,0:0:0:0:
466,52,167057,1,2,0:0:0:0:
489,77,167169,5,4,0:0:0:0:
400,124,167394,1,2,0:0:0:0:
304,104,167618,1,0,1:0:0:0:
248,20,167842,1,2,0:0:0:0:
160,136,168066,5,0,1:0:0:0:
40,56,168290,1,2,0:0:0:0:
27,91,168401,1,2,0:0:0:0:
25,128,168513,1,2,1:2:0:0:
36,164,168625,1,0,0:0:0:0:
46,200,168737,1,2,1:2:0:0:
44,237,168849,1,0,0:0:0:0:
31,272,168961,5,0,1:0:0:0:
112,328,169185,1,2,1:2:0:0:
208,312,169409,1,0,1:0:0:0:
260,228,169633,1,2,1:2:0:0:
160,136,169857,5,2,0:0:0:0:
208,312,170081,1,2,1:2:0:0:
250,326,170192,1,0,0:0:0:0:
295,320,170304,1,0,1:0:0:0:
332,294,170416,1,2,0:0:0:0:
354,255,170528,1,2,0:0:0:0:
356,210,170640,1,2,0:0:0:0:
337,169,170752,6,0,L|444:164,1,90,4|0,0:0|0:0,0:0:0:0:
260,228,171200,5,4,2:0:0:0:
237,226,171311,1,0,0:0:0:0:
215,225,171423,1,0,0:0:0:0:
192,224,171535,1,0,0:0:0:0:
160,244,171648,5,0,0:0:0:0:
171,212,171759,1,0,0:0:0:0:
176,179,171871,1,0,0:0:0:0:
175,145,171983,1,0,0:0:0:0:
148,104,172096,5,0,0:0:0:0:
190,118,172207,1,0,0:0:0:0:
235,118,172319,1,0,0:0:0:0:
277,103,172431,1,0,0:0:0:0:
312,75,172543,5,4,2:0:0:0:
341,42,172654,1,0,0:0:0:0:
384,29,172766,1,0,0:0:0:0:
427,39,172878,1,0,0:0:0:0:
459,71,172990,1,0,0:0:0:0:
470,114,173102,1,0,0:0:0:0:
457,156,173214,1,0,0:0:0:0:
424,186,173326,1,0,0:0:0:0:
381,196,173438,5,0,0:0:0:0:
340,224,173551,1,0,0:0:0:0:
320,268,173663,1,8,2:0:0:0:
332,316,173775,1,0,0:0:0:0:
360,356,173887,6,0,B|296:364|296:364|248:348|248:348|172:356,1,180,2|0,1:0|1:0,0:0:0:0:
256,192,179260,12,0,181051,0:0:0:0:
148,224,181506,5,0,0:0:0:0:
148,224,181617,1,2,2:0:0:0:
256,192,181841,1,2,0:0:0:0:
420,144,182177,1,2,0:0:0:0:
420,144,182625,1,2,0:0:0:0:
420,144,183073,1,2,0:0:0:0:
220,300,183297,5,0,0:0:0:0:
220,300,183408,1,2,0:0:0:0:
256,192,183632,1,2,0:0:0:0:
300,28,183968,1,2,0:0:0:0:
120,112,184192,6,0,L|268:104,1,135,2|2,0:1|0:0,0:0:0:0:
364,160,185088,5,2,0:1:0:0:
364,160,185200,1,2,0:0:0:0:
256,192,185423,1,2,0:0:0:0:
92,240,185759,1,2,0:0:0:0:
92,240,186207,1,2,0:0:0:0:
92,240,186655,1,2,0:0:0:0:
224,84,186879,5,0,0:0:0:0:
224,84,186991,1,2,0:0:0:0:
256,192,187214,1,2,0:0:0:0:
300,356,187550,1,2,0:0:0:0:
116,276,187774,6,0,L|250:283,1,135,2|0,0:1|0:0,0:0:0:0:
432,272,188670,5,14,1:0:0:0:
428,256,188782,1,0,0:0:0:0:
424,240,188894,1,0,0:0:0:0:
420,224,189006,1,2,0:0:0:0:
416,208,189117,1,8,2:0:0:0:
368,360,189341,1,2,0:0:0:0:
214,311,189565,2,0,L|282:310,1,67.5000025749208,8|2,2:0|0:0,0:0:0:0:
136,236,190013,2,0,L|68:234,1,67.5000025749208,8|2,2:0|0:0,0:0:0:0:
204,152,190461,5,12,1:0:0:0:
216,120,190572,1,0,0:0:0:0:
220,87,190684,1,0,0:0:0:0:
214,54,190796,1,2,0:0:0:0:
200,23,190908,1,8,2:0:0:0:
116,92,191132,1,2,0:0:0:0:
284,216,191356,2,0,L|360:204,1,67.5000025749208,8|2,2:0|0:0,0:0:0:0:
136,236,191804,5,12,2:0:0:0:
123,267,191915,1,0,0:0:0:0:
119,300,192027,1,2,0:0:0:0:
125,333,192139,1,0,0:0:0:0:
139,364,192251,5,12,1:0:0:0:
175,343,192363,1,0,0:0:0:0:
217,335,192475,1,0,0:0:0:0:
258,338,192587,1,2,1:0:0:0:
298,353,192700,2,0,L|400:348,1,76.5000014591217,8|2,2:0|1:0,0:0:0:0:
472,232,193147,2,0,L|370:226,1,76.5000014591217,8|2,2:0|1:0,0:0:0:0:
296,136,193595,1,8,2:0:0:0:
364,24,193819,1,2,1:0:0:0:
395,227,194043,5,12,2:0:0:0:
398,261,194154,1,0,0:0:0:0:
400,294,194266,1,0,0:0:0:0:
403,328,194378,1,2,1:0:0:0:
406,362,194490,1,8,2:0:0:0:
480,168,194714,1,2,1:0:0:0:
288,240,194938,2,0,P|240:240|192:228,1,76.5000014591217,6|2,1:0|1:0,0:0:0:0:
64,156,195386,2,0,L|56:112,5,25.5000004863739,6|0|0|2|0|0,1:0|0:0|0:0|1:0|0:0|0:0,0:0:0:0:
104,232,195834,5,12,0:0:0:0:
107,270,195946,1,0,0:0:0:0:
96,307,196058,1,2,1:0:0:0:
72,338,196170,1,0,0:0:0:0:
38,357,196282,1,8,0:0:0:0:
0,256,196506,1,2,1:0:0:0:
172,152,196729,2,0,L|284:144,1,90,12|2,0:0|1:0,0:0:0:0:
368,256,197177,1,8,0:0:0:0:
331,254,197288,1,2,1:0:0:0:
294,252,197401,2,0,L|244:248,2,38.9999982147218,2|0|0,1:0|0:0|0:0,0:0:0:0:
344,340,197625,5,12,0:0:0:0:
305,341,197737,1,0,0:0:0:0:
266,343,197849,1,2,1:0:0:0:
227,345,197961,1,0,0:0:0:0:
192,368,198073,5,8,0:0:0:0:
205,326,198184,1,2,1:0:0:0:
207,282,198296,1,2,1:0:0:0:
198,239,198408,1,2,1:0:0:0:
179,200,198520,5,12,0:0:0:0:
131,216,198631,1,0,0:0:0:0:
80,209,198743,1,2,1:0:0:0:
38,181,198855,1,0,0:0:0:0:
14,136,198968,1,12,0:0:0:0:
15,83,199079,1,2,1:0:0:0:
40,40,199192,2,0,L|35:1,2,38.9999982147218,2|0|2,1:0|0:0|1:0,0:0:0:0:
124,108,199416,5,12,0:0:0:0:
171,104,199527,1,0,0:0:0:0:
220,101,199639,1,2,1:0:0:0:
269,99,199751,1,0,0:0:0:0:
317,96,199863,1,8,0:0:0:0:
366,94,199975,1,2,1:0:0:0:
415,91,200088,2,0,L|402:46,2,38.9999982147218,0|0|2,1:0|1:0|1:0,1:0:0:0:
484,156,200311,5,12,0:0:0:0:
491,213,200422,1,0,0:0:0:0:
471,268,200534,1,2,1:0:0:0:
429,307,200646,1,0,0:0:0:0:
374,324,200759,2,0,L|380:376,5,38.9999982147218,8|0|0|2|0|0,1:0|1:0|1:0|1:0|1:0|1:0,1:0:0:0:
372,208,201207,6,0,L|232:204,1,135,2|0,1:0|0:0,0:0:0:0:
216,216,202326,6,0,L|344:212,1,90,2|0,0:0|0:0,0:0:0:0:
144,156,202550,5,6,0:0:0:0:
124,202,202661,1,2,0:0:0:0:
130,251,202773,1,2,0:0:0:0:
160,291,202885,1,2,0:0:0:0:
207,311,202997,5,4,1:0:0:0:
212,316,203110,2,0,L|364:316,1,135.000005149842,2|2,1:0|1:0,0:0:0:0:
456,352,203446,2,0,L|460:284,1,67.5000025749208,4|0,0:0|0:0,0:0:0:0:
341,181,203670,2,0,L|346:315,1,135.000005149842,2|0,1:0|1:0,0:0:0:0:
401,109,204117,2,0,P|349:89|269:125,1,135.000005149842,2|2,1:0|1:0,0:0:0:0:
207,311,204565,2,0,L|212:224,1,67.5000025749208,2|0,1:0|0:0,0:0:0:0:
112,360,204789,5,0,1:0:0:0:
112,360,204901,2,0,L|104:216,1,135.000005149842,2|2,1:0|1:0,0:0:0:0:
7,180,205237,2,0,L|4:248,1,67.5000025749208,4|0,0:0|0:0,0:0:0:0:
212,244,205461,2,0,L|201:109,1,135.000005149842,2|0,1:0|1:0,0:0:0:0:
364,192,205908,2,0,L|353:327,1,135.000005149842,2|2,1:0|1:0,0:0:0:0:
492,200,206356,2,0,L|484:124,1,67.5000025749208,2|0,1:0|0:0,0:0:0:0:
380,52,206580,5,0,1:0:0:0:
380,52,206692,2,0,B|312:40|316:72|244:56,1,135.000005149842,2|2,1:0|1:0,0:0:0:0:
148,32,207028,2,0,L|156:116,1,67.5000025749208,4|0,0:0|0:0,0:0:0:0:
68,192,207252,2,0,L|52:52,1,135.000005149842,2|0,1:0|1:0,0:0:0:0:
246,56,207700,2,0,L|230:190,1,135.000005149842,2|2,1:0|1:0,0:0:0:0:
60,259,208147,2,0,L|67:191,1,67.5000025749208,2|0,1:0|0:0,0:0:0:0:
230,190,208371,5,0,1:0:0:0:
230,190,208483,2,0,L|245:324,1,135.000005149842,2|2,1:0|1:0,0:0:0:0:
344,364,208819,2,0,L|350:296,1,67.5000025749208,4|0,0:0|0:0,0:0:0:0:
432,160,209043,2,0,L|447:294,1,135.000005149842,2|4,1:0|0:0,0:0:0:0:
230,190,209491,2,0,L|245:56,1,135.000005149842,2|4,1:0|0:0,0:0:0:0:
350,296,209938,2,0,L|344:364,1,67.5000025749208,2|0,1:0|0:0,0:0:0:0:
252,340,210162,5,0,1:0:0:0:
252,340,210274,2,0,P|184:356|120:316,1,135.000005149842,2|2,1:0|1:0,0:0:0:0:
200,204,210610,2,0,P|204:236|196:288,1,67.5000025749208,12|0,0:0|0:0,0:0:0:0:
144,136,210834,2,0,P|212:120|276:160,1,135.000005149842,2|0,1:0|1:0,0:0:0:0:
452,52,211282,2,0,P|397:89|331:81,1,135.000005149842,2|8,1:0|0:0,0:0:0:0:
132,52,211729,2,0,P|100:64|72:92,1,67.5000025749208,2|0,1:0|0:0,0:0:0:0:
200,204,211953,5,0,1:0:0:0:
200,204,212065,2,0,L|344:200,1,135.000005149842,2|2,1:0|1:0,0:0:0:0:
384,284,212401,2,0,L|304:288,1,67.5000025749208,12|0,0:0|0:0,0:0:0:0:
208,376,212625,2,0,L|342:372,1,135.000005149842,2|0,1:0|1:0,0:0:0:0:
334,200,213073,2,0,L|200:204,1,135.000005149842,2|14,1:0|1:0,0:0:0:0:
52,300,213520,2,0,L|140:296,1,67.5000025749208,2|0,1:0|0:0,0:0:0:0:
200,204,213744,5,0,1:0:0:0:
200,204,213856,2,0,P|204:136|168:76,1,135.000005149842,2|2,1:0|1:0,0:0:0:0:
88,28,214192,2,0,L|16:24,1,67.5000025749208,12|0,0:0|0:0,0:0:0:0:
171,79,214416,2,0,P|224:88|304:48,1,135.000005149842,2|0,1:0|1:0,0:0:0:0:
459,172,214864,2,0,P|392:166|333:197,1,135.000005149842,2|8,1:0|0:0,0:0:0:0:
396,356,215311,2,0,P|412:316|416:272,1,67.5000025749208,2|0,1:0|0:0,0:0:0:0:
333,196,215535,5,0,1:0:0:0:
333,196,215647,2,0,P|266:201|207:170,1,135.000005149842,2|2,1:0|1:0,0:0:0:0:
124,240,215983,2,0,L|132:328,1,67.5000025749208,12|0,0:0|0:0,0:0:0:0:
32,200,216207,2,0,L|44:56,1,135.000005149842,2|6,1:0|1:0,0:0:0:0:
207,170,216655,2,0,L|218:304,1,135.000005149842,2|12,1:0|1:0,0:0:0:0:
316,356,216991,2,0,L|323:280,1,67.5000025749208,2|0,1:0|0:0,0:0:0:0:
460,240,217214,6,0,L|466:307,1,67.5000025749208,2|4,1:0|1:0,0:0:0:0:
333,196,217438,2,0,L|339:128,1,67.5000025749208,2|0,1:0|0:2,0:0:0:0:
468,60,217662,1,2,1:0:0:0:
468,60,217774,2,0,L|474:127,1,67.5000025749208,12|0,0:0|0:0,0:0:0:0:
333,196,217998,2,0,B|268:200|268:200|204:168,1,135.000005149842,2|0,1:0|1:0,0:0:0:0:
284,376,218446,2,0,B|313:317|313:317|372:278,1,135.000005149842,2|8,1:0|0:0,0:0:0:0:
164,264,218894,2,0,B|181:291|181:291|184:326,1,67.5000025749208,2|0,1:0|0:0,0:0:0:0:
48,316,219117,5,0,1:0:0:0:
48,316,219229,2,0,L|56:160,1,135.000005149842,2|2,1:0|1:0,0:0:0:0:
128,48,219565,2,0,L|131:115,1,67.5000025749208,12|0,0:0|0:0,0:0:0:0:
164,264,219789,2,0,P|232:268|292:224,1,135.000005149842,2|0,1:0|1:0,0:0:0:0:
484,260,220237,2,0,P|417:255|362:291,1,135.000005149842,2|10,1:0|1:0,0:0:0:0:
285,232,220573,2,0,L|288:156,1,67.5000025749208,2|0,1:0|0:0,0:0:0:0:
362,291,220797,6,0,P|368:324|367:358,1,67.5000025749208,2|4,1:0|1:0,0:0:0:0:
200,360,221020,2,0,P|199:326|205:293,1,67.5000025749208,2|0,1:0|0:0,0:0:0:0:
287,164,221244,1,2,1:0:0:0:
287,164,221356,2,0,L|285:232,1,67.5000025749208,12|0,0:0|0:0,0:0:0:0:
200,360,221580,2,0,P|132:368|72:336,1,135.000005149842,2|0,1:0|1:0,0:0:0:0:
285,232,222028,2,0,L|453:216,1,135.000005149842,2|12,1:0|0:0,0:0:0:0:
160,272,222476,2,0,P|132:248|112:200,1,67.5000025749208,2|0,1:0|0:0,0:0:0:0:
204,184,222700,5,0,1:0:0:0:
204,184,222811,2,0,P|200:115|236:57,1,135.000005149842,2|2,1:0|1:0,0:0:0:0:
320,88,223147,2,0,L|400:76,1,67.5000025749208,12|0,0:0|0:0,0:0:0:0:
232,60,223371,2,0,L|94:48,1,135.000005149842,2|4,1:0|1:0,0:0:0:0:
204,184,223819,2,0,L|342:172,1,135.000005149842,2|12,1:0|0:0,0:0:0:0:
424,128,224155,2,0,L|436:56,1,67.5000025749208,2|0,1:0|0:0,0:0:0:0:
484,220,224379,6,0,L|500:292,1,67.5000025749208,2|4,1:0|1:0,0:0:0:0:
384,328,224603,2,0,L|396:256,1,67.5000025749208,2|0,1:0|0:0,0:0:0:0:
338,172,224826,1,2,1:0:0:0:
338,172,224938,2,0,L|294:231,1,67.5000025749208,12|0,0:0|0:0,0:0:0:0:
160,336,225162,6,0,P|100:340|32:296,1,135.000005149842,2|0,1:0|1:0,0:0:0:0:
81,150,225610,2,0,P|141:146|209:190,1,135.000005149842,2|12,1:0|0:0,0:0:0:0:
160,336,225946,2,0,L|145:270,1,67.5000025749208,2|0,1:0|0:0,0:0:0:0:
203,183,226170,6,0,L|217:117,1,67.5000025749208,2|0,1:0|0:0,0:0:0:0:
252,280,226394,2,0,L|266:345,1,67.5000025749208,2|0,1:0|0:0,0:0:0:0:
308,156,226617,1,2,1:0:0:0:
308,156,226729,2,0,L|322:90,1,67.5000025749208,12|0,0:0|0:0,0:0:0:0:
360,284,226953,2,0,B|376:348|376:348|436:392,1,135.000005149842,2|0,1:0|1:0,0:0:0:0:
496,176,227401,2,0,B|480:112|480:112|420:68,1,135.000005149842,2|12,1:0|0:0,0:0:0:0:
322,90,227737,2,0,L|308:156,1,67.5000025749208,2|0,1:0|0:0,0:0:0:0:
252,280,227961,6,0,L|266:345,1,67.5000025749208,2|0,1:0|0:0,0:0:0:0:
203,183,228185,2,0,L|217:117,1,58.4999973220826,2|0,1:0|0:0,0:0:0:0:
145,270,228408,1,2,1:0:0:0:
145,270,228520,2,0,L|160:336,1,45,0|0,0:0|0:0,0:0:0:0:
84,192,228744,6,0,L|112:72,1,101.250003862381,2|0,0:0|0:0,0:0:0:0:
128,68,229192,1,4,1:2:0:0:
0,240,229416,1,4,1:2:0:0:
203,183,229640,1,8,0:0:0:0:
0,132,229864,5,4,1:2:0:0:
145,270,230088,1,0,0:0:0:0:
252,104,230311,2,0,L|275:202,1,101.250003862381,8|0,0:0|0:0,0:0:0:0:
316,204,230759,5,2,0:0:0:0:
308,236,230871,1,2,0:0:0:0:
300,268,230983,2,0,L|320:348,1,67.5000025749208,2|0,1:0|0:0,0:0:0:0:
432,376,231207,1,10,0:0:0:0:
449,337,231318,1,2,1:0:0:0:
454,296,231430,1,2,0:0:0:0:
446,254,231542,1,2,1:0:0:0:
425,218,231654,5,4,1:0:0:0:
