osu file format v14

[General]
AudioFilename: exec.mp3
AudioLeadIn: 0
PreviewTime: 130902
Countdown: 0
SampleSet: Normal
StackLeniency: 0.7
Mode: 0
LetterboxInBreaks: 0
WidescreenStoryboard: 1

[Editor]
DistanceSpacing: 1.2
BeatDivisor: 4
GridSize: 4
TimelineZoom: 1

[Metadata]
Title:the executioner
TitleUnicode:the executioner
Artist:zts
ArtistUnicode:zts
Creator:-kevincela-
Version:Hard
Source:うみねこのなく頃に散
Tags:07th Expansion Sieg Umineko no Naku Koro ni Chiru czl code zts label musicbox red
BeatmapID:758016
BeatmapSetID:342360

[Difficulty]
HPDrainRate:5
CircleSize:4
OverallDifficulty:6
ApproachRate:7
SliderMultiplier:1.6
SliderTickRate:2

[Events]
//Background and Video events
0,0,"ghfg.jpg",0,0
//Break Periods
2,100653,113211
2,174534,178360
//Storyboard Layer 0 (Background)
//Storyboard Layer 1 (Fail)
//Storyboard Layer 2 (Pass)
//Storyboard Layer 3 (Foreground)
//Storyboard Sound Samples

[TimingPoints]
7320,447.761194029851,4,1,0,80,1,0
28140,-100,4,1,0,80,0,0
28924,-100,4,2,1,65,0,0
29484,-100,4,2,1,65,0,0
29931,-100,4,2,1,40,0,0
30043,-100,4,2,1,65,0,0
42693,-86.9565217391304,4,2,1,80,0,0
43140,-100,4,2,1,65,0,0
45715,-100,4,2,1,45,0,0
46275,-100,4,2,1,65,0,0
57021,-86.9565217391304,4,2,1,80,0,0
57469,-100,4,2,1,65,0,0
71125,-100,4,1,1,65,0,0
71349,-100,4,2,1,80,0,0
71797,-100,4,2,1,70,0,0
85454,-86.9565217391304,4,2,1,70,0,0
86125,-100,4,2,1,70,0,0
87917,-95.2380952380952,4,2,1,70,0,0
89708,-90.9090909090909,4,2,1,70,0,0
91499,-86.9565217391304,4,2,1,70,0,0
93290,-83.3333333333333,4,2,1,70,0,0
95081,-80,4,2,1,70,0,0
98215,-76.9230769230769,4,2,1,70,0,0
98663,-100,4,2,1,70,0,0
99111,-86.9565217391304,4,2,1,70,0,0
99222,-100,4,2,1,70,0,0
100006,-86.9565217391304,4,2,1,70,0,0
115230,-100,4,2,0,50,0,0
115342,-100,4,2,1,70,0,0
116121,-100,4,2,0,50,0,0
116238,-100,4,2,1,70,0,0
117021,-100,4,2,0,50,0,0
117133,-100,4,2,1,70,0,0
117917,-100,4,2,0,50,0,0
118029,-100,4,2,1,70,0,0
118365,-100,4,2,1,50,0,0
118477,-100,4,2,1,70,0,0
118813,-100,4,2,0,50,0,0
118924,-100,4,2,1,70,0,0
119708,-100,4,2,0,50,0,0
119820,-100,4,2,1,70,0,0
120604,-100,4,2,0,50,0,0
120715,-100,4,2,1,70,0,0
121499,-100,4,1,1,70,0,0
121555,-100,4,1,1,40,0,0
121946,-100,4,1,1,70,0,0
122395,-100,4,2,0,50,0,0
122507,-100,4,2,1,70,0,0
123290,-100,4,2,1,70,0,0
123346,-100,4,1,1,40,0,0
123737,-90.9090909090909,4,1,1,70,0,0
124186,-100,4,2,0,60,0,0
124298,-100,4,2,1,70,0,0
125081,-100,4,2,1,70,0,0
125137,-100,4,1,1,40,0,0
125528,-90.9090909090909,4,1,1,70,0,0
126424,-83.3333333333333,4,1,1,70,0,0
127320,-80,4,1,1,40,0,0
127769,-76.9230769230769,4,1,1,50,0,0
128214,-74.0740740740741,4,1,1,55,0,0
128662,-125,4,2,1,70,0,0
130454,-100,4,2,1,70,0,1
159111,-90.9090909090909,4,2,1,70,0,1
159558,-83.3333333333333,4,2,1,70,0,1
160006,-100,4,2,1,70,0,0
170977,-100,4,1,1,30,0,0
172096,-100,4,1,1,40,0,0
172992,-100,4,1,1,30,0,0
173439,-100,4,1,1,40,0,0
181506,447.761194029851,4,1,0,50,1,0
181835,-200,4,2,1,40,0,0
188670,-133.333333333333,4,2,0,20,0,0
188782,-133.333333333333,4,2,1,40,0,0
190461,-133.333333333333,4,1,1,30,0,0
190573,-133.333333333333,4,2,1,50,0,0
192252,-133.333333333333,4,1,1,40,0,0
192364,-117.647058823529,4,2,1,40,0,0
194043,-117.647058823529,4,2,1,50,0,0
194491,-117.647058823529,4,2,1,55,0,0
194938,-117.647058823529,4,2,1,60,0,0
195050,-117.647058823529,4,2,1,50,0,0
195834,-100,4,2,1,70,0,0
201201,-200,4,1,1,70,0,0
201319,-200,4,1,1,40,0,0
201543,-200,4,1,1,30,0,0
201881,-200,4,1,1,10,0,0
202544,-100,4,2,1,70,0,0
202998,-100,4,2,1,80,0,1
226282,-100,4,2,1,70,0,1
227177,-100,4,2,1,60,0,1
228185,-76.9230769230769,4,2,1,60,0,1
228520,-100,4,2,1,40,0,1
228744,-133.333333333333,4,2,1,40,0,1
229192,-133.333333333333,4,2,1,65,0,1
230759,-66.6666666666667,4,2,1,65,0,1
231655,-66.6666666666667,4,2,1,65,0,0

[Colours]
Combo1 : 0,128,192
Combo2 : 255,89,89
Combo3 : 145,0,145
Combo4 : 126,0,253

[HitObjects]
72,144,28140,5,0,0:0:0:0:
100,236,28364,2,0,L|96:292,3,40,0|0|0|0,0:0|0:0|0:0|0:0,0:0:0:0:
88,312,28812,6,0,L|192:304,1,80,6|0,0:2|0:0,0:0:0:0:
260,332,29260,2,0,L|392:324,1,120,2|0,0:0|0:0,0:0:0:0:
404,336,29708,2,0,L|396:232,1,80,2|4,0:0|1:2,0:0:0:0:
440,172,30155,2,0,L|448:68,1,80,0|0,1:0|0:0,0:0:0:0:
308,40,30603,6,0,L|314:119,1,80,2|0,0:0|0:0,0:0:0:0:
248,192,31051,2,0,P|200:200|128:172,1,120,2|0,0:0|0:0,0:0:0:0:
108,152,31499,2,0,L|104:108,2,40,2|0|0,0:0|0:0|1:0,0:0:0:0:
64,236,31946,1,0,1:0:0:0:
116,316,32170,5,0,0:0:0:0:
116,316,32282,1,0,0:0:0:0:
116,316,32394,2,0,L|200:312,1,80,2|0,0:0|0:0,0:0:0:0:
280,360,32842,2,0,P|292:308|252:236,1,120,2|0,0:0|0:0,0:0:0:0:
236,228,33290,1,2,0:0:0:0:
195,312,33514,1,0,1:0:0:0:
280,360,33737,2,0,L|380:352,1,80,0|0,1:0|0:0,0:0:0:0:
364,360,34073,5,0,0:0:0:0:
368,368,34185,2,0,L|373:271,1,80,2|0,0:0|0:0,0:0:0:0:
464,308,34633,2,0,L|469:185,1,120,2|0,0:0|0:0,0:0:0:0:
484,156,35081,1,2,0:0:0:0:
408,96,35305,1,0,1:0:0:0:
332,152,35528,1,0,1:0:0:0:
356,264,35752,5,0,0:0:0:0:
356,264,35864,1,0,0:0:0:0:
356,264,35976,2,0,L|252:260,1,80,4|0,1:0|0:0,0:0:0:0:
200,320,36424,2,0,L|56:312,1,120,2|0,0:0|0:0,0:0:0:0:
44,320,36872,1,2,0:0:0:0:
36,224,37096,1,0,1:0:0:0:
28,128,37320,2,0,L|147:121,1,120,0|0,1:0|0:0,0:0:0:0:
180,140,37767,6,0,P|172:100|184:52,1,80,2|0,0:0|0:0,0:0:0:0:
272,96,38215,2,0,P|282:148|266:211,1,120,2|0,0:0|0:0,0:0:0:0:
244,240,38663,1,2,0:0:0:0:
164,292,38887,1,0,1:0:0:0:
88,232,39111,2,0,P|72:174|82:116,1,120,0|0,1:0|0:0,0:0:0:0:
100,84,39558,6,0,L|12:80,1,80,2|0,0:0|0:0,0:0:0:0:
176,32,40006,2,0,L|304:28,1,120,2|0,0:0|0:0,0:0:0:0:
328,44,40454,1,2,0:0:0:0:
372,128,40678,1,0,1:2:0:0:
464,96,40902,2,0,L|468:188,1,80,0|0,1:0|0:0,0:0:0:0:
456,212,41237,1,0,0:0:0:0:
444,248,41349,6,0,L|448:340,1,80,0|0,1:0|1:0,0:0:0:0:
360,368,41797,1,0,1:0:0:0:
276,320,42021,1,0,1:0:0:0:
188,360,42245,2,0,P|156:368|104:356,1,80,2|0,0:0|1:0,0:0:0:0:
40,276,42693,6,0,L|44:120,1,138.000002632141,4|0,0:0|0:0,0:0:0:0:
24,108,43140,6,0,L|112:100,1,80,4|0,1:0|0:0,0:0:0:0:
196,68,43588,2,0,B|200:128|200:128|184:164|184:164|188:232,1,160,0|2,1:0|0:0,0:0:0:0:
264,284,44260,1,2,0:0:0:0:
340,224,44484,2,0,P|400:216|464:256,1,120,0|0,1:0|0:0,0:0:0:0:
468,280,44931,6,0,L|476:184,1,80,2|2,1:2|0:0,0:0:0:0:
384,304,45379,2,0,L|390:383,1,80,0|2,1:0|0:0,0:0:0:0:
340,224,45827,1,2,0:2:0:0:
264,284,46051,1,0,0:0:0:0:
187,224,46275,2,0,L|87:220,1,80,0|0,1:0|0:0,0:0:0:0:
107,220,46611,5,0,0:0:0:0:
107,220,46722,2,0,L|104:136,1,80,0|0,1:0|0:0,0:0:0:0:
176,76,47170,2,0,P|224:88|304:56,1,120,0|0,1:0|0:0,0:0:0:0:
316,44,47618,2,0,L|328:132,1,80,2|2,0:0|0:0,0:0:0:0:
416,112,48066,2,0,L|398:237,1,120,0|0,1:0|0:0,0:0:0:0:
392,268,48514,6,0,L|480:260,1,80,0|2,1:0|0:0,0:0:0:0:
416,364,48961,2,0,L|336:356,1,80,0|0,1:0|0:0,0:0:0:0:
252,312,49409,1,2,0:0:0:0:
164,348,49633,1,2,0:0:0:0:
80,304,49857,2,0,L|72:248,3,40,0|0|0|0,1:0|1:0|1:0|1:0,0:0:0:0:
44,244,50305,6,0,L|48:144,1,80,4|0,1:0|0:0,0:0:0:0:
96,84,50752,2,0,B|152:80|152:80|192:96|192:96|256:92,1,160,0|2,1:0|0:0,0:0:0:0:
340,52,51424,1,2,0:0:0:0:
408,120,51648,2,0,P|416:184|392:256,1,120,0|0,1:0|0:0,0:0:0:0:
380,264,52096,6,0,L|292:260,1,80,0|0,1:0|0:0,0:0:0:0:
352,352,52543,2,0,L|431:348,1,80,0|0,1:0|0:0,0:0:0:0:
300,260,52991,1,0,1:0:0:0:
204,276,53215,1,2,0:0:0:0:
108,288,53439,2,0,L|28:284,1,80,0|0,1:0|0:0,0:0:0:0:
28,284,53775,5,0,0:0:0:0:
28,284,53887,2,0,P|24:244|36:196,1,80,0|0,1:0|0:0,0:0:0:0:
108,148,54334,2,0,L|236:140,1,120,0|0,1:0|0:0,0:0:0:0:
260,156,54782,2,0,L|264:68,1,80,2|2,0:0|0:0,0:0:0:0:
356,100,55230,2,0,L|352:232,1,120,0|0,1:0|0:0,0:0:0:0:
368,252,55678,5,0,1:0:0:0:
280,292,55902,1,0,0:0:0:0:
188,260,56125,2,0,P|144:248|104:252,1,80,0|0,1:0|0:0,0:0:0:0:
68,368,56573,2,0,L|152:360,1,80,0|0,1:0|1:0,0:0:0:0:
280,292,57021,6,0,P|280:232|224:168,1,138.000002632141,4|0,0:0|0:0,0:0:0:0:
200,164,57469,6,0,L|192:72,1,80,4|2,1:0|0:0,0:0:0:0:
108,128,57917,2,0,L|28:134,1,80,0|2,1:0|0:0,0:0:0:0:
72,220,58364,2,0,L|78:299,1,80,0|2,1:0|0:0,0:0:0:0:
168,260,58812,2,0,L|247:253,1,80,0|2,1:0|0:0,0:0:0:0:
356,296,59260,5,0,1:0:0:0:
444,336,59484,1,2,0:0:0:0:
508,268,59708,2,0,P|508:232|488:184,1,80,0|2,1:0|0:0,0:0:0:0:
448,108,60155,2,0,P|448:72|468:24,1,80,0|2,1:0|0:0,0:0:0:0:
492,191,60603,2,0,P|440:200|376:168,1,120,0|0,1:0|1:0,0:0:0:0:
356,144,61051,6,0,P|356:180|336:228,1,80,0|2,1:0|0:0,0:0:0:0:
248,244,61499,2,0,P|248:208|268:160,1,80,0|2,1:0|0:0,0:0:0:0:
356,144,61946,2,0,L|448:140,1,80,0|2,1:0|0:0,0:0:0:0:
263,167,62394,2,0,L|171:163,1,80,0|2,1:0|0:0,0:0:0:0:
68,208,62842,5,0,1:0:0:0:
60,304,63066,1,2,0:0:0:0:
144,352,63290,2,0,P|184:356|228:344,1,80,0|0,1:0|0:0,0:0:0:0:
296,284,63737,1,0,1:0:0:0:
380,328,63961,1,0,1:0:0:0:
460,272,64185,2,0,L|456:224,3,40,0|0|0|0,1:0|1:0|1:0|1:0,0:0:0:0:
468,196,64633,5,4,1:0:0:0:
376,168,64857,1,2,0:0:0:0:
284,144,65081,2,0,L|128:152,1,120,0|0,1:0|0:0,0:0:0:0:
128,144,65528,2,0,P|136:184|128:228,1,80,0|2,1:0|0:0,0:0:0:0:
32,180,65976,2,0,P|24:132|48:56,1,120,0|0,1:0|1:0,0:0:0:0:
68,40,66424,5,0,1:0:0:0:
160,64,66648,1,2,0:0:0:0:
244,20,66872,1,0,1:0:0:0:
328,68,67096,2,0,L|320:124,2,40,2|0|0,0:0|0:0|1:2,0:0:0:0:
420,36,67543,1,2,0:0:0:0:
484,108,67767,2,0,P|488:144|484:188,1,80,0|0,1:0|1:0,0:0:0:0:
484,187,68103,5,0,0:0:0:0:
484,187,68215,2,0,L|388:180,1,80,4|2,1:0|0:0,0:0:0:0:
448,268,68663,2,0,L|329:258,1,120,0|0,1:0|0:0,0:0:0:0:
296,244,69111,2,0,P|300:288|288:344,1,80,0|2,1:0|0:0,0:0:0:0:
176,292,69558,2,0,P|172:248|184:192,1,80,0|0,1:0|1:0,0:0:0:0:
248,96,70006,5,4,1:0:0:0:
156,72,70230,2,0,L|148:24,2,40,0|0|4,0:0|0:0|1:0,0:0:0:0:
72,120,70678,2,0,L|40:96,2,40,0|0|4,0:0|0:0|1:0,0:0:0:0:
84,216,71125,6,0,P|80:256|64:300,1,80,2|4,1:0|0:0,0:0:0:0:
48,324,71461,2,0,L|140:332,1,80,0|0,0:0|0:0,0:0:0:0:
160,348,71797,5,4,1:0:0:0:
252,324,72021,1,0,0:0:0:0:
344,292,72245,2,0,L|472:300,1,120,0|0,1:0|0:0,0:0:0:0:
500,288,72693,1,2,0:0:0:0:
456,200,72917,1,0,1:0:0:0:
484,108,73140,2,0,L|356:116,1,120,0|0,1:0|0:0,0:0:0:0:
336,136,73588,6,0,P|336:96|324:56,1,80,0|2,1:0|0:0,0:0:0:0:
244,112,74036,2,0,L|228:248,1,120,0|0,1:0|0:0,0:0:0:0:
240,268,74484,2,0,L|160:256,1,80,2|0,0:0|1:0,0:0:0:0:
72,296,74931,1,0,1:0:0:0:
12,220,75155,5,0,0:0:0:0:
12,220,75267,1,0,1:0:0:0:
12,220,75379,2,0,P|8:176|20:136,1,80,0|0,1:0|0:0,0:0:0:0:
84,72,75827,2,0,L|252:64,1,160,0|2,1:0|0:0,0:0:0:0:
324,8,76499,1,0,1:0:0:0:
392,76,76722,2,0,P|408:132|396:216,1,120,0|0,1:0|0:0,0:0:0:0:
396,228,77170,6,0,L|488:220,1,80,0|2,1:0|0:0,0:0:0:0:
456,316,77618,2,0,L|364:324,1,80,0|2,1:0|0:0,0:0:0:0:
284,292,78066,1,0,1:0:0:0:
196,332,78290,1,0,1:0:0:0:
134,257,78514,2,0,P|168:237|208:236,1,80,0|2,1:0|0:0,0:0:0:0:
100,344,78961,6,0,L|8:340,1,80,4|2,1:0|0:0,0:0:0:0:
134,257,79409,2,0,P|138:209|118:133,1,120,0|0,1:0|0:0,0:0:0:0:
104,108,79857,2,0,L|196:104,1,80,2|0,0:0|1:0,0:0:0:0:
272,68,80305,2,0,P|268:116|288:192,1,120,0|0,1:0|0:0,0:0:0:0:
304,216,80752,6,0,L|224:219,1,80,0|2,1:0|0:0,0:0:0:0:
134,257,81200,1,0,1:0:0:0:
64,192,81424,2,0,L|56:144,2,40,0|0|2,0:0|0:0|0:0,0:0:0:0:
134,257,81872,1,0,1:0:0:0:
84,340,82096,2,0,L|0:332,1,80,0|0,1:0|0:0,0:0:0:0:
134,257,82543,6,0,L|218:249,1,80,0|2,1:0|0:0,0:0:0:0:
200,344,82991,2,0,L|327:331,1,120,0|0,1:0|0:0,0:0:0:0:
356,340,83439,1,2,0:0:0:0:
456,244,83663,1,0,1:0:0:0:
456,244,83887,2,0,L|328:231,1,120,0|0,1:0|0:0,0:0:0:0:
304,244,84334,5,0,1:0:0:0:
248,168,84558,1,2,0:0:0:0:
292,84,84782,2,0,L|384:76,1,80,0|2,1:0|0:0,0:0:0:0:
248,168,85230,2,0,L|156:160,1,80,4|2,2:0|0:0,0:0:0:0:
304,244,85678,6,0,L|396:236,1,92.0000017547608,4|0,0:0|0:0,0:0:0:0:
220,300,86125,5,4,1:0:0:0:
168,220,86349,1,2,0:0:0:0:
248,168,86573,1,0,1:0:0:0:
304,244,86797,1,0,0:0:0:0:
220,300,87021,2,0,P|156:316|84:264,1,160,2|0,0:0|1:0,0:0:0:0:
168,220,87693,1,0,0:0:0:0:
304,244,87917,6,0,L|396:240,1,83.9999974365235,0|2,1:0|0:0,0:0:0:0:
428,144,88364,2,0,L|336:140,1,83.9999974365235,0|2,1:0|0:0,0:0:0:0:
485,206,88812,2,0,P|510:129|460:66,1,167.999994873047,2|0,0:0|1:0,0:0:0:0:
344,140,89484,5,0,0:0:0:0:
344,140,89596,1,0,0:0:0:0:
344,140,89708,2,0,L|348:240,1,88.000002685547,0|0,1:0|0:0,0:0:0:0:
232,168,90155,2,0,L|235:80,1,88.000002685547,0|0,1:0|1:0,0:0:0:0:
140,232,90603,2,0,P|68:232|8:136,1,176.000005371094,2|0,0:0|1:0,0:0:0:0:
112,132,91275,1,0,0:0:0:0:
232,168,91499,5,2,1:2:0:0:
296,256,91722,1,0,0:0:0:0:
204,320,91946,1,2,1:2:0:0:
140,232,92170,1,0,1:0:0:0:
232,168,92394,2,0,P|300:144|390:207,1,184.000003509522,0|0,0:0|1:0,0:0:0:0:
296,256,93066,1,2,0:0:0:0:
140,232,93290,6,0,P|116:184|124:128,1,95.9999970703126,4|2,1:0|0:0,0:0:0:0:
253,78,93737,2,0,P|253:125|231:167,1,95.9999970703126,0|0,1:0|0:0,0:0:0:0:
160,44,94185,2,0,L|384:40,1,191.999994140625,0|0,1:0|1:0,0:0:0:0:
456,92,94857,1,0,0:0:0:0:
396,192,95081,6,0,P|388:240|400:296,1,100,4|0,0:0|0:0,0:0:0:0:
448,384,95528,2,0,L|324:376,1,100,4|0,0:0|0:0,0:0:0:0:
252,316,95976,2,0,B|176:320|176:320|132:344|132:344|48:352,1,200,0|2,1:0|1:2,0:0:0:0:
80,236,96648,5,0,0:0:0:0:
80,236,96760,1,0,0:0:0:0:
80,236,96872,2,0,L|76:132,1,100,4|0,1:0|0:0,0:0:0:0:
152,64,97320,2,0,B|252:40|240:104|352:72,1,200,0|0,1:0|0:0,0:0:0:0:
444,28,97991,1,0,1:0:0:0:
504,120,98215,2,0,P|508:172|492:236,1,103.999995239258,4|0,1:0|0:0,0:0:0:0:
420,320,98663,6,0,L|308:312,1,80,4|0,0:0|0:0,0:0:0:0:
272,204,99111,6,0,L|363:200,1,92.0000017547608,4|0,0:0|0:0,0:0:0:0:
224,304,99558,6,0,L|168:300,3,40,0|0|2|2,1:0|0:0|0:0|0:0,0:0:0:0:
148,328,100006,6,0,B|156:260|156:260|136:208|136:208|144:136,1,184.000003509522,4|4,0:0|1:0,0:0:0:0:
68,80,114111,5,4,0:0:0:0:
68,80,114335,1,4,2:0:0:0:
84,176,114559,1,8,0:0:0:0:
176,116,114782,5,4,0:0:0:0:
176,116,115006,1,4,0:0:0:0:
192,212,115230,2,0,L|208:332,1,120,8|0,2:0|1:0,0:0:0:0:
196,364,115678,2,0,L|296:356,1,80,0|0,0:0|1:0,0:0:0:0:
372,348,116125,1,8,2:0:0:0:
372,348,116573,5,0,1:0:0:0:
380,252,116797,1,0,1:0:0:0:
388,156,117021,1,8,2:0:0:0:
468,208,117245,1,0,0:0:0:0:
468,208,117357,1,0,1:0:0:0:
468,208,117469,1,0,0:0:0:0:
380,252,117693,1,0,1:0:0:0:
296,204,117917,2,0,L|212:208,1,80,8|0,2:0|0:0,0:0:0:0:
104,260,118364,5,4,0:0:0:0:
104,260,118588,1,0,1:0:0:0:
60,176,118812,2,0,P|52:128|64:48,1,120,8|0,2:0|1:0,0:0:0:0:
76,24,119260,2,0,L|160:32,1,80,0|0,0:0|1:0,0:0:0:0:
252,40,119708,1,8,2:0:0:0:
252,40,120155,5,0,1:0:0:0:
256,136,120379,1,0,1:0:0:0:
260,232,120603,1,8,2:0:0:0:
340,180,120827,1,0,0:0:0:0:
340,180,120939,1,0,1:0:0:0:
340,180,121051,1,0,0:0:0:0:
256,136,121275,1,0,1:0:0:0:
176,188,121499,1,4,2:0:0:0:
260,232,121722,2,0,L|262:280,3,26.6666666666667,0|0|0|4,0:0|0:0|0:0|1:0,0:0:0:0:
340,180,122170,5,0,0:0:0:0:
416,120,122394,2,0,P|436:176|408:252,1,120,8|0,2:0|1:0,0:0:0:0:
404,264,122842,2,0,L|496:256,1,80,0|0,0:0|1:0,0:0:0:0:
352,348,123290,1,4,2:0:0:0:
352,348,123737,5,4,0:0:0:0:
264,320,123961,1,0,1:0:0:0:
180,288,124185,2,0,L|40:296,1,132.00000402832,8|0,2:0|1:0,0:0:0:0:
20,316,124633,2,0,P|8:276|16:228,1,80,0|0,0:0|1:0,0:0:0:0:
52,156,125081,1,4,2:0:0:0:
52,156,125528,5,4,1:0:0:0:
128,116,125752,1,0,1:0:0:0:
208,80,125976,2,0,L|216:232,1,132.00000402832,4|0,2:0|0:0,0:0:0:0:
236,240,126424,5,4,1:0:0:0:
328,192,126648,1,0,0:0:0:0:
416,148,126872,2,0,L|428:308,1,143.999995605469,4|0,2:0|0:0,0:0:0:0:
448,308,127320,6,0,L|348:296,1,100,4|0,1:0|2:0,0:0:0:0:
236,240,127767,2,0,P|224:288|240:348,1,100,4|0,1:0|2:0,0:0:0:0:
328,192,128215,2,0,P|331:138|312:89,1,108.000000411987,4|0,1:0|2:0,0:0:0:0:
224,8,128663,5,4,2:1:0:0:
256,192,128775,12,4,130454,1:0:0:0:
84,216,130902,6,0,L|80:136,1,80,4|0,1:0|0:0,0:0:0:0:
136,60,131349,1,0,1:0:0:0:
220,104,131573,1,2,0:0:0:0:
272,212,131797,6,0,L|268:292,1,80,0|2,1:0|0:0,0:0:0:0:
324,368,132244,1,0,1:0:0:0:
408,324,132468,1,2,0:0:0:0:
496,280,132693,5,4,1:0:0:0:
504,184,132917,1,0,0:0:0:0:
388,132,133140,5,4,1:0:0:0:
396,228,133364,1,0,0:0:0:0:
504,184,133588,5,0,1:0:0:0:
512,88,133812,1,0,1:0:0:0:
380,36,134036,5,0,1:0:0:0:
388,132,134260,1,0,1:0:0:0:
396,228,134484,6,0,L|308:224,1,80,4|0,1:0|0:0,0:0:0:0:
224,256,134931,2,0,L|136:252,1,80,0|2,1:0|0:0,0:0:0:0:
100,164,135379,2,0,L|179:167,1,80,0|2,1:0|0:0,0:0:0:0:
176,340,135827,2,0,L|96:336,1,80,0|2,1:0|0:0,0:0:0:0:
224,256,136275,5,0,1:0:0:0:
272,340,136499,1,0,1:0:0:0:
176,340,136722,1,0,1:0:0:0:
224,256,136946,1,0,1:0:0:0:
320,252,137170,5,2,1:2:0:0:
368,336,137394,1,2,0:0:0:0:
272,340,137618,1,0,1:0:0:0:
224,256,137842,1,2,0:0:0:0:
320,252,138066,6,0,L|412:248,2,80,4|0|0,1:0|0:0|1:0,0:0:0:0:
224,256,138737,1,0,1:0:0:0:
176,160,138961,6,0,L|84:156,2,80,4|0|0,1:0|0:0|1:0,0:0:0:0:
272,164,139632,1,0,1:0:0:0:
320,68,139857,5,4,1:0:0:0:
224,72,140081,1,0,0:0:0:0:
176,160,140305,5,4,1:0:0:0:
272,164,140528,1,0,0:0:0:0:
320,252,140752,5,0,1:0:0:0:
224,256,140976,1,0,1:0:0:0:
176,344,141200,5,0,1:0:0:0:
272,348,141423,1,0,1:0:0:0:
320,252,141648,5,4,1:0:0:0:
224,256,141872,2,0,L|132:260,2,80,2|0|2,0:0|1:0|0:0,0:0:0:0:
272,164,142543,5,0,1:0:0:0:
368,168,142767,2,0,L|460:172,2,80,0|0|2,1:0|1:0|0:0,0:0:0:0:
320,80,143439,5,4,1:0:0:0:
368,168,143663,1,2,0:0:0:0:
320,252,143887,5,0,1:0:0:0:
272,164,144111,1,2,0:0:0:0:
224,256,144334,5,0,1:0:0:0:
272,348,144558,1,0,1:0:0:0:
132,328,144782,6,0,L|16:320,1,80,4|0,0:0|0:0,0:0:0:0:
272,348,145230,6,0,L|412:340,1,120,4|0,1:0|0:0,0:0:0:0:
424,356,145678,2,0,P|416:320|416:272,1,80,4|0,0:0|1:0,0:0:0:0:
436,184,146125,2,0,P|435:144|427:105,1,80,4|0,1:0|0:0,0:0:0:0:
356,40,146573,1,0,1:0:0:0:
268,80,146797,1,0,1:0:0:0:
152,48,147021,6,0,L|156:160,1,80,4|0,1:0|0:0,0:0:0:0:
270,159,147469,2,0,L|267:79,1,80,4|0,1:0|0:0,0:0:0:0:
154,127,147917,6,0,L|158:239,1,80,0|0,1:0|1:0,0:0:0:0:
272,238,148365,2,0,L|269:158,1,80,0|0,1:0|1:0,0:0:0:0:
156,206,148812,6,0,L|152:336,1,120,4|0,1:0|0:0,0:0:0:0:
136,360,149260,2,0,L|232:356,1,80,4|2,2:0|0:0,0:0:0:0:
312,352,149708,1,0,1:0:0:0:
408,344,149931,1,2,0:0:0:0:
448,256,150155,1,0,1:0:0:0:
352,264,150379,1,0,1:0:0:0:
392,176,150603,6,0,L|488:160,1,80,4|2,1:0|0:0,0:0:0:0:
352,264,151051,2,0,L|256:248,1,80,0|2,1:0|0:0,0:0:0:0:
204,184,151499,2,0,P|200:140|212:92,1,80,0|0,1:0|1:0,0:0:0:0:
273,250,151946,2,0,P|277:294|265:342,1,80,4|0,2:0|1:0,0:0:0:0:
160,360,152394,6,0,L|40:352,1,120,4|0,1:0|0:0,0:0:0:0:
8,360,152842,2,0,P|24:324|28:272,1,80,4|0,0:0|1:0,0:0:0:0:
16,188,153290,2,0,P|16:128|40:72,1,120,4|0,1:0|0:0,0:0:0:0:
64,48,153737,2,0,L|160:40,1,80,4|0,0:0|1:0,0:0:0:0:
232,84,154185,5,4,1:0:0:0:
328,76,154409,1,0,0:0:0:0:
380,172,154633,5,4,1:0:0:0:
284,164,154857,1,0,0:0:0:0:
232,256,155081,5,4,1:0:0:0:
328,248,155305,1,0,1:0:0:0:
380,344,155529,5,4,0:0:0:0:
284,336,155753,1,0,1:0:0:0:
328,248,155976,6,0,L|472:244,1,120,4|0,1:0|0:0,0:0:0:0:
476,264,156424,2,0,L|472:172,1,80,0|2,1:0|0:0,0:0:0:0:
432,96,156872,1,0,1:0:0:0:
352,152,157096,1,0,1:0:0:0:
256,136,157320,1,0,1:0:0:0:
200,56,157543,6,0,L|208:16,2,40,0|0|0,0:0|1:0|1:0,0:0:0:0:
128,120,157991,1,0,1:0:0:0:
32,104,158215,1,4,1:2:0:0:
32,104,158439,1,0,1:0:0:0:
64,196,158663,1,0,1:0:0:0:
64,196,158887,1,0,1:0:0:0:
24,296,159111,5,0,1:0:0:0:
24,296,159222,2,0,L|132:288,1,88.000002685547,0|0,1:0|1:0,0:0:0:0:
136,308,159558,6,0,L|336:296,1,191.999994140625,4|4,0:0|1:0,0:0:0:0:
404,352,160230,1,2,0:0:0:0:
468,280,160454,1,0,1:0:0:0:
468,280,160678,1,2,0:0:0:0:
392,220,160902,1,0,1:0:0:0:
392,220,161125,1,2,0:0:0:0:
316,156,161349,1,2,0:0:0:0:
316,156,161573,1,0,1:0:0:0:
372,80,161797,6,0,L|464:76,1,80,0|2,0:0|0:0,0:0:0:0:
316,156,162245,2,0,L|224:152,1,80,0|2,1:0|1:2,0:0:0:0:
140,152,162693,1,0,1:0:0:0:
56,196,162917,1,2,1:2:0:0:
24,284,163140,1,0,1:0:0:0:
52,376,163364,1,2,0:0:0:0:
116,308,163588,6,0,L|216:320,1,80,0|2,1:0|0:0,0:0:0:0:
288,348,164036,2,0,L|388:336,1,80,0|2,1:0|0:0,0:0:0:0:
400,248,164484,1,0,1:0:0:0:
492,280,164708,1,2,0:0:0:0:
460,372,164931,1,0,1:0:0:0:
367,338,165155,1,2,1:2:0:0:
400,248,165379,6,0,P|408:204|396:156,1,80,0|2,1:0|1:2,0:0:0:0:
244,164,165827,2,0,P|276:192|325:206,1,80,0|2,0:0|1:2,0:0:0:0:
392,68,166275,2,0,P|352:80|314:117,1,80,0|2,1:0|1:2,0:0:0:0:
310,204,166722,1,4,0:0:0:0:
400,248,166946,5,2,0:0:0:0:
400,248,167058,1,2,0:0:0:0:
400,248,167170,2,0,L|500:240,1,80,4|2,0:0|0:0,0:0:0:0:
332,332,167618,2,0,L|232:324,1,80,0|2,1:0|0:0,0:0:0:0:
164,360,168066,1,0,1:0:0:0:
68,348,168290,1,2,0:0:0:0:
12,268,168514,1,2,1:2:0:0:
40,176,168737,5,2,1:2:0:0:
40,176,168849,1,0,0:0:0:0:
40,176,168961,2,0,L|144:180,1,80,0|2,1:0|1:2,0:0:0:0:
188,260,169409,2,0,L|84:264,1,80,0|2,1:0|1:2,0:0:0:0:
228,192,169857,2,0,P|256:220|268:264,1,80,2|2,0:0|1:2,0:0:0:0:
147,328,170305,2,0,P|119:300|107:256,1,80,0|2,1:0|0:0,0:0:0:0:
120,176,170752,5,4,0:0:0:0:
256,192,170864,12,0,174334,1:0:0:0:
256,192,179260,12,0,181499,0:0:0:0:
180,280,184192,6,0,L|356:272,1,160,2|2,0:1|0:1,0:0:0:0:
408,128,187774,6,0,L|232:120,1,160,2|14,0:1|1:0,0:0:0:0:
160,184,189117,5,8,2:0:0:0:
92,100,189565,1,8,2:0:0:0:
180,36,190013,1,8,2:0:0:0:
248,120,190461,5,12,1:0:0:0:
248,252,190908,1,8,2:0:0:0:
136,324,191356,1,8,2:0:0:0:
12,280,191804,1,12,2:0:0:0:
12,280,192028,1,2,0:0:0:0:
12,280,192252,6,0,P|28:228|20:156,1,120.000004577637,12|8,1:0|2:0,0:0:0:0:
0,72,192923,1,2,1:0:0:0:
80,40,193147,2,0,P|116:48|152:72,1,68.0000012969971,8|2,2:0|1:0,0:0:0:0:
192,136,193595,2,0,L|272:128,1,68.0000012969971,8|2,2:0|1:0,0:0:0:0:
380,80,194043,6,0,L|376:240,1,136.000002593994,12|8,2:0|2:0,0:0:0:0:
460,244,194714,1,2,1:0:0:0:
460,244,194938,2,0,L|462:163,1,68.0000012969971,6|2,1:0|1:0,0:0:0:0:
292,180,195386,2,0,L|293:247,1,68.0000012969971,6|2,1:0|1:0,0:0:0:0:
300,368,195834,6,0,L|120:360,1,160,12|8,0:0|0:0,0:0:0:0:
84,284,196506,1,2,1:0:0:0:
128,200,196729,2,0,P|132:164|120:116,1,80,12|2,0:0|1:0,0:0:0:0:
32,88,197177,2,0,P|28:124|40:172,1,80,8|2,0:0|1:0,0:0:0:0:
128,200,197625,6,0,L|224:192,1,80,12|2,0:0|1:0,0:0:0:0:
296,232,198073,1,8,0:0:0:0:
216,288,198297,1,2,1:0:0:0:
207,193,198520,6,0,L|215:89,1,80,12|2,0:0|1:0,0:0:0:0:
296,232,198968,2,0,L|302:311,1,80,12|2,0:0|1:0,0:0:0:0:
380,184,199416,6,0,L|384:128,4,40,12|0|2|0|8,0:0|0:0|1:0|0:0|0:0,0:0:0:0:
432,264,200088,1,0,1:0:0:0:
488,148,200311,6,0,L|476:88,3,40,12|0|2|0,0:0|0:0|1:0|0:0,0:0:0:0:
464,76,200759,2,0,L|468:32,6,26.6666666666667,8|0|0|2|0|0|2,1:0|1:0|1:0|1:0|1:0|1:0|1:0,0:0:0:0:
256,192,201319,12,6,202550,0:0:0:0:
88,96,202998,6,0,L|96:244,1,120.000004577637,4|2,1:0|1:0,0:0:0:0:
112,248,203446,2,0,L|0:244,1,80,4|2,0:0|1:0,0:0:0:0:
80,348,203894,2,0,L|192:344,1,80,0|2,1:0|1:0,0:0:0:0:
248,308,204341,1,2,1:0:0:0:
336,344,204565,1,2,1:0:0:0:
420,252,204789,6,0,P|424:200|408:124,1,120,0|2,1:0|1:0,0:0:0:0:
388,108,205237,2,0,L|280:96,1,80,4|2,0:0|1:0,0:0:0:0:
232,156,205685,1,0,1:0:0:0:
144,116,205908,2,0,P|132:88|136:24,1,80,2|2,1:0|1:0,0:0:0:0:
232,156,206356,1,2,1:0:0:0:
308,99,206580,6,0,P|324:144|300:224,1,120,0|2,1:0|1:0,0:0:0:0:
284,240,207028,2,0,L|388:236,1,80,4|2,0:0|1:0,0:0:0:0:
408,344,207476,2,0,L|328:340,1,80,0|2,1:0|1:0,0:0:0:0:
192,280,207923,1,2,1:0:0:0:
284,240,208147,1,2,1:0:0:0:
224,368,208371,6,0,P|160:368|108:324,1,120,0|2,1:0|1:0,0:0:0:0:
100,304,208819,2,0,L|96:216,1,80,4|2,0:0|1:0,0:0:0:0:
132,72,209267,1,4,0:0:0:0:
200,140,209491,2,0,L|196:219,1,80,2|4,1:0|0:0,0:0:0:0:
100,304,209938,1,2,1:0:0:0:
224,368,210162,5,0,1:0:0:0:
224,368,210274,2,0,L|320:364,1,80,2|2,1:0|1:0,0:0:0:0:
340,372,210610,2,0,P|336:332|348:280,1,80,12|2,0:0|1:0,0:0:0:0:
436,260,211058,2,0,P|440:300|428:352,1,80,0|2,1:0|1:0,0:0:0:0:
343,293,211506,2,0,L|259:285,1,80,8|2,0:0|1:0,0:0:0:0:
164,200,211953,5,0,1:0:0:0:
164,200,212065,2,0,L|248:192,1,80,2|2,1:0|1:0,0:0:0:0:
268,168,212401,2,0,P|272:128|256:72,1,80,12|2,0:0|1:0,0:0:0:0:
180,40,212849,1,0,1:0:0:0:
72,172,213073,2,0,P|68:212|84:268,1,80,2|8,1:0|0:0,0:0:0:0:
160,300,213521,1,2,1:0:0:0:
268,168,213744,5,0,1:0:0:0:
268,168,213856,2,0,L|372:164,1,80,2|2,1:0|1:0,0:0:0:0:
372,136,214192,2,0,P|366:175|376:224,1,80,12|2,0:0|1:0,0:0:0:0:
460,176,214640,2,0,P|465:136|456:88,1,80,0|2,1:0|1:0,0:0:0:0:
372,214,215088,2,0,L|364:304,1,80,8|2,0:0|1:0,0:0:0:0:
252,352,215535,5,0,1:0:0:0:
252,352,215647,2,0,P|212:356|164:340,1,80,2|2,1:0|1:0,0:0:0:0:
144,324,215983,2,0,L|140:216,1,80,12|2,0:0|1:0,0:0:0:0:
188,160,216431,1,6,1:0:0:0:
272,208,216655,2,0,L|360:200,1,80,2|12,1:0|1:0,0:0:0:0:
384,220,216991,2,0,L|380:112,2,80,2|2|2,1:0|1:0|1:0,0:0:0:0:
452,288,217662,5,2,1:0:0:0:
452,288,217774,2,0,P|456:328|432:388,1,80,12|2,0:0|1:0,0:0:0:0:
360,320,218222,1,0,1:0:0:0:
276,368,218446,2,0,P|265:329|269:289,1,80,2|8,1:0|0:0,0:0:0:0:
316,204,218894,1,2,1:0:0:0:
248,104,219117,5,0,1:0:0:0:
248,104,219229,2,0,L|160:100,1,80,2|2,1:0|1:0,0:0:0:0:
136,88,219565,2,0,P|144:124|140:172,1,80,12|2,0:0|1:0,0:0:0:0:
100,256,220013,1,0,1:0:0:0:
168,324,220237,2,0,L|252:320,1,80,2|10,1:0|1:0,0:0:0:0:
280,336,220573,2,0,P|272:296|280:252,2,80,2|2|2,1:0|1:0|1:0,0:0:0:0:
364,292,221244,5,2,1:0:0:0:
364,292,221356,2,0,P|369:252|361:213,1,80,12|2,0:0|1:0,0:0:0:0:
292,148,221804,2,0,L|196:136,1,80,0|2,1:0|1:0,0:0:0:0:
360,80,222252,2,0,L|456:68,1,80,12|2,0:0|1:0,0:0:0:0:
280,24,222700,5,0,1:0:0:0:
280,24,222811,2,0,L|184:12,1,80,2|2,1:0|1:0,0:0:0:0:
172,36,223147,2,0,P|164:76|176:128,1,80,12|2,0:0|1:0,0:0:0:0:
216,200,223595,1,4,1:0:0:0:
312,208,223819,2,0,L|404:200,1,80,2|12,1:0|0:0,0:0:0:0:
420,224,224155,2,0,L|424:132,2,80,2|2|2,1:0|1:0|1:0,0:0:0:0:
360,300,224826,5,2,1:0:0:0:
360,300,224938,2,0,L|363:379,1,80,12|2,0:0|1:0,0:0:0:0:
272,344,225386,2,0,L|164:336,1,80,0|2,1:0|1:0,0:0:0:0:
96,356,225834,1,12,0:0:0:0:
96,356,225946,2,0,L|-12:348,2,80,2|2|2,1:0|1:0|1:0,0:0:0:0:
192,338,226617,5,2,1:0:0:0:
192,338,226729,2,0,P|200:296|188:248,1,80,12|2,0:0|1:0,0:0:0:0:
140,180,227177,1,0,1:0:0:0:
184,96,227401,2,0,L|276:92,1,80,2|12,1:0|0:0,0:0:0:0:
296,104,227737,2,0,P|292:72|300:24,2,80,2|2|2,1:0|1:0|1:0,0:0:0:0:
332,192,228408,5,2,1:0:0:0:
332,192,228520,1,0,0:0:0:0:
248,248,228744,2,0,L|124:244,1,120.000004577637,2|4,0:0|1:2,0:0:0:0:
48,296,229416,1,4,1:2:0:0:
76,384,229640,1,8,0:0:0:0:
128,244,229864,5,4,1:2:0:0:
116,152,230088,1,0,0:0:0:0:
104,60,230311,2,0,B|144:56|144:56|176:64|176:64|240:56,1,120.000004577637,8|2,0:0|0:0,0:0:0:0:
332,20,230983,1,2,1:0:0:0:
392,112,231207,5,10,0:0:0:0:
387,141,231318,1,2,1:0:0:0:
382,171,231430,1,2,0:0:0:0:
377,200,231542,1,2,1:0:0:0:
372,230,231654,1,4,1:0:0:0:
