osu file format v14

[General]
AudioFilename: exec.mp3
AudioLeadIn: 0
PreviewTime: 130902
Countdown: 0
SampleSet: Soft
StackLeniency: 0.7
Mode: 0
LetterboxInBreaks: 0
WidescreenStoryboard: 1

[Editor]
Bookmarks: 226282
DistanceSpacing: 1.1
BeatDivisor: 3
GridSize: 4
TimelineZoom: 1

[Metadata]
Title:the executioner
TitleUnicode:the executioner
Artist:zts
ArtistUnicode:zts
Creator:-kevincela-
Version:Advanced
Source:うみねこのなく頃に散
Tags:07th Expansion Sieg Umineko no Naku Koro ni Chiru czl code zts label musicbox red
BeatmapID:758167
BeatmapSetID:342360

[Difficulty]
HPDrainRate:4
CircleSize:4
OverallDifficulty:5
ApproachRate:6
SliderMultiplier:1.4
SliderTickRate:2

[Events]
//Background and Video events
0,0,"ghfg.jpg",0,0
//Break Periods
2,100653,113061
2,174534,178210
//Storyboard Layer 0 (Background)
//Storyboard Layer 1 (Fail)
//Storyboard Layer 2 (Pass)
//Storyboard Layer 3 (Foreground)
//Storyboard Sound Samples

[TimingPoints]
7320,447.761194029851,4,1,0,80,1,0
28140,-100,4,1,0,80,0,0
28924,-100,4,2,1,65,0,0
29484,-100,4,2,1,65,0,0
29931,-100,4,2,1,40,0,0
30043,-100,4,2,1,65,0,0
42693,-86.9565217391304,4,2,1,80,0,0
43140,-100,4,2,1,65,0,0
45715,-100,4,2,1,45,0,0
46275,-100,4,2,1,65,0,0
57021,-86.9565217391304,4,2,1,80,0,0
57469,-100,4,2,1,65,0,0
71125,-100,4,1,1,65,0,0
71349,-100,4,2,1,80,0,0
71797,-100,4,2,1,70,0,0
115230,-100,4,2,0,50,0,0
115342,-100,4,2,1,70,0,0
116121,-100,4,2,0,50,0,0
116238,-100,4,2,1,70,0,0
117021,-100,4,2,0,50,0,0
117133,-100,4,2,1,70,0,0
117917,-100,4,2,0,50,0,0
118029,-100,4,2,1,70,0,0
118365,-100,4,2,1,50,0,0
118477,-100,4,2,1,70,0,0
118813,-100,4,2,0,50,0,0
118924,-100,4,2,1,70,0,0
119708,-100,4,2,0,50,0,0
119820,-100,4,2,1,70,0,0
120604,-100,4,2,0,50,0,0
120715,-100,4,2,1,70,0,0
121499,-100,4,1,1,70,0,0
121555,-100,4,1,1,40,0,0
121946,-100,4,1,1,70,0,0
122395,-100,4,2,0,50,0,0
122507,-100,4,2,1,70,0,0
123346,-100,4,1,1,40,0,0
123737,-90.9090909090909,4,1,1,70,0,0
124186,-100,4,2,0,60,0,0
124298,-100,4,2,1,70,0,0
125137,-100,4,1,1,40,0,0
125528,-100,4,1,1,70,0,0
127320,-100,4,1,1,40,0,0
127769,-100,4,1,1,50,0,0
128214,-100,4,1,1,55,0,0
128662,-100,4,2,1,70,0,0
130454,-100,4,2,1,70,0,1
159558,-100,4,2,1,70,0,0
160006,-100,4,2,1,70,0,0
170977,-100,4,1,1,30,0,0
172096,-100,4,1,1,40,0,0
172992,-100,4,1,1,30,0,0
173439,-100,4,1,1,40,0,0
181506,447.761194029851,4,1,0,50,1,0
181835,-133.333333333333,4,2,1,40,0,0
188670,-133.333333333333,4,2,0,20,0,0
188782,-117.647058823529,4,2,1,40,0,0
190461,-117.647058823529,4,1,1,30,0,0
190573,-117.647058823529,4,2,1,50,0,0
192252,-117.647058823529,4,1,1,40,0,0
192364,-117.647058823529,4,2,1,40,0,0
194043,-117.647058823529,4,2,1,50,0,0
194491,-117.647058823529,4,2,1,55,0,0
194938,-117.647058823529,4,2,1,60,0,0
195050,-117.647058823529,4,2,1,50,0,0
195834,-100,4,2,1,70,0,0
201201,-100,4,1,1,70,0,0
201319,-100,4,1,1,40,0,0
201543,-100,4,1,1,30,0,0
201881,-100,4,1,1,10,0,0
202544,-100,4,2,1,70,0,0
202998,-100,4,2,1,80,0,1
226282,-100,4,2,1,70,0,1
227177,-100,4,2,1,60,0,1
228520,-100,4,2,1,40,0,1
229192,-100,4,2,1,65,0,1
230759,-100,4,2,1,65,0,1
231655,-100,4,2,1,65,0,0

[Colours]
Combo1 : 0,128,192
Combo2 : 255,89,89
Combo3 : 145,0,145
Combo4 : 126,0,253

[HitObjects]
80,116,28140,5,0,0:0:0:0:
76,192,28364,2,0,L|72:272,1,70,0|0,0:0|0:0,0:0:0:0:
68,340,28812,6,0,B|116:344|116:344|152:328|152:328|224:336,1,140,6|2,0:2|0:0,0:0:0:0:
356,356,29708,2,0,P|364:320|340:208,1,140,2|0,0:0|1:0,0:0:0:0:
292,164,30379,1,0,0:0:0:0:
216,184,30603,2,0,L|60:180,1,140,2|2,0:0|0:0,0:0:0:0:
8,40,31499,2,0,L|164:36,1,140,2|0,0:0|1:0,0:0:0:0:
220,64,32170,1,0,0:0:0:0:
292,36,32394,6,0,B|296:84|296:84|284:124|284:124|292:188,1,140,2|2,0:0|0:0,0:0:0:0:
400,284,33290,2,0,B|396:236|396:236|408:196|408:196|400:132,1,140,2|0,0:0|1:0,0:0:0:0:
344,96,33961,1,0,0:0:0:0:
280,140,34185,2,0,P|224:152|144:112,1,140,2|2,0:0|0:0,0:0:0:0:
36,16,35081,1,2,0:0:0:0:
0,164,35528,2,0,L|8:236,1,70,0|0,1:0|0:0,0:0:0:0:
80,208,35976,6,0,L|100:360,1,140,4|2,1:0|0:0,0:0:0:0:
236,280,36872,2,0,P|292:268|384:292,1,140,2|0,0:0|1:0,0:0:0:0:
436,328,37543,1,0,0:0:0:0:
484,268,37767,2,0,L|476:124,1,140,2|2,0:0|0:0,0:0:0:0:
328,80,38663,2,0,P|261:74|176:96,1,140,2|0,0:0|1:0,0:0:0:0:
128,132,39334,1,0,0:0:0:0:
52,116,39558,6,0,L|56:256,1,140,2|2,0:0|0:0,0:0:0:0:
184,340,40454,1,2,0:0:0:0:
292,232,40902,1,0,1:0:0:0:
420,320,41349,6,0,P|440:280|436:180,1,140,0|0,1:0|1:0,0:0:0:0:
396,120,42021,1,0,1:0:0:0:
348,60,42245,2,0,L|196:52,1,140,2|4,0:0|0:0,0:0:0:0:
80,132,43140,5,4,1:0:0:0:
112,284,43588,1,0,1:0:0:0:
228,180,44036,1,2,0:0:0:0:
80,132,44484,1,0,1:0:0:0:
112,284,44931,2,0,P|152:324|248:336,1,140,2|0,1:2|1:0,0:0:0:0:
372,272,45827,2,0,L|364:112,1,140,2|0,0:2|1:0,0:0:0:0:
384,56,46499,1,0,0:0:0:0:
444,104,46722,5,0,1:0:0:0:
292,72,47170,1,0,1:0:0:0:
176,172,47618,1,2,0:0:0:0:
28,128,48066,1,0,1:0:0:0:
154,35,48514,2,0,P|175:102|176:172,1,140,0|0,1:0|1:0,0:0:0:0:
96,304,49409,2,0,L|256:312,1,140,2|0,0:0|1:0,0:0:0:0:
308,344,50081,1,0,1:0:0:0:
376,312,50305,6,0,P|388:272|368:176,1,140,4|0,1:0|1:0,0:0:0:0:
232,104,51200,2,0,L|72:112,1,140,2|0,0:0|1:0,0:0:0:0:
44,172,51872,1,0,0:0:0:0:
96,228,52096,2,0,L|256:236,1,140,0|0,1:0|1:0,0:0:0:0:
376,172,52991,1,0,1:0:0:0:
460,304,53439,2,0,L|372:308,1,70,0|0,1:0|0:0,0:0:0:0:
320,344,53887,6,0,P|254:364|188:336,1,140,0|0,1:0|1:0,0:0:0:0:
128,200,54782,2,0,P|193:179|260:208,1,140,2|0,0:0|1:0,0:0:0:0:
320,344,55678,5,0,1:0:0:0:
456,272,56125,2,0,L|452:192,1,70,0|0,1:0|0:0,0:0:0:0:
376,212,56573,2,0,L|384:48,1,140,0|4,1:0|0:0,0:0:0:0:
244,4,57469,5,4,1:0:0:0:
132,108,57917,1,0,1:0:0:0:
4,40,58364,2,0,L|0:180,1,140,0|0,1:0|1:0,0:0:0:0:
4,256,59036,1,2,0:0:0:0:
80,248,59260,2,0,B|132:244|132:244|168:256|168:256|228:252,1,140,0|0,1:0|1:0,0:0:0:0:
360,188,60155,2,0,L|352:336,1,140,0|0,1:0|1:0,0:0:0:0:
412,376,60827,1,0,0:0:0:0:
472,328,61051,6,0,L|464:188,1,140,0|0,1:0|1:0,0:0:0:0:
388,56,61946,2,0,P|332:52|264:96,1,140,0|0,1:0|1:0,0:0:0:0:
256,172,62618,1,2,0:0:0:0:
312,228,62842,2,0,P|368:232|436:188,2,140,0|0|0,1:0|1:0|1:0,0:0:0:0:
164,192,64185,2,0,L|68:200,1,70,0|0,1:0|1:0,0:0:0:0:
44,256,64633,6,0,L|56:112,1,140,4|0,1:0|1:0,0:0:0:0:
104,56,65305,1,2,0:0:0:0:
176,84,65528,2,0,P|252:92|320:72,1,140,0|0,1:0|1:0,0:0:0:0:
456,16,66424,2,0,B|478:89|442:151|442:151|406:213|429:286,1,280,0|0,1:0|1:2,0:0:0:0:
296,360,67767,2,0,L|200:352,1,70,0|0,1:0|1:0,0:0:0:0:
148,348,68215,5,4,1:0:0:0:
20,260,68663,1,0,1:0:0:0:
108,132,69111,1,0,1:0:0:0:
232,224,69558,1,0,1:0:0:0:
148,348,70006,6,0,L|122:204,1,140,4|4,1:0|1:0,0:0:0:0:
108,132,70678,1,0,0:0:0:0:
184,152,70902,1,4,1:0:0:0:
32,152,71349,1,4,0:0:0:0:
164,72,71797,6,0,P|228:80|268:156,2,140,4|0|2,1:0|1:0|0:0,0:0:0:0:
108,132,72917,1,0,1:0:0:0:
45,84,73140,2,0,P|32:117|32:152,1,70,0|0,1:0|0:0,0:0:0:0:
84,212,73588,5,0,1:0:0:0:
200,316,74036,1,0,1:0:0:0:
324,224,74484,2,0,L|408:216,1,70,2|0,0:0|1:0,0:0:0:0:
440,280,74931,2,0,B|432:228|432:228|440:188|440:188|428:120,1,140,0|0,1:0|1:0,0:0:0:0:
320,44,75827,5,0,1:0:0:0:
192,128,76275,2,0,P|124:132|60:96,1,140,2|0,0:0|1:0,0:0:0:0:
28,32,76946,1,0,0:0:0:0:
62,98,77170,6,0,P|72:172|32:256,1,140,0|0,1:0|1:0,0:0:0:0:
180,320,78066,2,0,P|170:246|210:162,1,140,0|0,1:0|1:0,0:0:0:0:
256,140,78737,1,2,0:0:0:0:
320,185,78961,6,0,P|342:251|332:320,2,140,4|0|2,1:0|1:0|0:0,0:0:0:0:
208,76,80305,1,0,1:0:0:0:
92,176,80752,6,0,P|70:242|80:311,1,140,0|0,1:0|1:0,0:0:0:0:
224,360,81648,2,0,L|384:348,1,140,2|0,0:0|1:0,0:0:0:0:
408,288,82320,1,0,0:0:0:0:
448,224,82543,5,0,1:0:0:0:
296,204,82991,1,0,1:0:0:0:
388,80,83439,2,0,L|236:88,1,140,2|0,0:0|1:0,0:0:0:0:
112,156,84334,6,0,P|104:228|120:320,1,140,0|0,1:0|1:0,0:0:0:0:
152,360,85006,1,2,0:0:0:0:
224,336,85230,2,0,L|300:340,1,70,4|2,2:0|0:0,0:0:0:0:
364,308,85678,1,4,0:0:0:0:
292,172,86125,5,4,1:0:0:0:
148,224,86573,2,0,P|72:220|20:180,2,140,0|2|0,1:0|0:0|1:0,0:0:0:0:
220,196,87693,1,0,0:0:0:0:
292,172,87917,6,0,L|288:324,1,140,0|0,1:0|1:0,0:0:0:0:
436,264,88812,2,0,L|432:124,1,140,2|0,0:0|1:0,0:0:0:0:
432,48,89484,1,0,0:0:0:0:
360,80,89708,6,0,P|312:92|224:72,1,140,0|0,1:0|1:0,0:0:0:0:
80,24,90603,2,0,L|88:184,1,140,2|0,0:0|1:0,0:0:0:0:
148,304,91499,5,2,1:2:0:0:
276,220,91946,1,2,1:2:0:0:
392,320,92394,2,0,L|400:236,1,70,0|0,0:0|1:0,0:0:0:0:
456,200,92842,2,0,L|448:116,1,70,0|2,1:0|0:0,0:0:0:0:
472,56,93290,5,4,1:0:0:0:
336,128,93737,1,0,1:0:0:0:
200,56,94185,2,0,P|128:44|36:68,1,140,0|0,1:0|1:0,0:0:0:0:
4,108,94857,1,0,0:0:0:0:
64,156,95081,6,0,P|132:168|201:156,1,140,4|4,0:0|0:0,0:0:0:0:
336,84,95976,1,0,1:0:0:0:
456,180,96424,2,0,L|464:260,1,70,2|0,1:2|0:0,0:0:0:0:
404,300,96872,6,0,P|336:312|264:276,2,140,4|0|0,1:0|1:0|0:0,0:0:0:0:
462,249,97991,1,0,1:0:0:0:
388,224,98215,1,4,1:0:0:0:
476,100,98663,5,4,0:0:0:0:
336,40,99111,1,4,0:0:0:0:
208,124,99558,2,0,P|176:128|132:120,1,70,0|2,1:0|0:0,0:0:0:0:
80,72,100006,2,0,L|96:236,1,140,4|4,0:0|1:0,0:0:0:0:
328,72,114111,6,0,L|248:68,2,70,4|4|8,0:0|2:0|0:0,0:0:0:0:
392,112,114782,2,0,L|472:108,2,70,4|4|8,0:0|0:0|2:0,0:0:0:0:
268,204,115678,1,0,0:0:0:0:
352,332,116125,1,8,2:0:0:0:
200,360,116573,2,0,L|48:352,1,140,0|8,1:0|2:0,0:0:0:0:
20,288,117245,1,0,0:0:0:0:
64,224,117469,2,0,P|72:152|52:80,1,140,0|8,0:0|2:0,0:0:0:0:
55,87,118364,6,0,L|60:8,2,70,4|0|8,0:0|1:0|2:0,0:0:0:0:
160,200,119260,2,0,L|165:279,2,70,0|0|8,0:0|1:0|2:0,0:0:0:0:
280,104,120155,2,0,B|328:100|328:100|368:112|368:112|424:104,1,140,0|8,1:0|2:0,0:0:0:0:
492,92,120827,1,0,0:0:0:0:
468,164,121051,2,0,P|464:200|468:244,1,70,0|0,0:0|1:0,0:0:0:0:
488,308,121499,1,4,2:0:0:0:
344,364,121946,5,4,1:0:0:0:
208,292,122394,1,8,2:0:0:0:
68,356,122842,2,0,L|64:204,1,140,0|4,0:0|2:0,0:0:0:0:
120,72,123737,5,4,0:0:0:0:
256,144,124185,1,8,2:0:0:0:
396,80,124633,2,0,L|400:232,1,140,0|4,0:0|2:0,0:0:0:0:
296,332,125528,6,0,P|232:344|156:316,1,140,4|4,1:0|2:0,0:0:0:0:
84,188,126424,2,0,P|148:176|224:204,1,140,4|4,1:0|2:0,0:0:0:0:
296,332,127320,5,4,1:0:0:0:
424,248,127767,1,4,1:0:0:0:
412,96,128215,1,4,1:0:0:0:
272,32,128663,6,0,B|236:48|180:28|180:28|224:96|208:164|208:164|128:120|52:152|52:152|16:224|68:308,1,560,4|4,2:1|1:0,0:0:0:0:
204,352,130902,6,0,L|348:348,1,140,4|0,1:0|1:0,0:0:0:0:
416,372,131573,1,2,0:0:0:0:
464,312,131797,2,0,P|476:248|460:172,1,140,0|0,1:0|1:0,0:0:0:0:
404,124,132469,1,2,0:0:0:0:
340,168,132693,5,4,1:0:0:0:
240,284,133140,1,4,1:0:0:0:
144,164,133588,1,0,1:0:0:0:
36,276,134036,2,0,L|28:352,1,70,0|0,1:0|1:0,0:0:0:0:
100,376,134484,6,0,L|116:216,1,140,4|0,1:0|1:0,0:0:0:0:
144,164,135155,1,2,0:0:0:0:
216,188,135379,2,0,P|252:192|292:180,1,70,0|2,1:0|0:0,0:0:0:0:
360,160,135827,2,0,P|394:155|428:164,1,70,0|2,1:0|0:0,0:0:0:0:
492,208,136275,5,0,1:0:0:0:
376,308,136722,2,0,L|380:384,2,70,0|0|2,1:0|1:0|1:2,0:0:0:0:
284,183,137618,2,0,L|287:113,1,70,0|2,1:0|0:0,0:0:0:0:
240,52,138066,6,0,B|192:48|192:48|152:64|152:64|92:60,1,140,4|0,1:0|1:0,0:0:0:0:
28,52,138737,1,0,1:0:0:0:
4,124,138961,2,0,P|4:196|28:264,1,140,4|0,1:0|1:0,0:0:0:0:
88,304,139633,1,0,1:0:0:0:
160,272,139857,5,4,1:0:0:0:
292,352,140305,1,4,1:0:0:0:
376,224,140752,1,0,1:0:0:0:
252,136,141200,2,0,L|172:132,1,70,0|0,1:0|1:0,0:0:0:0:
104,128,141648,6,0,B|116:196|116:196|100:276,1,140,4|0,1:0|1:0,0:0:0:0:
68,336,142320,1,2,0:0:0:0:
136,372,142543,2,0,L|208:368,1,70,0|0,1:0|1:0,0:0:0:0:
276,336,142991,2,0,L|345:339,1,70,0|2,1:0|0:0,0:0:0:0:
412,304,143439,5,4,1:0:0:0:
508,184,143887,2,0,P|512:148|496:100,1,70,0|2,1:0|0:0,0:0:0:0:
436,152,144334,2,0,P|432:188|448:236,1,70,0|0,1:0|1:0,0:0:0:0:
492,280,144782,1,4,0:0:0:0:
372,380,145230,5,4,1:0:0:0:
268,268,145678,2,0,L|184:272,1,70,4|0,0:0|1:0,0:0:0:0:
136,224,146125,2,0,P|124:156|152:80,1,140,4|0,1:0|1:0,0:0:0:0:
204,40,146797,1,0,1:0:0:0:
272,76,147021,5,4,1:0:0:0:
332,220,147469,1,4,1:0:0:0:
444,108,147917,1,0,1:0:0:0:
492,252,148364,2,0,L|484:332,1,70,0|0,1:0|1:0,0:0:0:0:
420,364,148812,6,0,P|348:372|280:348,1,140,4|4,1:0|2:0,0:0:0:0:
228,300,149484,1,2,0:0:0:0:
184,236,149708,2,0,L|96:240,1,70,0|2,1:0|0:0,0:0:0:0:
36,244,150155,2,0,L|32:156,1,70,0|0,1:0|1:0,0:0:0:0:
32,96,150603,5,4,1:0:0:0:
172,36,151051,2,0,L|256:24,1,70,0|2,1:0|0:0,0:0:0:0:
312,56,151499,2,0,P|324:88|324:136,1,70,0|0,1:0|1:0,0:0:0:0:
300,196,151946,1,4,2:0:0:0:
180,292,152394,6,0,P|112:300|32:256,1,140,4|4,1:0|0:0,0:0:0:0:
12,204,153066,1,0,1:0:0:0:
68,152,153290,2,0,P|136:144|216:188,1,140,4|4,1:0|0:0,0:0:0:0:
240,236,153961,1,0,1:0:0:0:
260,312,154185,5,4,1:0:0:0:
412,328,154633,1,4,1:0:0:0:
496,196,155081,1,4,1:0:0:0:
344,212,155528,2,0,L|348:128,1,70,4|0,0:0|1:0,0:0:0:0:
292,88,155976,6,0,B|224:72|224:72|136:92,1,140,4|0,1:0|1:0,0:0:0:0:
88,124,156648,1,2,0:0:0:0:
20,160,156872,2,0,L|32:236,1,70,0|0,1:0|1:0,0:0:0:0:
108,232,157320,2,0,L|96:324,1,70,0|0,1:0|0:0,0:0:0:0:
48,360,157767,6,0,L|192:352,1,140,0|4,1:0|1:2,0:0:0:0:
256,316,158439,1,0,1:0:0:0:
324,352,158663,2,0,P|364:360|404:352,1,70,0|0,1:0|1:0,0:0:0:0:
460,316,159111,2,0,P|477:278|478:237,1,70,0|0,1:0|0:0,0:0:0:0:
468,176,159558,5,4,0:0:0:0:
344,84,160006,6,0,L|184:76,1,140,4|0,1:0|1:0,0:0:0:0:
128,96,160678,1,2,0:0:0:0:
72,148,160902,2,0,P|64:184|68:236,1,70,0|2,1:0|0:0,0:0:0:0:
104,284,161349,2,0,L|188:276,1,70,2|0,0:0|1:0,0:0:0:0:
236,228,161797,6,0,B|248:148|224:160|232:88,2,140,0|0|0,0:0|1:0|1:0,0:0:0:0:
173,277,162917,1,2,1:2:0:0:
232,324,163140,1,0,1:0:0:0:
296,284,163364,1,2,0:0:0:0:
300,360,163588,6,0,L|456:352,1,140,0|0,1:0|1:0,0:0:0:0:
488,292,164260,1,2,0:0:0:0:
508,216,164484,2,0,P|506:179|488:137,1,70,0|2,1:0|0:0,0:0:0:0:
438,96,164931,2,0,L|356:100,1,70,0|2,1:0|1:2,0:0:0:0:
308,148,165379,6,0,L|152:140,2,140,0|0|0,1:0|0:0|1:0,0:0:0:0:
352,212,166499,1,2,1:2:0:0:
324,284,166722,2,0,L|244:288,1,70,4|2,0:0|0:0,0:0:0:0:
196,336,167170,6,0,L|48:328,1,140,4|0,0:0|1:0,0:0:0:0:
16,260,167842,1,2,0:0:0:0:
52,192,168066,2,0,P|56:156|52:112,1,70,0|2,1:0|0:0,0:0:0:0:
28,48,168514,2,0,L|108:44,1,70,2|2,1:2|1:2,0:0:0:0:
168,72,168961,6,0,L|328:64,2,140,0|0|2,1:0|1:0|0:0,0:0:0:0:
120,132,170081,1,2,1:2:0:0:
160,196,170305,2,0,L|156:280,1,70,0|2,1:0|0:0,0:0:0:0:
212,320,170752,5,4,0:0:0:0:
256,192,170864,12,0,174334,1:0:0:0:
256,192,179260,12,0,181499,0:0:0:0:
64,296,184192,6,0,L|288:276,1,210.000008010865,2|2,0:1|0:1,0:0:0:0:
444,112,187774,6,0,L|234:93,1,210.000008010865,2|14,0:1|1:0,0:0:0:0:
104,80,189117,5,8,2:0:0:0:
160,200,189565,1,8,2:0:0:0:
76,300,190013,1,8,2:0:0:0:
192,356,190461,6,0,L|328:352,1,119.000002269745,12|8,1:0|2:0,0:0:0:0:
432,300,191356,1,8,2:0:0:0:
388,176,191804,1,12,2:0:0:0:
388,176,192252,6,0,L|252:172,1,119.000002269745,12|8,1:0|2:0,0:0:0:0:
204,196,192923,1,2,1:0:0:0:
144,160,193147,2,0,P|140:128|144:92,2,59.5000011348725,8|2|8,2:0|1:0|2:0,0:0:0:0:
188,284,194043,6,0,L|324:280,1,119.000002269745,12|8,2:0|2:0,0:0:0:0:
364,324,194714,1,2,1:0:0:0:
416,272,194938,2,0,P|428:224|408:140,1,119.000002269745,6|6,1:0|1:0,0:0:0:0:
292,64,195834,6,0,L|132:56,1,140,12|8,0:0|0:0,0:0:0:0:
84,96,196506,1,2,1:0:0:0:
24,144,196729,2,0,P|16:200|32:292,1,140,12|8,0:0|0:0,0:0:0:0:
168,352,197625,6,0,L|328:344,1,140,12|8,0:0|0:0,0:0:0:0:
376,304,198297,1,2,1:0:0:0:
376,304,198520,2,0,L|372:228,1,70,12|2,0:0|1:0,0:0:0:0:
448,244,198968,2,0,L|452:168,1,70,12|2,0:0|1:0,0:0:0:0:
400,120,199416,6,0,B|352:116|352:116|308:128|308:128|244:124,1,140,12|8,0:0|0:0,0:0:0:0:
192,156,200088,1,0,1:0:0:0:
192,156,200311,2,0,L|196:232,1,70,12|2,0:0|1:0,0:0:0:0:
120,212,200759,2,0,L|116:281,1,70,8|2,1:0|1:0,0:0:0:0:
172,336,201207,6,0,P|272:360|376:168,1,350,2|6,1:0|0:0,0:0:0:0:
332,116,202550,2,0,L|248:107,1,70,6|2,1:2|1:2,0:0:0:0:
196,72,202998,6,0,L|72:84,2,105,4|2|2,1:0|1:0|1:0,0:0:0:0:
272,80,203894,1,0,1:0:0:0:
168,196,204341,1,2,1:0:0:0:
300,276,204789,6,0,L|424:288,2,105,0|2|2,1:0|1:0|1:0,0:0:0:0:
228,304,205685,1,0,1:0:0:0:
344,204,206132,2,0,L|424:192,1,70,2|2,1:0|1:0,0:0:0:0:
436,120,206580,6,0,L|312:108,2,105,0|2|2,1:0|1:0|1:0,0:0:0:0:
492,172,207476,1,0,1:0:0:0:
408,300,207923,1,2,1:0:0:0:
260,260,208371,6,0,P|212:264|164:296,2,105,0|2|2,1:0|1:0|1:0,0:0:0:0:
328,292,209267,1,4,0:0:0:0:
456,216,209714,2,0,P|452:176|432:128,1,70,4|2,0:0|1:0,0:0:0:0:
384,96,210162,6,0,L|260:100,2,105,0|2|2,1:0|1:0|1:0,0:0:0:0:
442,147,211058,2,0,P|456:200|444:296,1,140,0|8,1:0|0:0,0:0:0:0:
396,340,211729,1,2,1:0:0:0:
336,292,211953,6,0,L|332:184,2,105,0|2|2,1:0|1:0|1:0,0:0:0:0:
276,340,212849,2,0,P|240:340|208:332,1,70,0|2,1:0|1:0,0:0:0:0:
140,292,213297,2,0,P|104:292|72:300,1,70,14|2,1:0|1:0,0:0:0:0:
0,332,213744,6,0,L|-4:212,2,105,0|2|2,1:0|1:0|1:0,0:0:0:0:
68,372,214640,2,0,P|132:376|196:336,1,140,0|8,1:0|0:0,0:0:0:0:
220,264,215311,1,2,1:0:0:0:
172,204,215535,6,0,L|64:200,2,105,0|2|2,1:0|1:0|1:0,0:0:0:0:
228,152,216431,1,6,1:0:0:0:
208,76,216655,2,0,P|179:53|141:39,2,70,2|12|0,1:0|1:0|0:0,0:0:0:0:
228,152,217326,6,0,L|344:140,2,105,4|2|2,1:0|1:0|1:0,0:0:0:0:
172,204,218222,2,0,P|168:244|176:284,1,70,0|2,1:0|1:0,0:0:0:0:
224,328,218670,2,0,L|304:324,1,70,8|2,0:0|1:0,0:0:0:0:
360,364,219117,6,0,P|412:372|464:348,2,105,0|2|2,1:0|1:0|1:0,0:0:0:0:
293,324,220013,1,0,1:0:0:0:
324,252,220237,2,0,P|324:216|316:176,2,70,2|10|0,1:0|1:0|0:0,0:0:0:0:
293,324,220908,6,0,P|245:346|188:337,2,105,4|2|2,1:0|1:0|1:0,0:0:0:0:
324,252,221804,2,0,L|400:258,1,70,0|2,1:0|1:0,0:0:0:0:
444,200,222252,2,0,P|448:160|440:124,1,70,12|2,0:0|1:0,0:0:0:0:
400,64,222700,6,0,P|440:52|504:80,2,105,0|2|2,1:0|1:0|1:0,0:0:0:0:
336,104,223595,1,4,1:0:0:0:
264,80,223819,2,0,L|260:8,2,70,2|12|0,1:0|0:0|0:0,0:0:0:0:
200,124,224491,6,0,P|160:136|96:108,2,105,4|2|2,1:0|1:0|1:0,0:0:0:0:
264,80,225386,1,0,1:0:0:0:
336,104,225610,2,0,L|340:176,2,70,2|12|0,1:0|0:0|0:0,0:0:0:0:
400,64,226282,6,0,P|440:52|504:80,2,105,0|2|2,0:0|1:0|1:0,0:0:0:0:
336,104,227177,2,0,L|340:176,1,70,0|2,1:0|1:0,0:0:0:0:
416,168,227625,2,0,L|412:240,1,70,12|0,0:0|0:0,0:0:0:0:
452,304,228073,6,0,B|376:352|288:296|288:296|200:240|124:288,1,350,0|4,0:0|1:2,0:0:0:0:
64,340,229416,2,0,P|48:308|56:252,1,70,4|8,1:2|0:0,0:0:0:0:
80,204,229864,6,0,L|72:128,1,70,4|0,1:2|0:0,0:0:0:0:
108,68,230311,2,0,B|156:72|156:72|192:96|192:96|254:102,1,140,8|2,0:0|0:0,0:0:0:0:
396,108,231207,2,0,L|412:204,1,70,10|2,0:0|0:0,0:0:0:0:
424,252,231655,5,4,1:0:0:0:
