osu file format v14

[General]
AudioFilename: asftrejhetjhutgkltry.mp3
AudioLeadIn: 0
PreviewTime: 163496
Countdown: 0
SampleSet: Soft
StackLeniency: 0.7
Mode: 0
LetterboxInBreaks: 0
WidescreenStoryboard: 0

[Editor]
DistanceSpacing: 0.5
BeatDivisor: 4
GridSize: 4
TimelineZoom: 2.599999

[Metadata]
Title:resurrectedreplayer
TitleUnicode:resurrectedreplayer
Artist:zts
ArtistUnicode:zts
Creator:EvilElvis
Version:THE GREAT DETECTIVE
Source:うみねこのなく頃に散
Tags:Umineko no Naku Koro ni Chiru rui ryuu Seikatu -kevincela- when they cry visual novel 07th expansion うみねこのなく頃に散 musicbox Red code label czl
BeatmapID:682520
BeatmapSetID:304672

[Difficulty]
HPDrainRate:7
CircleSize:4
OverallDifficulty:7
ApproachRate:8.5
SliderMultiplier:1.6
SliderTickRate:1

[Events]
//Background and Video events
0,0,"asdjrtj6r.jpg",0,0
//Break Periods
2,41553,53964
//Storyboard Layer 0 (Background)
//Storyboard Layer 1 (Fail)
//Storyboard Layer 2 (Pass)
//Storyboard Layer 3 (Foreground)
//Storyboard Sound Samples

[TimingPoints]
211,428.571428571429,4,2,1,50,1,0
13925,-100,4,2,1,50,0,0
16068,-100,4,2,1,30,0,0
16175,-100,4,2,1,50,0,0
27211,-100,4,2,1,60,0,0
27425,-100,4,2,1,65,0,0
40925,-200,4,2,1,90,0,0
41032,-200,4,2,1,30,0,0
41353,-100,4,2,1,70,0,0
55496,-76.9230769230769,4,2,1,90,0,0
55603,-76.9230769230769,4,2,1,70,0,0
55925,-100,4,2,1,70,0,0
59996,-100,4,2,1,40,0,0
60103,-100,4,2,1,70,0,0
61282,-200,4,2,1,70,0,0
61496,-200,4,2,1,90,0,0
61925,-100,4,2,1,50,0,0
62032,-100,4,2,1,70,0,0
62568,-100,4,2,1,60,0,0
62675,-100,4,2,1,70,0,0
63425,-100,4,2,1,80,0,0
63639,-100,4,2,1,50,0,0
63746,-100,4,2,1,70,0,0
64282,-100,4,2,1,60,0,0
64389,-100,4,2,1,70,0,0
65353,-100,4,2,1,50,0,0
65461,-100,4,2,1,70,0,0
65996,-100,4,2,1,60,0,0
66103,-100,4,2,1,70,0,0
66425,-100,4,2,1,50,0,0
66532,-100,4,2,1,70,0,0
68782,-76.9230769230769,4,2,1,70,0,0
80782,-200,4,2,1,100,0,1
81211,-76.9230769230769,4,2,1,70,0,0
82068,-76.9230769230769,4,2,1,90,0,1
82353,-76.9230769230769,4,2,1,70,0,0
89782,-66.6666666666667,4,2,1,80,0,0
90211,-76.9230769230769,4,2,1,70,0,0
93211,-66.6666666666667,4,2,1,80,0,0
93425,-76.9230769230769,4,2,1,70,0,0
96211,-76.9230769230769,4,2,1,70,0,1
124068,-200,4,2,1,50,0,0
163496,-100,4,2,1,90,0,0
164353,-76.9230769230769,4,2,1,80,0,0
164889,-76.9230769230769,4,2,1,50,0,0
170568,-76.9230769230769,4,2,1,60,0,0
178068,-66.6666666666667,4,2,1,70,0,0
178925,-200,4,2,1,100,0,1
179032,-200,4,2,1,70,0,0
180639,-200,4,2,1,100,0,1
180746,-200,4,2,1,70,0,0
182353,-200,4,2,1,100,0,1
182461,-200,4,2,1,70,0,0
184068,-200,4,2,1,100,0,1
184175,-200,4,2,1,70,0,0
184925,-66.6666666666667,4,2,1,80,0,0
185461,-66.6666666666667,4,2,1,70,0,0
190925,-66.6666666666667,4,2,1,90,0,1
192211,-90.9090909090909,4,2,1,70,0,0
193496,-66.6666666666667,4,2,1,70,0,0
193925,-90.9090909090909,4,2,1,70,0,0
194996,-90.9090909090909,4,2,1,90,0,0
195103,-90.9090909090909,4,2,1,80,0,0
195425,-66.6666666666667,4,2,1,70,0,0
197353,-90.9090909090909,4,2,1,70,0,0
198425,-90.9090909090909,4,2,1,90,0,0
198639,-90.9090909090909,4,2,1,80,0,0
198853,-66.6666666666667,4,2,1,70,0,0
204211,-133.333333333333,4,2,1,70,0,1
204639,-100,4,2,1,70,0,1
204853,-83.3333333333333,4,2,1,70,0,1
205068,-71.4285714285714,4,2,1,70,0,1
205282,-62.5,4,2,1,70,0,1
205496,-200,4,2,1,70,0,0
205925,-83.3333333333333,4,2,1,70,0,1
218996,-62.5,4,2,1,70,0,0
219639,-83.3333333333333,4,2,1,70,0,1
226068,-62.5,4,2,1,90,0,1
226496,-83.3333333333333,4,2,1,70,0,1
232496,-62.5,4,2,1,80,0,0
232925,-62.5,4,2,1,90,0,0
233353,-62.5,4,2,1,70,0,1
233782,-80,4,2,1,70,0,1
236353,-62.5,4,2,1,90,0,1
236782,-80,4,2,1,70,0,1
241496,-62.5,4,2,1,90,0,1
241925,-80,4,2,1,70,0,1
242782,-62.5,4,2,1,80,0,0
243639,-90.9090909090909,4,2,1,70,0,0
245353,-90.9090909090909,4,2,1,70,0,1
245782,-62.5,4,2,1,70,0,1
246211,-50,4,2,1,70,0,1
246639,-200,4,2,1,70,0,0

[Colours]
Combo1 : 172,89,255
Combo2 : 217,0,108
Combo3 : 0,106,157
Combo4 : 217,0,217

[HitObjects]
256,192,12210,12,0,13710,0:0:0:0:
56,22,13925,6,0,P|61:80|61:113,1,80,4|2,1:0|0:0,0:0:0:0:
107,166,14353,1,2,0:0:0:0:
64,233,14568,1,0,0:0:0:0:
64,233,14675,1,0,1:0:0:0:
64,233,14782,2,0,P|69:268|69:284,1,40,2|0,0:0|0:0,0:0:0:0:
88,263,14996,2,0,P|84:292|81:309,1,40,2|0,0:0|0:0,0:0:0:0:
52,323,15210,2,0,P|108:328|143:333,1,80,2|0,0:0|1:0,0:0:0:0:
218,343,15639,5,2,0:0:0:0:
218,343,15853,1,2,0:0:0:0:
291,300,16068,1,4,0:0:0:0:
372,342,16282,1,0,0:0:0:0:
372,342,16389,1,0,1:0:0:0:
372,342,16496,2,0,P|412:337|453:335,1,80,2|0,0:0|1:0,0:0:0:0:
483,258,16925,1,2,0:0:0:0:
483,258,17353,6,0,P|486:206|489:172,1,80,0|2,0:0|0:0,0:0:0:0:
416,82,17782,1,2,0:0:0:0:
381,178,17996,1,0,0:0:0:0:
382,205,18103,1,0,1:0:0:0:
384,233,18210,2,0,P|388:278|388:302,2,40,2|0|2,0:0|1:0|0:0,0:0:0:0:
321,117,18639,2,0,P|278:123|228:120,1,80,2|0,0:0|1:0,0:0:0:0:
241,121,18960,1,0,0:0:0:0:
241,121,19068,5,2,0:0:0:0:
223,288,19282,1,2,0:0:0:0:
255,203,19496,1,0,1:0:0:0:
171,228,19710,1,0,0:0:0:0:
171,228,19818,1,0,1:0:0:0:
171,228,19925,2,0,P|179:273|183:317,1,80,0|0,0:0|1:0,0:0:0:0:
119,365,20353,1,2,0:0:0:0:
119,365,20782,6,0,P|79:338|6:315,1,120,4|0,1:0|0:0,0:0:0:0:
11,315,21210,2,0,P|19:260|23:230,1,80,2|2,0:0|0:0,0:0:0:0:
63,158,21639,1,0,0:0:0:0:
63,158,21746,1,0,1:0:0:0:
63,158,21853,1,2,0:0:0:0:
25,67,22068,2,0,P|67:57|103:35,1,80,2|0,0:0|1:0,0:0:0:0:
185,102,22496,6,0,P|181:65|181:14,1,80,2|2,0:0|0:0,0:0:0:0:
280,86,22925,2,0,P|279:125|275:165,1,80,2|0,0:0|0:0,0:0:0:0:
275,165,23246,1,0,1:0:0:0:
275,165,23353,1,0,0:0:0:0:
176,197,23568,1,0,1:0:0:0:
254,276,23782,1,2,0:0:0:0:
254,276,24210,6,0,P|300:279|337:284,1,80,0|2,0:0|0:0,0:0:0:0:
426,296,24639,1,2,0:0:0:0:
486,195,24853,1,0,0:0:0:0:
486,195,24960,1,0,1:0:0:0:
486,195,25068,2,0,P|450:187|439:184,1,40,0|0,0:0|1:0,0:0:0:0:
434,201,25282,2,0,P|410:189|392:187,1,40,2|0,0:0|0:0,0:0:0:0:
396,154,25496,2,0,P|350:168|309:168,1,80,2|0,0:0|1:0,0:0:0:0:
219,115,25925,5,0,0:0:0:0:
264,24,26139,1,2,0:0:0:0:
365,71,26353,1,2,0:0:0:0:
318,168,26568,1,0,0:0:0:0:
290,171,26675,1,0,1:0:0:0:
262,176,26782,1,2,0:0:0:0:
160,71,26996,1,0,0:0:0:0:
67,184,27210,2,0,L|61:151,5,26.6666666666667,2|2|2|2|2|2,0:0|0:0|0:0|0:0|0:0|0:0,0:0:0:0:
67,184,27639,6,0,P|128:184|199:175,1,120,4|0,1:0|0:0,0:0:0:0:
208,154,28068,2,0,P|210:217|212:246,1,80,8|0,0:3|0:0,0:0:0:0:
219,318,28496,1,0,1:0:0:0:
219,318,28603,1,0,1:0:0:0:
219,318,28710,1,0,1:0:0:0:
265,80,28925,1,0,1:0:0:0:
265,80,29246,5,0,0:0:0:0:
265,80,29353,1,0,1:0:0:0:
425,147,29568,1,2,0:0:0:0:
327,22,29782,1,8,0:3:0:0:
355,191,29996,1,0,0:0:0:0:
355,191,30103,1,8,0:3:0:0:
355,191,30210,1,0,0:0:0:0:
408,42,30425,1,8,0:3:0:0:
260,164,30639,1,4,0:0:0:0:
260,164,31068,6,0,P|261:206|265:256,1,80,0|0,1:0|0:0,0:0:0:0:
275,322,31496,1,8,0:3:0:0:
172,217,31710,1,0,0:0:0:0:
148,220,31818,1,0,1:0:0:0:
124,224,31925,1,0,1:0:0:0:
32,233,32139,1,0,1:0:0:0:
154,311,32353,1,0,1:0:0:0:
265,209,32568,1,8,0:3:0:0:
136,137,32782,1,0,1:0:0:0:
40,327,32996,5,2,1:2:0:0:
243,363,33210,1,8,0:3:0:0:
104,252,33425,5,0,0:0:0:0:
104,252,33532,1,8,0:3:0:0:
104,252,33639,1,0,0:0:0:0:
196,295,33853,1,8,0:3:0:0:
266,220,34068,1,0,1:0:0:0:
266,220,34496,6,0,P|266:160|261:93,1,120,4|0,1:0|0:0,0:0:0:0:
257,72,34925,2,0,P|303:67|339:66,1,80,8|0,0:3|0:0,0:0:0:0:
427,63,35353,1,0,1:0:0:0:
427,63,35460,1,0,1:0:0:0:
427,63,35568,1,0,1:0:0:0:
488,137,35782,1,0,1:0:0:0:
178,184,36103,5,0,0:0:0:0:
178,184,36210,1,0,1:0:0:0:
59,135,36425,1,2,0:0:0:0:
12,249,36639,1,8,0:3:0:0:
120,292,36853,1,0,0:0:0:0:
120,292,36960,1,8,0:3:0:0:
120,292,37068,2,0,P|159:290|201:283,1,80,0|8,0:0|0:3,0:0:0:0:
301,251,37496,1,4,0:0:0:0:
301,251,37925,6,0,P|297:208|300:166,1,80,0|0,1:0|0:0,0:0:0:0:
302,69,38353,1,8,0:3:0:0:
212,26,38568,1,0,0:0:0:0:
213,53,38675,1,0,1:0:0:0:
214,80,38782,1,0,0:0:0:0:
213,107,38889,1,8,0:3:0:0:
213,134,38996,1,0,0:1:0:0:
217,226,39210,1,8,0:3:0:0:
356,273,39425,1,8,0:3:0:0:
128,279,39639,6,0,L|131:326,3,40,4|8|0|0,1:2|0:3|1:0|1:0,0:0:0:0:
127,244,40068,1,8,0:3:0:0:
107,213,40175,1,0,1:0:0:0:
74,198,40282,1,8,0:3:0:0:
39,187,40389,1,0,1:0:0:0:
19,156,40496,1,0,1:0:0:0:
16,120,40603,1,0,1:0:0:0:
15,83,40710,1,8,0:3:0:0:
35,53,40818,1,0,1:0:0:0:
27,17,40925,6,0,L|91:25,1,60,4|0,1:2|0:0,0:0:0:0:
105,95,41353,5,4,1:0:0:0:
36,172,54639,6,0,L|41:145,7,20,2|0|0|0|0|0|0|0,1:0|0:0|0:0|0:0|0:0|0:0|0:0|0:0,0:0:0:0:
36,172,55068,2,0,L|46:258,1,80,4|0,1:0|0:0,0:0:0:0:
246,15,55496,2,0,P|160:84|65:82,1,207.999990478516,2|0,1:3|1:0,0:0:0:0:
279,201,56139,1,2,0:0:0:0:
279,201,56246,1,0,0:0:0:0:
279,201,56353,2,0,P|273:256|272:297,1,80,0|2,1:0|0:0,0:0:0:0:
151,348,56782,6,0,P|157:248|157:165,1,160,0|0,1:0|1:0,0:0:0:0:
277,116,57425,1,2,0:0:0:0:
277,116,57532,1,0,0:0:0:0:
277,116,57639,2,0,P|323:120|362:124,1,80,0|2,1:0|0:0,0:0:0:0:
470,262,58068,1,0,1:0:0:0:
470,262,58496,6,0,P|392:257|299:256,1,160,4|0,1:0|1:0,0:0:0:0:
221,216,59139,1,2,0:0:0:0:
221,216,59246,1,0,0:0:0:0:
221,216,59353,2,0,P|223:271|226:315,1,80,0|2,1:0|0:0,0:0:0:0:
137,367,59782,2,0,P|138:325|140:282,1,80,0|6,1:0|0:0,0:0:0:0:
132,107,60210,6,0,P|85:111|39:114,1,80,0|0,1:0|0:0,0:0:0:0:
190,39,60639,2,0,P|251:41|354:46,1,160,0|0,1:0|1:0,0:0:0:0:
491,216,61282,5,0,1:0:0:0:
491,216,61389,1,0,0:0:0:0:
491,216,61496,2,0,P|484:259|479:293,1,60,2|0,0:3|0:0,0:0:0:0:
497,305,61925,6,0,P|455:305|397:311,1,80,6|0,1:0|0:0,0:0:0:0:
332,361,62353,1,2,1:3:0:0:
253,296,62568,1,2,0:1:0:0:
339,242,62782,2,0,P|339:194|344:153,1,80,0|0,0:0|1:0,0:0:0:0:
342,162,63103,1,0,0:0:0:0:
342,162,63210,1,0,1:0:0:0:
245,26,63425,1,4,0:0:0:0:
178,281,63639,6,0,P|181:324|185:370,1,80,6|0,1:0|0:0,0:0:0:0:
228,211,64068,2,0,P|231:158|234:125,1,80,2|2,1:3|0:1,0:0:0:0:
137,61,64496,1,0,0:0:0:0:
20,129,64710,1,0,1:0:0:0:
20,129,64818,1,0,0:0:0:0:
20,129,64925,2,0,P|19:59|26:25,1,80,0|0,1:0|1:0,0:0:0:0:
324,192,65353,6,0,P|315:133|232:73,1,160,6|2,1:0|0:3,0:0:0:0:
157,63,65996,1,2,0:1:0:0:
157,63,66103,1,0,0:0:0:0:
157,63,66210,2,0,P|160:105|161:147,1,80,0|2,0:0|0:1,0:0:0:0:
201,340,66639,1,8,1:3:0:0:
236,177,66853,1,0,0:0:0:0:
34,341,67068,5,6,1:0:0:0:
34,341,67496,1,8,1:3:0:0:
34,341,67925,1,4,1:2:0:0:
489,354,68353,5,4,1:2:0:0:
484,335,68425,1,0,1:0:0:0:
482,316,68496,1,0,1:0:0:0:
486,297,68568,1,0,1:0:0:0:
491,279,68639,1,0,1:0:0:0:
489,260,68711,1,0,1:0:0:0:
485,241,68782,6,0,L|510:77,1,155.999992858887,4|0,1:0|0:0,0:0:0:0:
511,47,69210,2,0,L|390:33,1,103.999995239258,2|0,0:3|0:1,0:0:0:0:
270,111,69639,2,0,L|248:274,1,155.999992858887,0|0,1:0|0:0,0:0:0:0:
243,300,70068,1,0,1:0:0:0:
377,330,70282,1,0,0:1:0:0:
351,116,70496,6,0,L|338:-4,1,103.999995239258,4|0,1:0|0:0,0:0:0:0:
140,133,70925,2,0,L|151:249,1,103.999995239258,2|0,0:3|0:0,0:0:0:0:
162,358,71353,1,0,1:0:0:0:
253,289,71568,1,2,0:0:0:0:
253,289,71639,1,2,0:0:0:0:
253,289,71711,1,0,0:0:0:0:
253,289,71782,1,2,1:3:0:0:
66,303,71996,1,0,0:1:0:0:
324,360,72210,6,0,P|394:351|503:365,1,155.999992858887,4|0,1:0|0:0,0:0:0:0:
498,323,72639,1,2,0:3:0:0:
447,188,72853,1,0,0:1:0:0:
330,280,73068,1,0,1:0:0:0:
427,264,73282,1,0,0:0:0:0:
470,113,73496,2,0,L|482:4,1,103.999995239258,2|0,1:3|0:1,0:0:0:0:
273,188,73925,6,0,L|229:89,1,103.999995239258,4|2,1:0|0:1,0:0:0:0:
387,196,74353,2,0,L|351:89,1,103.999995239258,2|2,0:3|0:1,0:0:0:0:
232,309,74782,2,0,L|154:231,1,103.999995239258,2|4,1:0|0:0,0:0:0:0:
328,274,75210,1,2,1:3:0:0:
159,360,75425,1,0,0:1:0:0:
159,360,75496,1,2,0:0:0:0:
159,360,75568,1,2,0:0:0:0:
159,360,75639,6,0,P|83:360|-4:364,1,155.999992858887,4|0,1:0|0:0,0:0:0:0:
10,326,76068,2,0,L|-1:210,1,103.999995239258,2|0,1:3|0:1,0:0:0:0:
86,12,76496,2,0,P|138:54|127:163,1,155.999992858887,0|0,1:0|0:1,0:0:0:0:
157,163,76925,2,0,L|86:160,1,51.999997619629,2|0,1:3|0:0,0:0:0:0:
154,238,77139,2,0,L|205:241,1,51.999997619629,0|0,1:1|0:0,0:0:0:0:
316,261,77353,6,0,P|248:260|192:336,1,155.999992858887,4|0,1:0|0:1,0:0:0:0:
194,355,77782,1,2,1:3:0:0:
239,86,77996,1,0,0:1:0:0:
239,86,78103,1,0,0:0:0:0:
239,86,78210,2,0,P|253:145|292:183,1,103.999995239258,4|0,1:0|0:1,0:0:0:0:
306,184,78496,2,0,L|354:175,2,34.6666650797527,2|0|2,0:0|0:1|1:3,0:0:0:0:
160,243,78853,1,0,0:1:0:0:
450,337,79068,6,0,B|435:245|480:279|455:166,1,155.999992858887,4|0,1:0|0:0,0:0:0:0:
456,153,79496,2,0,P|445:98|441:39,1,103.999995239258,2|0,1:3|0:1,0:0:0:0:
325,358,79925,2,0,P|337:294|308:172,1,155.999992858887,0|0,1:0|0:0,0:0:0:0:
330,171,80353,2,0,L|248:190,1,51.999997619629,8|0,1:0|0:0,0:0:0:0:
184,180,80568,2,0,L|121:198,1,51.999997619629,0|0,1:1|0:0,0:0:0:0:
40,171,80782,6,0,L|23:113,1,60,4|0,0:2|0:0,0:0:0:0:
40,171,81211,6,0,L|26:255,1,51.999997619629,10|0,1:0|0:0,0:0:0:0:
32,304,81425,2,0,L|45:356,1,51.999997619629,2|0,0:1|0:0,0:0:0:0:
126,368,81639,2,0,P|137:315|205:279,1,103.999995239258,2|2,1:0|0:1,0:0:0:0:
203,291,81925,2,0,L|238:308,2,34.6666650797527,2|2|10,0:0|0:1|1:3,0:0:0:0:
349,245,82282,2,0,L|314:262,2,34.6666650797527,10|0|0,0:3|0:0|0:0,0:0:0:0:
377,235,82496,6,0,P|423:232|505:317,1,155.999992858887,4|0,1:0|0:1,0:0:0:0:
502,335,82925,2,0,P|457:342|388:362,1,103.999995239258,2|0,1:3|0:1,0:0:0:0:
273,196,83353,2,0,P|268:143|244:39,1,155.999992858887,0|0,1:0|0:0,0:0:0:0:
276,34,83782,2,0,P|305:28|330:21,1,51.999997619629,2|0,1:3|0:0,0:0:0:0:
473,56,83996,2,0,P|447:61|422:67,1,51.999997619629,0|0,0:1|0:0,0:0:0:0:
352,116,84210,2,0,P|388:117|489:195,1,155.999992858887,4|0,1:0|0:0,0:0:0:0:
485,220,84639,2,0,P|474:261|464:340,1,103.999995239258,2|0,1:3|0:1,0:0:0:0:
363,219,85068,1,4,1:0:0:0:
319,335,85282,1,0,0:1:0:0:
319,335,85353,1,2,0:0:0:0:
319,335,85425,1,0,0:1:0:0:
319,335,85496,2,0,P|283:342|244:341,1,51.999997619629,2|0,1:3|0:0,0:0:0:0:
191,320,85710,2,0,P|154:318|115:325,1,51.999997619629,0|0,1:1|0:0,0:0:0:0:
65,351,85925,6,0,P|22:311|14:211,1,155.999992858887,4|0,1:0|0:0,0:0:0:0:
8,177,86353,2,0,P|59:191|121:204,1,103.999995239258,8|0,1:0|0:1,0:0:0:0:
108,201,86675,1,0,0:0:0:0:
108,201,86782,1,0,1:0:0:0:
247,258,86996,1,0,0:0:0:0:
129,293,87210,1,8,1:0:0:0:
203,183,87425,1,2,0:1:0:0:
400,318,87639,5,6,1:0:0:0:
316,337,87853,2,0,L|308:374,3,34.6666650797527,2|2|2|8,0:1|0:0|0:1|1:0,0:0:0:0:
300,251,88282,1,2,0:1:0:0:
349,183,88496,1,6,1:0:0:0:
432,172,88710,1,2,0:1:0:0:
494,114,88925,1,12,1:0:0:0:
465,34,89139,1,2,0:1:0:0:
210,280,89353,6,0,L|224:397,1,103.999995239258,2|0,1:0|0:0,0:0:0:0:
356,251,89782,2,0,L|325:73,1,180.000006866455,4|0,1:2|0:0,0:0:0:0:
344,41,90210,2,0,P|289:61|222:58,1,120.000004577637,0|0,1:2|0:0,0:0:0:0:
140,35,90639,1,0,1:1:0:0:
108,33,90746,1,0,0:0:0:0:
77,38,90853,1,0,1:1:0:0:
48,50,90960,1,0,0:0:0:0:
25,71,91068,6,0,P|11:128|35:221,1,155.999992858887,2|0,1:0|0:0,0:0:0:0:
56,243,91496,2,0,L|172:227,1,103.999995239258,2|0,1:1|0:0,0:0:0:0:
222,127,91925,2,0,L|106:146,1,103.999995239258,2|0,1:0|0:0,0:0:0:0:
269,217,92353,1,0,1:0:0:0:
293,236,92460,1,0,0:0:0:0:
310,261,92568,1,0,1:1:0:0:
315,291,92675,1,0,0:0:0:0:
309,321,92782,6,0,P|252:362|157:346,1,155.999992858887,2|0,1:0|0:0,0:0:0:0:
146,364,93210,2,0,L|158:239,1,103.999995239258,4|0,1:2|0:0,0:0:0:0:
353,87,93639,2,0,L|364:190,1,103.999995239258,2|0,1:0|0:0,0:0:0:0:
121,35,94068,1,2,1:0:0:0:
149,61,94175,1,0,0:0:0:0:
183,72,94282,1,2,0:1:0:0:
219,68,94389,1,0,0:0:0:0:
246,43,94496,6,0,L|235:164,1,103.999995239258,6|0,1:0|0:0,0:0:0:0:
236,146,94782,1,0,0:1:0:0:
236,146,94853,1,2,0:1:0:0:
236,146,94925,1,2,1:3:0:0:
308,219,95139,1,2,0:1:0:0:
401,234,95353,1,4,1:2:0:0:
485,170,95568,1,2,0:1:0:0:
487,249,95782,1,4,1:2:0:0:
443,307,95996,1,2,0:1:0:0:
183,314,96210,6,0,P|173:268|181:192,1,103.999995239258,6|2,1:0|0:0,0:0:0:0:
0,0,96639,2,0,P|30:58|27:168,1,155.999992858887,8|0,1:0|0:0,0:0:0:0:
18,175,97068,2,0,L|129:166,1,103.999995239258,2|0,1:0|0:1,0:0:0:0:
212,157,97496,1,8,1:0:0:0:
301,210,97710,1,2,0:0:0:0:
301,210,97818,1,0,0:0:0:0:
301,210,97925,6,0,P|310:271|307:324,1,103.999995239258,2|2,1:0|0:1,0:0:0:0:
144,360,98353,2,0,P|135:299|138:246,1,103.999995239258,8|2,1:0|0:1,0:0:0:0:
297,122,98782,1,2,1:0:0:0:
385,155,98996,1,2,0:0:0:0:
415,151,99103,1,0,0:1:0:0:
446,146,99210,1,8,1:0:0:0:
509,209,99425,1,2,0:1:0:0:
219,247,99639,6,0,L|209:111,1,103.999995239258,2|2,1:0|0:0,0:0:0:0:
357,61,100068,2,0,L|368:227,1,155.999992858887,8|0,1:0|0:0,0:0:0:0:
390,235,100496,2,0,P|343:244|297:286,1,103.999995239258,0|2,1:0|0:0,0:0:0:0:
288,367,100925,1,8,1:0:0:0:
54,218,101139,5,2,0:0:0:0:
54,218,101246,1,0,0:0:0:0:
54,218,101353,2,0,P|90:220|157:258,1,103.999995239258,2|2,1:0|0:1,0:0:0:0:
180,358,101782,1,8,1:0:0:0:
57,334,101996,1,2,0:1:0:0:
241,253,102210,1,2,1:0:0:0:
316,308,102425,1,0,0:0:0:0:
316,308,102532,1,2,0:1:0:0:
316,308,102639,2,0,P|373:326|428:313,1,103.999995239258,8|2,1:0|0:1,0:0:0:0:
489,214,103068,6,0,P|490:156|480:59,1,155.999992858887,2|0,1:0|0:0,0:0:0:0:
501,31,103496,2,0,P|439:37|383:38,1,103.999995239258,8|2,1:0|0:0,0:0:0:0:
221,271,103925,2,0,P|213:219|224:114,1,155.999992858887,2|0,1:0|0:0,0:0:0:0:
199,86,104353,2,0,P|262:89|302:85,1,103.999995239258,8|0,1:0|0:0,0:0:0:0:
355,363,104782,6,0,L|344:254,1,103.999995239258,2|2,1:0|0:1,0:0:0:0:
471,151,105210,1,8,1:0:0:0:
471,151,105318,1,0,0:1:0:0:
471,151,105425,1,2,0:0:0:0:
484,236,105639,2,0,L|479:348,1,103.999995239258,2|2,1:0|0:0,0:0:0:0:
377,156,106068,2,0,L|392:46,1,103.999995239258,10|2,1:0|0:1,0:0:0:0:
305,233,106496,6,0,P|268:187|161:166,1,155.999992858887,2|0,1:0|0:0,0:0:0:0:
150,127,106925,2,0,P|156:193|156:247,1,103.999995239258,8|2,1:0|0:1,0:0:0:0:
210,323,107353,1,0,1:0:0:0:
247,41,107568,1,2,0:0:0:0:
247,41,107675,1,0,0:0:0:0:
247,41,107782,2,0,P|188:44|132:37,1,103.999995239258,10|2,1:0|0:0,0:0:0:0:
266,118,108210,6,0,P|323:111|421:228,1,207.999990478516,2|4,1:0|1:2,0:0:0:0:
292,359,108853,1,2,0:1:0:0:
179,251,109068,1,2,1:0:0:0:
318,207,109282,1,2,0:0:0:0:
435,298,109496,1,4,1:2:0:0:
292,359,109710,1,2,1:0:0:0:
292,359,109818,1,0,1:0:0:0:
292,359,109925,6,0,P|263:302|268:253,1,103.999995239258,6|0,1:0|0:0,0:0:0:0:
456,103,110353,2,0,P|485:160|480:209,1,103.999995239258,8|0,1:0|0:1,0:0:0:0:
197,110,110782,2,0,P|262:87|354:116,1,155.999992858887,2|0,1:0|0:0,0:0:0:0:
378,80,111210,2,0,L|361:189,1,103.999995239258,8|0,1:0|0:1,0:0:0:0:
170,22,111639,5,0,1:0:0:0:
84,52,111853,1,0,0:1:0:0:
84,52,111960,1,0,0:0:0:0:
84,52,112068,2,0,P|49:96|42:146,1,103.999995239258,10|2,1:0|0:0,0:0:0:0:
226,290,112496,2,0,P|238:237|234:178,1,103.999995239258,2|2,1:0|0:0,0:0:0:0:
20,270,112925,2,0,P|78:279|121:326,1,103.999995239258,10|0,1:0|1:0,0:0:0:0:
124,330,113246,1,0,1:0:0:0:
132,354,113353,6,0,L|261:373,1,103.999995239258,6|2,1:0|0:0,0:0:0:0:
372,137,113782,2,0,L|243:118,1,103.999995239258,10|2,1:0|0:0,0:0:0:0:
488,334,114210,2,2,P|469:256|357:213,1,207.999990478516,2|10,1:0|1:0,1:0:0:0:
205,251,114853,1,2,0:0:0:0:
278,368,115068,6,0,L|294:261,1,103.999995239258,0|2,1:0|0:0,0:0:0:0:
293,265,115389,1,0,0:0:0:0:
293,265,115496,1,10,1:0:0:0:
129,117,115710,1,2,0:0:0:0:
52,202,115925,1,2,1:0:0:0:
140,274,116139,1,2,0:0:0:0:
216,188,116353,1,10,1:0:0:0:
39,107,116568,5,0,1:1:0:0:
39,107,116675,1,0,1:0:0:0:
39,107,116782,2,0,P|27:50|40:3,1,103.999995239258,6|2,1:0|0:0,0:0:0:0:
286,57,117210,2,0,P|306:113|299:160,1,103.999995239258,8|0,1:0|0:0,0:0:0:0:
311,179,117532,1,0,0:0:0:0:
322,202,117639,2,0,B|198:184|252:243|108:217,1,207.999990478516,2|8,1:0|1:0,0:0:0:0:
20,260,118282,5,0,0:1:0:0:
20,260,118389,1,0,0:0:0:0:
20,260,118496,2,0,P|30:315|26:377,1,103.999995239258,2|2,1:0|0:0,0:0:0:0:
109,133,118925,2,0,P|59:107|24:72,1,103.999995239258,10|2,1:0|0:0,0:0:0:0:
188,260,119353,2,0,P|240:249|295:260,1,103.999995239258,2|0,1:0|0:0,0:0:0:0:
373,311,119782,1,10,1:0:0:0:
458,266,119996,5,0,1:0:0:0:
458,266,120103,1,0,1:0:0:0:
458,266,120210,2,0,P|456:199|474:81,1,155.999992858887,6|0,1:0|0:0,0:0:0:0:
494,70,120639,2,0,P|430:84|386:85,1,103.999995239258,14|0,1:0|0:0,0:0:0:0:
391,85,120960,1,0,0:0:0:0:
391,85,121068,1,14,1:0:0:0:
274,164,121282,1,0,0:0:0:0:
274,164,121389,1,0,0:0:0:0:
274,164,121496,1,14,1:0:0:0:
351,282,121710,1,2,1:0:0:0:
351,282,121818,1,0,1:0:0:0:
351,282,121925,5,14,1:0:0:0:
326,262,122032,1,0,1:0:0:0:
295,255,122139,1,0,1:3:0:0:
264,258,122246,1,8,1:3:0:0:
236,272,122353,1,0,1:0:0:0:
212,293,122460,1,0,1:0:0:0:
184,307,122568,1,8,1:3:0:0:
152,305,122675,1,0,1:0:0:0:
122,294,122782,6,0,L|105:229,1,51.999997619629,8|0,1:3|1:0,0:0:0:0:
49,200,122996,1,0,1:0:0:0:
49,200,123103,1,8,1:3:0:0:
49,200,123210,2,0,L|63:127,1,51.999997619629,0|0,1:0|1:0,0:0:0:0:
114,89,123425,1,8,1:3:0:0:
114,89,123532,1,0,1:0:0:0:
114,89,123639,5,4,1:0:0:0:
218,29,124068,1,0,0:0:0:0:
236,35,124282,1,0,0:0:0:0:
471,227,125353,6,0,P|398:195|305:201,1,160,2|0,0:3|0:0,0:0:0:0:
318,196,126425,2,0,L|325:240,1,40
339,315,126853,1,0,0:0:0:0:
251,154,127068,6,0,P|253:117|261:65,1,80,2|0,0:3|0:0,0:0:0:0:
166,14,127710,2,0,P|171:53|174:93,1,80
66,168,128353,1,0,0:0:0:0:
66,168,128782,6,0,B|161:181|119:124|226:145,1,160,2|0,0:3|0:0,0:0:0:0:
219,143,129853,2,0,L|214:186,1,40
158,244,130282,1,0,0:0:0:0:
214,304,130496,6,0,L|301:314,1,80,2|0,0:3|0:0,0:0:0:0:
361,336,131139,2,0,L|440:326,1,80
497,268,131782,1,0,0:0:0:0:
497,268,132210,6,0,P|497:230|510:106,1,160,2|0,0:3|0:0,0:0:0:0:
481,35,133282,1,2,0:0:0:0:
481,35,133496,2,0,L|440:40,1,40,2|2,0:0|0:0,0:0:0:0:
368,87,133925,6,0,L|320:75,2,40,2|0|0,0:3|0:1|0:1,0:0:0:0:
433,153,134568,2,0,P|438:192|438:232,1,80,2|0,0:1|0:0,0:0:0:0:
364,283,135210,2,0,P|358:322|358:362,1,80,0|2,0:1|0:3,0:0:0:0:
244,57,136068,5,0,0:0:0:0:
244,57,136496,2,0,P|206:57|151:51,1,80
164,53,137353,6,0,P|161:89|159:147,1,80,2|0,0:3|0:0,0:0:0:0:
258,224,137996,2,0,P|256:184|252:144,1,80
154,235,138639,2,0,P|121:235|65:248,1,80,0|2,0:0|0:3,0:0:0:0:
75,244,139496,5,0,0:0:0:0:
23,312,139710,1,0,0:0:0:0:
90,359,139925,1,0,0:0:0:0:
154,311,140139,1,0,0:0:0:0:
154,311,140353,2,0,P|178:313|196:319,1,40
263,355,140782,6,0,P|268:324|260:268,1,80,2|0,0:3|0:0,0:0:0:0:
260,190,141425,2,0,P|255:159|263:103,1,80
265,29,142068,2,0,P|303:32|352:27,1,80,0|2,0:0|0:3,0:0:0:0:
481,154,142925,6,0,P|479:183|479:206,1,40
478,193,143246,1,0,0:0:0:0:
478,193,143353,1,0,0:0:0:0:
409,187,143568,1,2,0:0:0:0:
327,193,143782,1,2,0:0:0:0:
254,236,143996,1,2,0:0:0:0:
214,316,144210,6,0,P|177:317|129:315,1,80,2|0,0:3|0:0,0:0:0:0:
45,224,144853,2,0,P|82:223|130:225,1,80
185,168,145496,2,0,P|185:133|190:89,1,80,0|2,0:0|0:3,0:0:0:0:
190,88,146568,5,0,0:0:0:0:
384,35,146996,2,0,L|409:38,2,20
300,18,147425,1,0,0:0:0:0:
224,29,147639,1,2,0:3:0:0:
149,61,147853,1,0,0:0:0:0:
68,49,148068,1,0,0:0:0:0:
297,115,148496,6,0,P|294:144|293:169,1,40,2|0,0:0|0:0,0:0:0:0:
293,154,148818,1,0,0:0:0:0:
293,154,148925,1,0,0:0:0:0:
226,219,149139,1,0,0:0:0:0:
327,262,149353,2,0,L|325:306,1,40,2|0,0:0|0:0,0:0:0:0:
237,364,149782,2,0,P|199:366|147:369,1,80,0|2,0:0|0:0,0:0:0:0:
88,328,150425,5,0,0:0:0:0:
18,266,150639,1,0,0:0:0:0:
60,183,150853,1,0,0:0:0:0:
127,125,151068,6,0,P|141:160|140:212,1,80,2|0,0:3|0:0,0:0:0:0:
29,93,151710,2,0,P|29:53|44:16,1,80
136,27,152353,1,0,0:0:0:0:
136,27,152782,6,0,L|220:18,1,80,2|0,0:3|0:0,0:0:0:0:
289,65,153425,2,0,L|373:56,1,80
368,56,153960,1,0,0:0:0:0:
368,56,154068,1,0,0:0:0:0:
462,113,154282,1,0,0:0:0:0:
372,155,154496,5,2,0:3:0:0:
480,196,154710,1,0,0:0:0:0:
323,255,154925,6,0,L|404:239,1,80,0|2,0:0|0:0,0:0:0:0:
485,293,155568,2,0,L|461:300,2,20
389,329,155996,1,0,0:0:0:0:
259,358,156210,6,0,L|174:339,1,80,2|0,0:0|0:0,0:0:0:0:
147,265,156853,1,2,0:0:0:0:
147,265,156960,1,0,0:0:0:0:
147,265,157068,2,0,L|59:282,1,80,2|0,0:0|0:0,0:0:0:0:
297,21,157925,6,0,L|301:73,1,40,2|0,0:0|0:0,0:0:0:0:
206,128,158353,2,0,L|202:78,1,40
312,138,158782,2,0,L|315:193,1,40,2|0,0:0|0:0,0:0:0:0:
314,177,159210,1,0,0:0:0:0:
238,235,159425,1,0,0:0:0:0:
238,235,159639,2,0,L|243:315,1,80,2|0,0:0|0:0,0:0:0:0:
242,314,160496,6,0,L|292:321,1,40,2|0,0:0|0:0,0:0:0:0:
357,344,160925,2,0,L|441:326,1,80,0|2,0:0|0:0,0:0:0:0:
163,231,161996,1,0,0:0:0:0:
163,231,162210,2,0,L|74:248,1,80,2|0,0:0|0:0,0:0:0:0:
84,246,163068,2,0,L|75:203,1,40,2|0,0:0|0:0,0:0:0:0:
475,26,163496,6,2,L|490:191,1,160,2|0,0:1|0:0,1:0:0:0:
37,358,164353,6,2,L|18:148,1,207.999990478516,2|4,0:1|1:0,1:0:0:0:
480,353,165425,5,0,0:0:0:0:
480,353,165639,1,0,1:2:0:0:
480,353,166068,5,0,0:2:0:0:
400,330,166282,1,0,0:0:0:0:
321,306,166496,1,0,1:0:0:0:
321,306,166710,1,0,0:0:0:0:
315,216,166925,5,0,0:0:0:0:
235,236,167139,1,0,0:0:0:0:
156,263,167353,1,0,1:0:0:0:
156,263,167782,1,0,0:0:0:0:
156,263,168210,1,0,1:0:0:0:
125,348,168425,1,0,0:0:0:0:
125,348,168532,1,0,0:0:0:0:
125,348,168639,1,0,0:0:0:0:
372,278,168960,5,0,0:0:0:0:
372,278,169068,1,0,1:0:0:0:
314,199,169282,1,0,0:0:0:0:
297,330,169496,1,0,0:0:0:0:
423,359,169710,1,0,0:0:0:0:
448,234,169925,1,0,1:0:0:0:
314,199,170139,1,0,0:0:0:0:
297,330,170353,1,0,0:0:0:0:
90,139,170675,5,0,0:0:0:0:
90,139,170782,1,0,1:0:0:0:
148,60,170996,1,0,0:0:0:0:
165,191,171210,1,0,0:0:0:0:
39,220,171425,1,0,0:0:0:0:
14,95,171639,1,4,1:0:0:0:
148,60,171853,1,0,0:0:0:0:
165,191,172068,1,8,1:3:0:0:
260,376,172389,5,8,0:3:0:0:
260,376,172496,1,0,1:0:0:0:
201,305,172710,1,8,0:3:0:0:
212,224,172925,1,0,1:2:0:0:
283,186,173139,1,8,0:3:0:0:
343,118,173353,1,0,1:0:0:0:
324,33,173568,1,8,0:3:0:0:
289,293,174103,5,8,0:3:0:0:
289,293,174210,1,0,1:0:0:0:
359,335,174425,1,8,0:3:0:0:
268,211,174639,5,8,0:3:0:0:
175,244,174853,1,0,0:0:0:0:
285,134,175068,5,0,1:0:0:0:
392,169,175282,1,8,1:3:0:0:
85,38,175818,5,8,0:3:0:0:
85,38,175925,1,0,1:0:0:0:
14,84,176139,1,8,0:3:0:0:
94,117,176353,5,8,1:0:0:0:
46,190,176568,1,0,0:0:0:0:
130,194,176782,5,0,1:0:0:0:
143,280,176996,1,8,0:3:0:0:
143,280,177210,1,8,1:0:0:0:
416,146,177532,5,8,0:3:0:0:
416,146,177639,1,0,1:0:0:0:
490,206,177853,1,0,1:0:0:0:
381,241,178068,2,0,L|402:59,1,180.000006866455,12|0,1:0|0:0,0:0:0:0:
405,29,178496,1,0,1:0:0:0:
405,29,178710,1,8,1:3:0:0:
32,40,178925,6,0,L|25:84,1,40,4|8,1:2|1:3,0:0:0:0:
25,79,179246,1,0,1:0:0:0:
25,79,179353,1,0,1:0:0:0:
75,147,179568,1,8,1:3:0:0:
142,186,179782,1,8,1:0:0:0:
222,207,179996,1,8,0:3:0:0:
222,207,180103,1,0,1:0:0:0:
222,207,180210,1,0,1:0:0:0:
311,202,180425,1,8,1:3:0:0:
497,194,180639,6,0,L|504:150,1,40,4|8,1:2|1:3,0:0:0:0:
503,154,180960,1,0,1:0:0:0:
503,154,181068,1,0,1:0:0:0:
456,89,181282,1,8,1:3:0:0:
378,48,181496,1,8,1:0:0:0:
288,41,181710,1,8,1:3:0:0:
288,41,181818,1,0,1:0:0:0:
288,41,181925,1,0,1:0:0:0:
189,57,182139,1,8,1:3:0:0:
24,152,182353,6,0,L|17:196,1,40,4|8,1:2|1:3,0:0:0:0:
18,192,182675,1,0,1:0:0:0:
18,192,182782,1,0,1:0:0:0:
82,272,182996,1,8,1:3:0:0:
171,310,183210,1,8,1:0:0:0:
278,307,183425,1,8,1:3:0:0:
278,307,183532,1,0,1:0:0:0:
278,307,183639,1,0,1:0:0:0:
367,253,183853,1,8,1:3:0:0:
494,205,184068,6,0,L|501:161,1,40,4|8,1:2|1:3,0:0:0:0:
500,165,184389,1,0,1:0:0:0:
500,165,184496,1,0,1:0:0:0:
436,85,184710,1,8,1:3:0:0:
436,85,184818,1,0,1:0:0:0:
436,85,184925,2,2,P|349:102|323:200,1,180.000006866455,4|0,1:0|0:0,1:0:0:0:
323,213,185353,5,4,1:0:0:0:
222,291,185568,1,8,1:3:0:0:
327,369,185782,1,8,1:0:0:0:
362,367,185889,1,0,1:0:0:0:
394,350,185996,1,8,1:3:0:0:
413,320,186103,1,0,1:0:0:0:
416,283,186210,1,0,1:0:0:0:
246,171,186425,1,8,1:3:0:0:
222,360,186639,1,8,1:0:0:0:
296,279,186853,1,8,1:3:0:0:
296,279,186960,1,0,1:0:0:0:
296,279,187068,1,0,1:0:0:0:
246,171,187282,1,8,1:3:0:0:
196,33,187496,5,8,1:0:0:0:
154,24,187603,1,0,1:0:0:0:
112,30,187710,1,8,1:3:0:0:
76,52,187818,1,0,1:0:0:0:
58,90,187925,1,0,1:0:0:0:
57,177,188139,1,8,1:3:0:0:
57,177,188246,1,0,1:0:0:0:
57,177,188353,1,8,1:0:0:0:
130,236,188568,1,8,1:3:0:0:
86,326,188782,1,4,1:0:0:0:
9,261,188996,1,8,1:3:0:0:
266,55,189210,5,8,1:0:0:0:
319,54,189318,1,0,1:0:0:0:
369,73,189425,1,8,1:3:0:0:
404,113,189532,1,0,1:0:0:0:
410,166,189639,1,0,1:0:0:0:
486,273,189853,1,8,1:3:0:0:
376,346,190068,1,8,1:0:0:0:
304,235,190282,1,8,1:3:0:0:
304,235,190389,1,0,1:0:0:0:
304,235,190496,1,0,1:0:0:0:
486,273,190710,1,8,1:3:0:0:
252,336,190925,6,2,P|195:282|91:277,1,180.000006866455,10|0,1:0|0:0,1:0:0:0:
83,241,191353,2,0,L|86:181,1,60.0000022888184,4|0,1:2|0:0,0:0:0:0:
80,35,191568,2,0,L|83:94,1,60.0000022888184,8|0,1:3|0:0,0:0:0:0:
24,148,191782,2,0,L|154:141,1,120.000004577637,4|0,1:0|1:0,0:0:0:0:
156,124,192050,2,0,L|164:83,1,30.0000011444092,0|0,1:0|1:0,0:0:0:0:
176,146,192157,1,0,1:0:0:0:
203,140,192211,6,0,L|214:243,1,88.000002685547,6|8,1:0|0:3,0:0:0:0:
216,351,192639,1,8,1:0:0:0:
292,151,192853,1,8,1:3:0:0:
292,151,192960,1,8,1:3:0:0:
292,151,193068,2,0,L|275:49,1,88.000002685547,2|8,1:0|0:3,0:0:0:0:
301,249,193496,6,2,P|329:172|431:144,1,180.000006866455,8|0,1:1|0:0,1:0:0:0:
418,177,193925,6,0,L|425:264,1,88.000002685547,6|8,1:0|0:3,0:0:0:0:
183,364,194353,1,8,1:0:0:0:
180,328,194460,1,2,1:0:0:0:
177,292,194568,1,8,1:3:0:0:
174,256,194675,1,2,1:0:0:0:
169,221,194782,2,0,L|173:119,1,88.000002685547,2|10,1:0|1:3,0:0:0:0:
440,30,195210,2,0,L|446:8,3,22.0000006713867,10|0|0|0,1:3|1:0|1:0|1:0,0:0:0:0:
475,50,195425,6,0,P|408:54|349:96,1,120.000004577637,10|6,1:3|1:0,0:0:0:0:
233,144,195853,1,8,0:3:0:0:
305,263,196068,1,8,1:0:0:0:
352,268,196175,1,0,1:0:0:0:
399,273,196282,1,8,1:3:0:0:
446,278,196389,1,0,1:0:0:0:
493,286,196496,1,10,1:0:0:0:
317,178,196710,1,8,1:3:0:0:
243,332,196925,6,2,L|58:356,1,180.000006866455,8|0,1:0|0:0,1:0:0:0:
47,331,197353,6,0,P|30:289|40:234,1,88.000002685547,6|8,1:0|1:3,0:0:0:0:
131,115,197782,1,8,1:0:0:0:
295,173,197996,1,8,1:3:0:0:
295,173,198103,1,0,1:0:0:0:
295,173,198210,2,0,P|312:215|302:270,1,88.000002685547,2|10,1:0|1:3,0:0:0:0:
32,173,198639,1,10,1:0:0:0:
263,75,198853,5,8,1:0:0:0:
263,75,199068,2,0,L|395:95,1,120.000004577637,2|6,1:0|1:0,0:0:0:0:
202,25,199496,1,12,1:0:0:0:
154,29,199603,1,0,1:3:0:0:
106,35,199710,1,8,1:3:0:0:
58,38,199818,1,0,1:3:0:0:
10,42,199925,1,4,1:0:0:0:
202,144,200139,1,8,1:3:0:0:
409,226,200353,6,0,L|432:31,1,180.000006866455,6|0,1:0|0:0,0:0:0:0:
430,16,200782,5,6,1:0:0:0:
310,209,200996,1,8,1:3:0:0:
506,98,201210,1,8,1:0:0:0:
501,145,201318,1,0,1:0:0:0:
496,192,201425,1,8,1:3:0:0:
489,239,201532,1,0,1:0:0:0:
484,286,201639,1,8,1:0:0:0:
347,24,201853,1,8,1:3:0:0:
239,123,202068,2,0,L|200:115,3,30.0000011444092,8|0|0|0,1:0|1:0|1:0|1:0,0:0:0:0:
266,131,202282,6,0,P|297:150|317:238,1,120.000004577637,6|4,1:0|1:2,0:0:0:0:
306,259,202603,1,0,1:0:0:0:
277,281,202710,1,8,1:3:0:0:
241,288,202818,1,8,1:3:0:0:
205,285,202925,1,8,1:0:0:0:
172,269,203032,1,8,1:3:0:0:
140,252,203139,1,8,1:3:0:0:
104,248,203246,1,0,1:0:0:0:
69,258,203353,1,4,1:2:0:0:
44,284,203460,1,0,1:0:0:0:
46,319,203568,1,8,1:3:0:0:
69,346,203675,1,0,1:0:0:0:
102,358,203782,6,0,L|139:352,3,30.0000011444092,14|0|0|0,1:0|1:0|1:0|1:0,0:0:0:0:
166,356,203996,2,0,L|195:360,3,30.0000011444092,0|0|0|0,1:0|1:0|1:0|1:0,0:0:0:0:
226,372,204211,6,0,L|319:363,1,90.0000034332277,4|0,1:2|0:0,0:0:0:0:
316,322,204639,6,0,L|312:282,1,40,8|0,1:3|1:0,0:0:0:0:
375,190,204853,2,0,L|381:237,1,47.9999985351563,8|8,1:3|1:1,0:0:0:0:
299,151,205068,2,0,L|242:164,1,55.9999982910157,8|0,1:3|1:0,0:0:0:0:
346,79,205282,2,0,L|416:88,1,64,8|0,1:0|0:0,0:0:0:0:
491,326,205496,6,0,L|502:259,1,60,4|0,1:2|0:0,0:0:0:0:
491,326,205925,6,0,L|389:343,1,95.9999970703126,6|2,1:0|0:0,0:0:0:0:
202,237,206353,1,10,1:0:0:0:
393,111,206568,1,0,0:0:0:0:
393,111,206675,1,0,0:0:0:0:
393,111,206782,2,0,L|502:134,1,95.9999970703126,2|2,1:0|1:0,0:0:0:0:
273,203,207210,5,8,1:3:0:0:
66,165,207425,1,8,1:3:0:0:
237,278,207639,1,2,1:0:0:0:
127,111,207853,1,2,0:0:0:0:
166,334,208068,2,0,L|280:354,1,95.9999970703126,8|2,1:0|1:0,0:0:0:0:
260,350,208389,1,8,0:1:0:0:
459,250,208603,1,0,0:3:0:0:
459,250,208710,2,0,P|421:200|326:176,1,143.999995605469,10|0,1:0|0:0,0:0:0:0:
313,173,209139,5,0,1:0:0:0:
159,231,209353,1,2,1:0:0:0:
279,281,209568,1,2,0:0:0:0:
197,108,209782,2,0,L|221:6,1,95.9999970703126,8|2,1:0|1:0,0:0:0:0:
218,14,210103,1,0,0:0:0:0:
218,14,210210,1,2,1:0:0:0:
278,115,210425,1,2,1:0:0:0:
170,193,210639,1,8,1:3:0:0:
123,78,210853,5,8,1:3:0:0:
288,201,211068,1,2,1:0:0:0:
68,134,211282,1,2,0:0:0:0:
355,121,211496,2,0,L|456:111,1,95.9999970703126,10|0,1:0|0:0,0:0:0:0:
450,111,211818,1,10,0:1:0:0:
482,356,212032,1,0,0:1:0:0:
482,356,212139,2,0,P|500:310|455:207,1,143.999995605469,10|0,1:0|0:0,0:0:0:0:
446,203,212568,5,2,0:0:0:0:
360,141,212782,1,2,1:0:0:0:
426,58,212996,1,2,0:0:0:0:
510,122,213210,1,10,1:0:0:0:
293,208,213425,1,2,1:0:0:0:
261,219,213532,1,0,0:0:0:0:
227,222,213639,2,0,P|210:174|224:113,1,95.9999970703126,2|2,1:0|1:0,0:0:0:0:
378,191,214068,2,0,P|389:240|369:299,1,95.9999970703126,8|8,1:3|1:3,0:0:0:0:
111,183,214496,5,2,1:0:0:0:
306,65,214710,1,2,0:0:0:0:
311,292,214925,1,10,1:0:0:0:
111,183,215139,1,0,0:0:0:0:
111,183,215246,1,10,0:1:0:0:
219,144,215461,1,0,0:0:0:0:
219,144,215568,2,0,P|237:197|219:288,1,143.999995605469,10|0,1:0|0:0,0:0:0:0:
201,307,215996,5,2,0:0:0:0:
28,162,216210,1,2,1:0:0:0:
136,366,216425,1,2,0:0:0:0:
112,156,216639,2,0,L|125:39,1,95.9999970703126,8|2,1:0|1:0,0:0:0:0:
122,60,216960,1,0,0:0:0:0:
122,60,217068,1,2,1:0:0:0:
319,137,217282,1,2,1:0:0:0:
183,265,217496,2,0,L|192:150,1,95.9999970703126,8|8,1:3|1:3,0:0:0:0:
252,31,217925,5,2,1:0:0:0:
317,273,218139,1,2,0:0:0:0:
368,86,218353,1,10,1:0:0:0:
401,90,218460,1,0,0:0:0:0:
434,94,218568,1,2,1:0:0:0:
467,99,218675,1,0,0:0:0:0:
500,103,218782,2,0,L|492:154,1,47.9999985351563,4|0,1:2|0:0,0:0:0:0:
420,187,218996,6,2,L|432:314,1,128,2|4,1:0|1:2,1:0:0:0:
281,58,219425,2,0,L|293:26,3,32,0|0|0|0,1:0|1:0|1:0|1:0,0:0:0:0:
263,86,219639,6,2,B|152:105|195:45|68:60,1,191.999994140625,6|8,1:0|1:0,1:0:0:0:
324,259,220282,1,2,1:0:0:0:
324,259,220389,1,0,0:0:0:0:
324,259,220496,2,0,L|331:159,1,95.9999970703126,2|8,1:0|1:3,0:0:0:0:
305,359,220925,1,2,1:0:0:0:
92,157,221139,6,2,P|168:178|218:280,1,191.999994140625,2|2,1:0|1:0,1:0:0:0:
212,306,221675,1,0,0:0:0:0:
205,338,221782,2,0,P|150:340|103:346,1,95.9999970703126,10|8,1:0|1:3,0:0:0:0:
357,169,222210,2,0,P|410:175|462:176,1,95.9999970703126,2|2,1:0|0:0,0:0:0:0:
508,293,222639,2,0,P|455:287|403:286,1,95.9999970703126,10|2,1:0|1:2,0:0:0:0:
412,285,222960,1,0,1:0:0:0:
412,285,223068,5,2,1:0:0:0:
264,118,223282,1,2,1:0:0:0:
358,28,223496,2,0,P|414:40|474:169,1,191.999994140625,10|2,1:0|1:0,0:0:0:0:
150,286,224139,2,0,P|152:246|146:185,1,95.9999970703126,8|10,1:3|1:0,0:0:0:0:
329,120,224568,1,2,1:0:0:0:
329,120,224675,1,0,0:0:0:0:
329,120,224782,6,0,P|331:169|338:234,1,95.9999970703126,2|0,1:0|0:0,0:0:0:0:
64,112,225210,1,10,1:0:0:0:
227,28,225425,2,0,P|230:82|223:226,1,191.999994140625,2|8,1:0|1:3,0:0:0:0:
15,356,226068,6,0,L|10:214,1,128,4|0,1:2|0:0,0:0:0:0:
308,358,226496,6,0,P|368:353|412:350,1,95.9999970703126,6|2,1:0|0:0,0:0:0:0:
266,279,226925,2,0,P|206:284|162:287,1,95.9999970703126,10|2,1:0|0:0,0:0:0:0:
170,286,227246,1,0,0:0:0:0:
170,286,227353,1,0,1:0:0:0:
19,160,227568,5,8,1:3:0:0:
113,190,227782,2,0,P|161:189|218:118,1,143.999995605469,10|0,1:0|0:0,0:0:0:0:
217,81,228210,1,2,1:0:0:0:
344,233,228425,1,2,1:0:0:0:
135,112,228639,1,8,1:0:0:0:
347,146,228853,1,8,1:3:0:0:
264,366,229068,6,0,P|245:306|257:219,1,143.999995605469,2|0,1:0|0:0,0:0:0:0:
265,201,229496,1,10,1:0:0:0:
451,317,229710,2,0,P|470:257|440:111,1,191.999994140625,2|2,1:0|1:0,0:0:0:0:
462,104,230246,1,0,0:0:0:0:
475,78,230353,6,0,L|376:64,1,95.9999970703126,10|0,1:0|0:0,0:0:0:0:
131,17,230782,2,0,P|128:75|142:126,1,95.9999970703126,2|8,1:0|1:3,0:0:0:0:
356,277,231210,2,0,P|359:219|345:168,1,95.9999970703126,10|8,1:0|1:3,0:0:0:0:
350,182,231532,1,0,1:0:0:0:
350,182,231639,1,6,1:0:0:0:
252,161,231853,1,8,1:3:0:0:
293,366,232068,5,10,1:0:0:0:
439,307,232282,1,8,1:3:0:0:
220,334,232496,6,0,P|142:355|51:287,1,192,4|0,1:2|0:0,0:0:0:0:
33,197,232925,2,0,L|49:156,7,32,4|0|0|0|0|0|0|0,1:2|1:0|1:0|1:0|1:0|1:0|1:0|1:0,0:0:0:0:
62,216,233353,6,0,L|43:15,1,192,6|0,1:0|0:0,0:0:0:0:
64,37,233782,1,10,1:0:0:0:
169,173,233996,1,2,1:0:0:0:
169,173,234103,1,0,0:0:0:0:
169,173,234210,2,0,L|174:284,1,100,2|8,1:0|1:3,0:0:0:0:
181,372,234639,1,10,1:0:0:0:
336,126,234853,6,0,P|288:58|163:50,1,200,2|2,1:0|1:0,0:0:0:0:
178,43,235389,1,0,0:0:0:0:
178,43,235496,1,10,1:0:0:0:
415,274,235710,1,8,1:3:0:0:
415,274,235818,1,0,0:0:0:0:
415,274,235925,2,0,P|412:224|419:161,1,100,2|2,1:0|1:0,0:0:0:0:
38,355,236353,6,0,L|167:337,1,128,4|2,1:2|1:0,0:0:0:0:
240,199,236782,5,0,1:0:0:0:
496,351,236996,1,8,1:3:0:0:
496,351,237103,1,0,0:0:0:0:
496,351,237210,2,0,P|442:356|385:365,1,100,10|2,1:0|1:0,0:0:0:0:
300,275,237639,2,0,P|351:277|425:184,1,150,2|0,1:0|0:0,0:0:0:0:
426,181,238068,1,10,1:0:0:0:
394,32,238282,1,2,1:0:0:0:
152,125,238496,5,2,1:0:0:0:
268,183,238710,1,8,1:3:0:0:
203,13,238925,1,10,1:0:0:0:
41,71,239139,1,2,1:0:0:0:
41,71,239246,1,0,0:0:0:0:
41,71,239353,1,0,1:0:0:0:
110,228,239568,1,2,1:0:0:0:
206,37,239782,2,0,L|201:6,7,25,4|0|0|0|0|0|0|0,1:2|1:0|1:0|1:0|1:0|1:0|1:0|1:0,0:0:0:0:
260,63,240210,6,0,P|203:61|139:135,1,150,6|0,1:0|0:0,0:0:0:0:
142,160,240639,1,10,1:0:0:0:
240,287,240853,1,8,1:3:0:0:
240,287,240960,1,0,0:0:0:0:
240,287,241068,1,2,1:0:0:0:
68,227,241282,1,8,1:3:0:0:
259,193,241496,6,2,P|312:231|303:357,1,192,4|0,1:2|0:0,1:0:0:0:
285,371,241925,6,0,L|173:355,1,100,6|0,1:0|0:0,0:0:0:0:
186,356,242246,1,0,0:0:0:0:
186,356,242353,1,8,1:0:0:0:
410,324,242568,1,2,1:0:0:0:
99,249,242782,6,0,P|168:249|214:210,1,128,2|8,1:0|1:3,0:0:0:0:
263,67,243211,2,0,L|252:18,7,32,4|0|0|0|2|0|0|0,1:2|1:0|1:0|1:0|1:0|1:0|1:0|0:0,0:0:0:0:
275,95,243639,6,0,P|311:111|371:106,1,88.000002685547,4|0,2:0|0:0,0:0:0:0:
450,81,244068,1,0,1:0:0:0:
477,188,244282,1,2,0:0:0:0:
477,188,244389,1,2,0:0:0:0:
477,188,244496,2,0,P|419:199|383:243,1,88.000002685547,2|0,0:0|1:0,0:0:0:0:
391,237,244764,2,0,L|413:255,1,22.0000006713867,0|0,1:0|1:0,0:0:0:0:
368,261,244871,1,0,1:0:0:0:
344,274,244925,6,0,P|306:287|291:289,1,44.0000013427735,8|0,1:3|1:0,0:0:0:0:
236,177,245139,2,0,P|257:182|277:190,1,44.0000013427735,0|0,1:0|1:0,0:0:0:0:
190,328,245353,5,4,1:0:0:0:
167,336,245460,1,0,1:0:0:0:
125,332,245568,1,8,1:3:0:0:
81,308,245675,1,0,1:0:0:0:
60,261,245782,2,0,P|54:239|58:176,1,64,4|0,1:0|1:0,0:0:0:0:
128,85,245996,5,8,1:3:0:0:
176,74,246103,1,0,1:0:0:0:
223,60,246211,2,0,P|227:102|216:151,1,80,4|0,1:2|0:0,0:0:0:0:
29,108,246425,2,0,P|25:66|36:17,1,80,8|0,1:3|0:0,0:0:0:0:
280,262,246639,6,0,L|368:247,1,80,0|4,1:0|1:0,0:0:0:0:
