osu file format v14

[General]
AudioFilename: 1242565.mp3
AudioLeadIn: 0
PreviewTime: 136945
Countdown: 0
SampleSet: Soft
StackLeniency: 0.7
Mode: 0
LetterboxInBreaks: 0
WidescreenStoryboard: 0

[Editor]
Bookmarks: 180659
DistanceSpacing: 0.5
BeatDivisor: 4
GridSize: 4
TimelineZoom: 1

[Metadata]
Title:liberatedliberater
TitleUnicode:liberatedliberater
Artist:zts
ArtistUnicode:zts
Creator:EvilElvis
Version:Insane
Source:Umineko no Naku Koro ni Chiru
Tags:07th Expansion Seikatu
BeatmapID:687335
BeatmapSetID:307182

[Difficulty]
HPDrainRate:7
CircleSize:4
OverallDifficulty:7
ApproachRate:8.5
SliderMultiplier:1.4
SliderTickRate:1

[Events]
//Background and Video events
0,0,"bg.jpg",0,0
//Break Periods
//Storyboard Layer 0 (Background)
//Storyboard Layer 1 (Fail)
//Storyboard Layer 2 (Pass)
//Storyboard Layer 3 (Foreground)
//Storyboard Sound Samples

[TimingPoints]
13517,428.571428571429,4,2,0,70,1,0
26802,-76.9230769230769,4,2,0,70,0,0
27659,-90.9090909090909,4,2,0,70,0,0
52945,-66.6666666666667,4,2,0,70,0,0
54659,-90.9090909090909,4,2,0,70,0,0
109510,-200,4,2,0,70,0,0
136517,-100,4,2,0,70,0,0
136945,-66.6666666666667,4,2,0,90,0,1
137374,-58.8235294117647,4,2,0,90,0,1
137802,-66.6666666666667,4,2,0,90,0,1
138231,-58.8235294117647,4,2,0,90,0,1
138659,-66.6666666666667,4,2,0,90,0,1
140802,-58.8235294117647,4,2,0,90,0,1
141231,-66.6666666666667,4,2,0,90,0,1
141659,-58.8235294117647,4,2,0,90,0,1
142088,-66.6666666666667,4,2,0,90,0,1
144231,-200,4,2,0,90,0,1
144659,-66.6666666666667,4,2,0,90,0,1
145088,-200,4,2,0,90,0,1
145517,-66.6666666666667,4,2,0,90,0,1
147659,-200,4,2,0,90,0,1
148088,-66.6666666666667,4,2,0,90,0,1
148517,-200,4,2,0,90,0,1
148945,-200,4,2,0,90,0,0
150231,-200,4,2,0,90,0,1
150445,-66.6666666666667,4,2,0,90,0,1
151088,-58.8235294117647,4,2,0,90,0,1
151302,-66.6666666666667,4,2,0,90,0,1
151945,-200,4,2,0,90,0,1
152374,-66.6666666666667,4,2,0,90,0,1
154517,-58.8235294117647,4,2,0,90,0,1
154945,-66.6666666666667,4,2,0,90,0,1
155374,-200,4,2,0,90,0,1
155802,-66.6666666666667,4,2,0,90,0,1
157945,-58.8235294117647,4,2,0,90,0,1
158374,-66.6666666666667,4,2,0,90,0,1
158802,-200,4,2,0,90,0,1
159231,-66.6666666666667,4,2,0,90,0,1
161374,-58.8235294117647,4,2,0,90,0,1
161802,-66.6666666666667,4,2,0,90,0,1
164802,-200,4,2,0,90,0,1
165231,-66.6666666666667,4,2,0,90,0,1
165659,-58.8235294117647,4,2,0,90,0,1
166088,-66.6666666666667,4,2,0,90,0,1
168231,-200,4,2,0,90,0,1
168659,-66.6666666666667,4,2,0,90,0,1
169088,-58.8235294117647,4,2,0,90,0,1
169517,-66.6666666666667,4,2,0,90,0,1
171659,-200,4,2,0,90,0,1
172088,-66.6666666666667,4,2,0,90,0,1
178088,-200,4,2,0,90,0,0
179802,-100,4,2,0,90,0,0

[Colours]
Combo1 : 255,94,55
Combo2 : 173,255,95
Combo3 : 17,254,176
Combo4 : 255,88,100

[HitObjects]
481,236,13516,6,0,P|475:196|480:118,1,105.000000447034,0|0,1:0|0:0,0:0:0:0:
477,131,13945,2,0,P|447:106|418:89,1,70.000000298023,0|2,1:0|0:0,0:0:0:0:
404,82,14266,1,2,0:0:0:0:
386,77,14374,1,0,1:0:0:0:
240,86,14588,1,0,1:0:0:0:
390,179,14802,2,0,P|341:157|259:151,1,105.000000447034,0|0,1:0|0:0,0:0:0:0:
290,149,15231,6,0,L|199:175,1,70.000000298023,0|0,1:0|0:0,0:0:0:0:
136,140,15659,2,0,L|69:121,1,70.000000298023,0|2,1:0|0:0,0:0:0:0:
68,120,15981,1,0,1:0:0:0:
68,120,16088,1,0,0:0:0:0:
153,254,16302,1,0,1:0:0:0:
221,75,16516,1,0,1:0:0:0:
68,120,16731,1,0,1:0:0:0:
268,198,16945,6,0,P|313:183|386:194,1,105.000000447034,0|0,1:0|0:0,0:0:0:0:
369,188,17374,2,0,L|374:263,1,70.000000298023,0|2,1:0|0:0,0:0:0:0:
375,275,17695,1,2,0:0:0:0:
377,292,17802,1,0,1:0:0:0:
408,366,18017,1,0,1:0:0:0:
512,131,18231,2,0,P|457:129|399:99,1,105.000000447034,0|0,1:0|0:0,0:0:0:0:
411,108,18659,6,0,L|414:31,1,70.000000298023,0|0,1:0|0:0,0:0:0:0:
483,276,19088,2,0,L|481:206,1,70.000000298023,0|2,1:0|0:0,0:0:0:0:
463,207,19409,1,0,1:0:0:0:
445,206,19517,1,0,0:0:0:0:
281,260,19731,1,0,1:0:0:0:
428,373,19945,1,0,1:0:0:0:
383,287,20159,1,0,1:0:0:0:
239,330,20374,6,0,P|197:330|138:290,1,105.000000447034,0|0,1:0|0:0,0:0:0:0:
144,298,20802,2,0,L|69:320,1,70.000000298023,0|2,1:0|0:0,0:0:0:0:
60,323,21124,1,2,0:0:0:0:
43,328,21231,1,0,1:0:0:0:
146,208,21445,1,0,1:0:0:0:
29,119,21659,2,0,L|137:125,1,105.000000447034,0|0,1:0|0:0,0:0:0:0:
133,124,22088,6,0,L|141:48,1,70.000000298023,0|0,1:0|0:0,0:0:0:0:
283,212,22517,2,0,L|202:198,1,70.000000298023,0|2,1:0|0:0,0:0:0:0:
214,200,22838,1,0,1:0:0:0:
214,200,22945,1,0,0:0:0:0:
299,324,23159,1,0,1:0:0:0:
394,215,23374,1,0,1:0:0:0:
304,105,23588,1,0,1:0:0:0:
221,205,23802,6,0,P|281:211|322:248,1,105.000000447034,0|0,1:0|0:0,0:0:0:0:
314,237,24231,2,0,P|306:282|300:317,1,70.000000298023,0|0,1:0|0:0,0:0:0:0:
307,323,24552,1,0,0:0:0:0:
313,339,24659,1,0,1:0:0:0:
386,370,24874,1,0,0:0:0:0:
503,224,25088,2,0,P|462:242|393:233,1,105.000000447034,0|0,1:0|0:0,0:0:0:0:
403,237,25517,5,0,1:0:0:0:
403,237,26802,6,0,L|410:168,1,45.4999981108903,4|0,1:0|2:0,0:0:0:0:
322,79,27017,2,0,L|326:124,1,45.4999981108903,0|0,1:0|2:0,0:0:0:0:
301,222,27231,6,0,L|201:230,1,90.9999962217807,4|2,1:2|0:0,0:0:0:0:
189,219,27552,1,0,0:0:0:0:
172,208,27659,2,0,P|133:210|83:215,1,77.0000026776789,0|2,1:0|0:0,0:0:0:0:
81,115,28088,2,0,P|43:124|-4:132,1,77.0000026776789,0|2,1:0|0:0,0:0:0:0:
220,24,28517,2,0,L|356:37,1,115.500004016518,4|0,1:2|0:0,0:0:0:0:
361,18,28945,6,0,L|349:101,1,77.0000026776789,0|0,1:0|1:0,0:0:0:0:
358,111,29267,1,0,1:0:0:0:
479,142,29481,1,0,1:0:0:0:
467,157,29588,1,0,1:0:0:0:
268,240,29802,1,0,1:0:0:0:
464,288,30017,1,0,1:0:0:0:
347,197,30231,1,0,1:2:0:0:
444,370,30445,1,0,1:0:0:0:
467,157,30659,6,0,P|466:94|459:36,1,115.500004016518,0|0,1:0|0:0,0:0:0:0:
459,41,31088,2,0,P|420:40|379:51,1,77.0000026776789,0|2,1:0|0:0,0:0:0:0:
266,57,31517,2,0,L|183:37,1,77.0000026776789,0|2,1:0|0:0,0:0:0:0:
43,197,31945,2,0,P|39:143|48:67,1,115.500004016518,4|0,1:2|0:0,0:0:0:0:
44,82,32374,6,0,L|142:110,1,77.0000026776789,0|0,1:0|1:0,0:0:0:0:
127,86,32695,1,0,1:0:0:0:
231,144,32909,1,0,1:0:0:0:
227,163,33017,1,0,1:0:0:0:
117,215,33231,1,0,1:0:0:0:
233,35,33445,1,0,1:0:0:0:
206,308,33659,5,0,1:0:0:0:
156,118,33874,1,0,1:0:0:0:
288,271,34088,6,0,L|298:350,1,77.0000026776789,0|2,1:0|0:0,0:0:0:0:
297,347,34409,1,0,0:0:0:0:
297,347,34517,1,4,1:2:0:0:
379,280,34731,1,2,0:0:0:0:
223,173,34945,2,0,L|205:258,1,77.0000026776789,0|2,1:0|0:0,0:0:0:0:
282,65,35374,2,0,L|306:192,1,115.500004016518,4|0,0:2|0:0,0:0:0:0:
303,178,35802,6,0,P|352:174|388:162,1,77.0000026776789,0|0,1:0|1:0,0:0:0:0:
512,271,36231,2,0,P|463:266|427:254,1,77.0000026776789,4|0,1:2|0:0,0:0:0:0:
448,119,36659,2,0,L|462:30,1,77.0000026776789,0|0,1:0|1:0,0:0:0:0:
348,281,37088,1,4,1:2:0:0:
283,31,37302,1,0,1:0:0:0:
203,218,37517,6,0,L|183:319,1,77.0000026776789,0|2,1:0|0:0,0:0:0:0:
192,312,37838,1,0,0:0:0:0:
196,330,37945,1,0,1:0:0:0:
308,179,38159,1,0,1:0:0:0:
289,180,38266,1,0,1:0:0:0:
108,148,38481,1,0,1:0:0:0:
121,159,38588,1,0,1:0:0:0:
446,356,38802,6,0,L|428:230,1,115.500004016518,4|0,1:2|0:0,0:0:0:0:
410,246,39231,1,0,1:0:0:0:
504,193,39445,1,0,1:0:0:0:
414,138,39659,2,0,L|435:35,1,77.0000026776789,4|0,1:2|0:0,0:0:0:0:
447,70,39981,1,0,0:0:0:0:
464,78,40088,1,0,1:0:0:0:
280,291,40302,5,0,1:0:0:0:
304,106,40517,1,2,1:2:0:0:
280,291,40731,1,0,1:0:0:0:
256,37,40945,6,0,P|196:33|154:38,1,77.0000026776789,4|2,1:0|0:0,0:0:0:0:
179,34,41267,1,0,0:0:0:0:
179,34,41374,2,0,P|128:40|51:35,1,115.500004016518,4|0,1:2|0:0,0:0:0:0:
30,31,41802,1,0,1:0:0:0:
189,124,42017,1,0,1:0:0:0:
23,208,42231,2,0,P|80:204|137:210,1,115.500004016518,4|0,1:2|0:0,0:0:0:0:
166,217,42659,5,0,1:0:0:0:
334,137,42874,1,0,1:0:0:0:
315,132,42981,1,0,1:0:0:0:
401,196,43195,1,0,1:0:0:0:
419,192,43302,1,0,1:0:0:0:
250,212,43517,1,0,1:0:0:0:
484,118,43731,1,0,1:0:0:0:
321,252,43945,5,4,1:2:0:0:
74,166,44159,1,0,1:0:0:0:
22,339,44374,6,0,P|77:335|125:338,1,77.0000026776789,0|2,1:0|0:0,0:0:0:0:
121,338,44695,1,0,0:0:0:0:
143,342,44802,2,0,P|194:347|226:344,1,77.0000026776789,4|2,1:2|0:0,0:0:0:0:
316,349,45231,2,0,P|350:354|393:367,1,77.0000026776789,0|2,1:0|0:0,0:0:0:0:
505,204,45659,2,0,P|465:246|404:269,1,115.500004016518,4|0,1:2|0:0,0:0:0:0:
412,267,46088,6,0,P|368:249|321:233,1,77.0000026776789,0|2,1:0|0:0,0:0:0:0:
259,85,46517,2,0,P|272:137|256:208,1,115.500004016518,4|0,1:2|0:0,0:0:0:0:
261,197,46945,2,0,P|223:215|191:237,1,77.0000026776789,0|2,1:0|0:0,0:0:0:0:
56,358,47374,1,4,1:2:0:0:
194,234,47588,1,0,1:0:0:0:
82,222,47802,6,0,P|42:200|0:143,1,115.500004016518,0|0,1:0|0:0,0:0:0:0:
0,144,48231,2,0,L|17:58,1,77.0000026776789,4|0,1:2|1:0,0:0:0:0:
16,46,48552,1,0,1:0:0:0:
241,119,48767,1,0,1:0:0:0:
235,142,48874,1,0,1:0:0:0:
154,186,49088,2,0,L|125:52,1,115.500004016518,4|0,1:2|1:0,0:0:0:0:
129,73,49517,6,0,P|163:45|200:31,1,77.0000026776789,0|0,1:0|1:0,0:0:0:0:
216,32,49838,1,0,1:0:0:0:
238,36,49945,1,4,1:2:0:0:
392,163,50159,1,0,1:0:0:0:
290,238,50374,2,0,P|234:233|203:211,1,77.0000026776789,0|0,1:0|0:0,0:0:0:0:
352,57,50802,1,4,1:2:0:0:
499,144,51017,1,0,1:0:0:0:
252,334,51231,5,4,1:0:0:0:
169,347,51445,2,0,L|176:300,2,38.5000013388394,2|2|2,0:0|0:0|0:0,0:0:0:0:
95,315,51874,2,0,L|88:268,2,38.5000013388394,2|2|2,0:0|0:0|0:0,0:0:0:0:
8,345,52302,2,0,L|15:298,2,38.5000013388394,2|2|2,0:0|0:0|0:0,0:0:0:0:
15,222,52731,1,2,0:0:0:0:
48,138,52945,5,0,0:0:0:0:
42,123,53052,1,0,0:0:0:0:
32,105,53159,2,0,L|158:125,1,105.000004452467,8|0,1:0|0:0,0:0:0:0:
298,252,53481,2,0,L|172:232,1,105.000004452467,8|0,1:0|0:0,0:0:0:0:
391,149,53802,2,0,L|517:169,1,105.000004452467,8|0,1:0|1:0,0:0:0:0:
488,201,54124,1,0,1:0:0:0:
480,236,54231,1,8,1:0:0:0:
246,48,54445,1,8,1:0:0:0:
182,180,54659,6,0,L|286:167,1,77.0000026776789,4|2,1:0|0:0,0:0:0:0:
162,36,55088,2,0,P|143:93|52:133,1,154.000005355358,0|0,1:2|1:0,0:0:0:0:
345,80,55731,1,2,0:0:0:0:
345,80,55838,1,0,0:0:0:0:
345,80,55945,2,0,P|285:77|257:62,1,77.0000026776789,0|0,1:0|1:0,0:0:0:0:
13,293,56374,6,0,P|36:261|90:236,1,77.0000026776789,4|2,1:2|0:0,0:0:0:0:
99,242,56659,2,0,L|134:248,2,25.6666675592263,2|2|2,0:0|0:0|1:2,0:0:0:0:
306,206,57017,1,0,1:0:0:0:
228,157,57231,2,0,P|166:176|132:171,1,77.0000026776789,4|2,0:0|0:0,0:0:0:0:
322,291,57659,2,0,P|358:303|388:327,1,77.0000026776789,4|0,0:0|1:0,0:0:0:0:
388,327,57981,1,0,1:0:0:0:
388,327,58088,6,0,L|466:314,1,77.0000026776789,0|2,1:0|0:0,0:0:0:0:
494,94,58517,2,0,P|493:144|437:207,1,115.500004016518,0|0,1:0|0:0,0:0:0:0:
456,196,58945,2,0,L|380:159,1,77.0000026776789,0|2,1:0|0:0,0:0:0:0:
174,327,59374,2,0,L|191:245,1,77.0000026776789,0|0,1:0|1:0,0:0:0:0:
221,255,59659,6,0,L|258:262,2,25.6666675592263,0|0|0,1:0|1:0|1:0,0:0:0:0:
41,138,60017,2,0,L|4:145,3,25.6666675592263,0|0|0|0,1:0|1:0|1:0|1:0,0:0:0:0:
175,96,60445,1,2,1:2:0:0:
329,202,60659,5,4,1:0:0:0:
467,179,60873,2,0,L|492:173,3,25.6666675592263,0|0|0|4,1:0|1:0|1:0|1:2,0:0:0:0:
413,286,61302,1,0,1:0:0:0:
259,137,61517,6,0,L|267:36,1,77.0000026776789,0|2,1:0|0:0,0:0:0:0:
177,217,61945,2,0,L|161:102,1,115.500004016518,0|0,1:0|0:0,0:0:0:0:
161,102,62374,2,0,P|121:78|65:77,1,77.0000026776789,0|2,1:0|0:0,0:0:0:0:
2,72,62802,1,0,1:0:0:0:
24,255,63017,5,2,0:0:0:0:
24,255,63124,1,2,0:0:0:0:
24,255,63231,2,0,P|61:227|79:182,1,77.0000026776789,0|2,1:0|1:2,0:0:0:0:
80,169,63517,2,0,L|77:139,2,25.6666675592263,0|0|0,1:0|1:0|1:0,0:0:0:0:
102,306,63874,1,2,0:0:0:0:
97,324,63981,1,2,0:0:0:0:
92,342,64088,1,0,1:0:0:0:
148,208,64302,1,2,0:0:0:0:
190,366,64517,1,0,1:0:0:0:
410,237,64731,5,0,1:0:0:0:
250,287,64945,1,4,1:0:0:0:
288,147,65159,1,2,0:0:0:0:
288,147,65267,1,2,0:0:0:0:
288,147,65374,2,0,P|310:183|316:220,1,77.0000026776789,0|2,1:0|0:0,0:0:0:0:
364,369,65802,2,0,P|346:333|345:289,1,77.0000026776789,0|2,1:0|1:2,0:0:0:0:
376,286,66088,2,0,L|417:274,2,25.6666675592263,0|0|0,1:0|1:0|1:0,0:0:0:0:
241,320,66445,1,2,0:0:0:0:
488,318,66659,5,4,1:0:0:0:
243,203,66874,2,0,L|203:189,3,25.6666675592263,2|0|0|0,1:2|1:0|1:0|1:0,0:0:0:0:
502,234,67302,1,2,0:0:0:0:
194,314,67517,2,0,P|163:338|141:387,1,77.0000026776789,4|2,1:0|0:0,0:0:0:0:
28,186,67945,2,0,P|61:199|113:200,1,77.0000026776789,4|0,1:0|1:0,0:0:0:0:
125,198,68267,1,0,1:0:0:0:
145,187,68374,6,0,P|149:156|149:92,1,77.0000026776789,4|2,1:0|0:0,0:0:0:0:
340,87,68802,2,0,P|288:76|248:8,1,115.500004016518,0|0,1:0|0:0,0:0:0:0:
251,28,69231,2,0,L|164:42,1,77.0000026776789,0|2,1:0|0:0,0:0:0:0:
34,105,69659,1,0,1:0:0:0:
163,162,69874,1,0,1:0:0:0:
243,251,70088,6,0,P|269:290|273:328,1,77.0000026776789,0|2,1:0|1:2,0:0:0:0:
263,344,70374,2,0,L|237:362,2,25.6666675592263,0|0|0,1:0|1:0|1:0,0:0:0:0:
351,289,70731,1,2,0:0:0:0:
442,247,70945,1,4,1:2:0:0:
504,316,71159,1,2,0:0:0:0:
418,367,71374,1,4,1:2:0:0:
268,187,71588,5,0,1:0:0:0:
268,187,71695,1,0,1:0:0:0:
268,187,71802,2,0,P|308:164|346:164,1,77.0000026776789,0|2,1:0|0:0,0:0:0:0:
442,247,72231,2,0,P|457:203|429:102,1,154.000005355358,0|0,1:0|1:2,0:0:0:0:
269,31,72874,1,2,0:0:0:0:
269,31,72981,1,2,0:0:0:0:
269,31,73088,2,0,L|186:45,1,77.0000026776789,0|2,1:0|1:2,0:0:0:0:
197,58,73374,6,0,L|206:102,2,25.6666675592263,0|0|4,1:0|1:0|1:0,0:0:0:0:
332,163,73731,2,0,L|323:207,3,25.6666675592263,0|0|0|4,1:0|1:0|1:0|1:0,0:0:0:0:
255,356,74159,1,4,0:0:0:0:
255,356,74374,1,0,1:0:0:0:
206,271,74588,2,0,L|201:246,3,25.6666675592263,4|0|0|0,1:2|1:0|1:0|1:0,0:0:0:0:
304,272,75017,1,0,1:0:0:0:
147,354,75231,6,0,L|42:364,1,77.0000026776789,4|2,1:0|0:0,0:0:0:0:
167,91,75659,2,0,P|203:124|217:189,1,115.500004016518,0|0,1:0|0:0,0:0:0:0:
217,187,76088,2,0,L|136:199,1,77.0000026776789,0|2,1:0|0:0,0:0:0:0:
22,121,76517,2,0,P|12:73|4:43,1,77.0000026776789,0|0,1:0|1:0,0:0:0:0:
248,276,76945,6,0,P|255:323|259:377,1,77.0000026776789,0|2,1:0|1:2,0:0:0:0:
286,353,77231,2,0,L|321:348,2,25.6666675592263,0|0|0,1:0|1:0|1:0,0:0:0:0:
474,328,77588,1,2,0:0:0:0:
325,260,77802,1,4,1:0:0:0:
325,260,78017,1,2,0:0:0:0:
465,202,78231,2,0,P|464:157|468:117,1,77.0000026776789,4|0,1:0|1:2,0:0:0:0:
471,102,78552,1,0,1:0:0:0:
474,79,78659,6,0,P|427:51|379:44,1,77.0000026776789,4|2,1:0|0:0,0:0:0:0:
382,43,78981,1,0,0:0:0:0:
359,40,79088,2,0,L|274:62,1,77.0000026776789,0|2,1:0|1:2,0:0:0:0:
245,280,79517,2,0,L|337:264,1,77.0000026776789,4|2,1:2|1:2,0:0:0:0:
318,251,79802,2,0,L|310:213,2,25.6666675592263,0|0|0,1:0|1:0|1:0,0:0:0:0:
341,353,80159,1,2,1:2:0:0:
208,176,80374,6,0,L|223:98,1,77.0000026776789,4|2,1:2|1:2,0:0:0:0:
228,86,80659,2,0,L|189:73,2,25.6666675592263,0|0|4,1:0|1:0|1:2,0:0:0:0:
333,118,81017,1,2,1:2:0:0:
88,158,81231,1,0,1:0:0:0:
374,266,81445,1,4,1:2:0:0:
205,344,81659,1,2,1:0:0:0:
210,314,81767,1,0,1:0:0:0:
216,284,81874,1,2,1:0:0:0:
222,255,81981,1,0,1:0:0:0:
227,224,82088,6,0,P|219:173|134:101,1,154.000005355358,6|0,1:0|1:0,1:0:0:0:
104,16,82731,1,2,0:1:0:0:
195,32,82945,2,0,P|146:87|52:96,1,154.000005355358,2|0,1:0|1:0,0:0:0:0:
10,176,83588,1,2,0:1:0:0:
10,176,83695,1,2,0:1:0:0:
10,176,83802,6,0,L|92:184,1,77.0000026776789,2|2,1:0|1:0,0:0:0:0:
86,204,84088,2,0,L|81:246,2,25.6666675592263,0|0|2,1:0|1:0|1:0,0:0:0:0:
215,358,84445,1,2,0:1:0:0:
235,131,84659,1,4,1:2:0:0:
215,358,84874,1,2,0:1:0:0:
325,268,85088,1,4,1:2:0:0:
235,131,85302,1,2,0:1:0:0:
132,237,85517,6,0,P|171:251|270:207,1,154.000005355358,6|0,1:0|1:0,0:0:0:0:
319,107,86159,1,0,0:0:0:0:
319,107,86267,1,0,0:0:0:0:
319,107,86374,2,0,P|317:49|314:22,1,77.0000026776789,2|0,1:0|0:1,0:0:0:0:
145,68,86802,2,0,P|148:106|153:144,1,77.0000026776789,2|2,1:0|1:0,0:0:0:0:
153,144,87124,1,0,1:0:0:0:
153,144,87231,1,4,1:0:0:0:
485,328,87874,5,0,1:0:0:0:
485,328,87981,1,0,1:0:0:0:
485,328,88088,2,0,L|492:298,4,19.2500006694197,0|0|0|0|0,1:0|1:0|1:0|1:0|1:0,0:0:0:0:
404,359,88517,2,0,L|321:339,1,77.0000026776789,4|0,1:2|1:0,0:0:0:0:
299,333,88838,1,0,1:0:0:0:
277,355,88945,6,0,B|254:264|306:295|274:195,1,154.000005355358,6|2,1:0|1:0,1:0:0:0:
266,112,89588,1,2,0:0:0:0:
266,112,89695,1,0,0:0:0:0:
266,112,89802,2,0,L|183:129,1,77.0000026776789,0|2,1:0|0:0,0:0:0:0:
350,105,90231,1,0,1:0:0:0:
48,169,90445,2,0,L|16:162,2,25.6666675592263,2|0|0,1:1|1:0|1:0,0:0:0:0:
70,178,90659,6,0,L|172:204,1,77.0000026776789,2|2,1:0|0:0,0:0:0:0:
266,112,91088,2,0,L|243:22,1,77.0000026776789,2|2,1:0|0:0,0:0:0:0:
235,204,91517,1,6,1:0:0:0:
146,91,91731,1,2,1:1:0:0:
146,91,91838,1,0,0:0:0:0:
146,91,91945,5,6,1:0:0:0:
155,308,92159,1,2,1:2:0:0:
375,170,92374,2,0,P|427:183|477:241,1,115.500004016518,6|0,1:0|0:0,0:0:0:0:
469,225,92802,2,0,P|462:284|464:312,1,77.0000026776789,0|2,1:0|0:0,0:0:0:0:
348,374,93231,2,0,P|349:334|332:270,1,77.0000026776789,0|2,1:0|1:0,0:0:0:0:
362,291,93517,6,0,L|397:286,2,25.6666675592263,0|0|2,1:0|1:0|1:0,0:0:0:0:
264,302,93874,1,2,0:0:0:0:
264,302,93981,1,0,0:0:0:0:
264,302,94088,1,2,1:0:0:0:
158,281,94302,1,6,0:0:0:0:
158,281,94409,1,0,0:0:0:0:
158,281,94517,1,2,1:0:0:0:
62,211,94731,1,6,0:0:0:0:
62,211,94838,1,0,0:0:0:0:
62,211,94945,1,2,1:0:0:0:
23,97,95159,1,6,0:0:0:0:
23,97,95267,1,0,0:0:0:0:
23,97,95374,2,0,L|28:11,1,77.0000026776789,2|2,1:0|1:0,0:0:0:0:
143,183,95802,6,0,L|133:51,1,115.500004016518,6|0,1:0|0:0,0:0:0:0:
134,67,96231,2,0,P|179:60|226:75,1,77.0000026776789,0|2,1:0|0:0,0:0:0:0:
237,78,96552,1,0,0:0:0:0:
254,103,96659,1,0,1:0:0:0:
168,350,96874,5,2,1:0:0:0:
11,223,97088,1,2,1:0:0:0:
219,285,97302,1,2,0:0:0:0:
219,285,97409,1,0,0:0:0:0:
219,285,97517,2,0,P|266:294|310:289,1,77.0000026776789,2|0,1:0|0:0,0:0:0:0:
396,326,97945,1,2,1:0:0:0:
437,226,98159,1,2,0:1:0:0:
334,191,98374,1,2,1:0:0:0:
480,309,98588,1,2,0:0:0:0:
480,309,98695,1,0,0:0:0:0:
480,309,98802,2,0,L|490:175,1,115.500004016518,2|0,1:0|0:0,0:0:0:0:
488,193,99231,6,0,P|444:188|399:171,1,77.0000026776789,6|2,1:0|0:0,0:0:0:0:
400,47,99659,2,0,P|436:35|474:31,1,77.0000026776789,0|2,1:0|0:0,0:0:0:0:
314,122,100088,2,0,P|259:116|212:49,1,115.500004016518,2|0,1:0|0:0,0:0:0:0:
218,74,100517,2,0,L|128:86,1,77.0000026776789,2|2,1:0|0:0,0:0:0:0:
141,207,100945,6,0,P|100:171|22:160,1,115.500004016518,6|0,1:0|0:0,0:0:0:0:
41,157,101374,2,0,L|34:65,1,77.0000026776789,2|2,1:0|1:0,0:0:0:0:
35,80,101695,1,0,1:0:0:0:
35,80,101802,1,2,1:0:0:0:
227,199,102017,1,4,1:2:0:0:
85,361,102231,1,2,1:0:0:0:
85,361,102338,1,0,1:0:0:0:
85,361,102445,1,4,1:2:0:0:
267,99,102659,6,0,P|267:153|301:203,1,115.500004016518,6|0,1:0|0:0,0:0:0:0:
300,202,103088,2,0,L|378:189,1,77.0000026776789,0|2,1:0|0:1,0:0:0:0:
358,280,103517,2,0,L|498:287,1,115.500004016518,2|0,1:0|0:0,0:0:0:0:
473,285,103945,2,0,L|465:367,1,77.0000026776789,0|2,1:0|0:1,0:0:0:0:
211,287,104374,6,0,P|210:233|201:166,1,115.500004016518,2|0,1:0|0:0,0:0:0:0:
202,172,104802,2,0,L|292:157,1,77.0000026776789,2|2,1:0|0:0,0:0:0:0:
82,109,105231,1,2,1:0:0:0:
195,56,105445,1,2,0:0:0:0:
195,56,105552,1,2,0:0:0:0:
195,56,105659,1,2,1:0:0:0:
83,239,105874,1,2,1:0:0:0:
23,50,106088,6,0,P|76:91|135:103,1,115.500004016518,6|0,1:0|1:0,0:0:0:0:
122,102,106517,2,0,P|130:150|132:186,1,77.0000026776789,0|2,1:0|0:0,0:0:0:0:
195,56,106945,1,0,1:0:0:0:
230,271,107159,1,2,1:2:0:0:
230,271,107267,1,0,1:0:0:0:
230,271,107374,2,0,P|222:223|220:187,1,77.0000026776789,0|4,1:0|1:2,0:0:0:0:
170,358,107802,1,2,1:0:0:0:
304,157,108017,5,2,0:0:0:0:
304,133,108124,1,0,1:0:0:0:
304,109,108231,1,2,1:0:0:0:
452,268,108445,1,2,0:0:0:0:
452,244,108552,1,0,1:0:0:0:
452,220,108659,1,2,1:0:0:0:
191,26,108874,6,0,L|131:37,1,38.5000013388394,12|10,1:2|0:0,0:0:0:0:
303,355,109195,2,0,L|340:344,1,38.5000013388394,12|10,1:2|0:0,0:0:0:0:
497,97,109517,6,0,P|444:282|190:247,1,490.000002086161,4|0,1:0|0:0,0:0:0:0:
191,249,112945,6,0,L|196:206,1,35.0000001490115,4|0,1:0|0:0,0:0:0:0:
31,128,113374,2,0,P|203:36|336:179,1,420.000001788138,4|0,1:0|0:0,0:0:0:0:
336,179,116374,6,0,L|299:190,1,35.0000001490115,2|2,0:0|0:0,0:0:0:0:
231,205,116802,1,0,1:0:0:0:
231,205,117231,2,0,L|193:215,1,35.0000001490115,2|2,0:0|0:0,0:0:0:0:
125,230,117659,1,0,1:0:0:0:
125,230,118088,2,0,L|87:240,1,35.0000001490115,2|2,0:0|0:0,0:0:0:0:
19,255,118516,1,0,1:0:0:0:
35,331,118731,2,0,L|41:351,3,11.6666667163372,0|0|0|4,1:0|0:0|0:0|1:2,0:0:0:0:
115,318,119159,1,2,0:0:0:0:
189,357,119374,1,4,1:2:0:0:
189,357,119588,1,0,0:0:0:0:
189,357,119802,6,0,L|226:346,1,35.0000001490115,2|2,0:0|0:0,0:0:0:0:
294,331,120230,1,0,1:0:0:0:
294,331,120659,2,0,L|332:321,1,35.0000001490115,2|2,0:0|0:0,0:0:0:0:
400,306,121087,1,0,1:0:0:0:
400,306,121516,2,0,L|438:296,1,35.0000001490115,2|2,0:0|0:0,0:0:0:0:
506,281,121944,1,0,1:0:0:0:
484,204,122159,2,0,L|477:185,3,11.6666667163372,0|0|0|4,1:0|0:0|0:0|1:2,0:0:0:0:
409,229,122588,1,2,0:0:0:0:
433,297,122802,1,4,1:2:0:0:
502,122,123017,5,2,0:0:0:0:
506,92,123124,1,2,0:0:0:0:
511,62,123231,1,4,1:0:0:0:
511,62,123659,2,0,L|462:50,1,35.0000001490115,8|0,1:0|1:0,0:0:0:0:
456,60,123981,1,8,0:0:0:0:
380,106,124195,1,8,0:0:0:0:
361,96,124302,1,0,1:0:0:0:
286,58,124517,2,0,L|244:67,1,35.0000001490115,8|4,1:0|0:0,0:0:0:0:
286,58,124945,6,0,L|214:73,1,70.000000298023,0|8,1:0|1:0,0:0:0:0:
139,38,125588,1,0,2:0:0:0:
132,58,125695,1,8,0:0:0:0:
61,129,125909,1,8,0:0:0:0:
55,108,126017,1,0,1:0:0:0:
152,166,126231,1,4,1:2:0:0:
92,363,126445,5,8,0:1:0:0:
5,219,126659,5,0,1:0:0:0:
5,219,127088,2,0,L|45:209,1,35.0000001490115,8|0,1:0|1:0,0:0:0:0:
59,204,127409,1,8,0:0:0:0:
129,244,127624,1,8,0:0:0:0:
148,237,127731,1,0,1:0:0:0:
230,203,127945,2,0,L|237:246,1,35.0000001490115,8|4,1:0|0:0,0:0:0:0:
230,203,128374,6,0,L|243:282,1,70.000000298023,0|8,1:0|1:0,0:0:0:0:
261,358,129017,1,0,1:0:0:0:
261,358,129124,1,8,0:0:0:0:
261,358,129231,1,0,1:0:0:0:
332,218,129445,1,0,1:0:0:0:
220,119,129659,1,8,1:0:0:0:
143,249,129874,1,4,0:0:0:0:
395,349,130088,5,4,1:0:0:0:
395,349,130517,2,0,L|435:356,1,35.0000001490115,8|0,1:0|1:0,0:0:0:0:
450,359,130838,1,8,0:0:0:0:
512,298,131052,1,8,0:0:0:0:
491,291,131159,1,0,1:0:0:0:
430,202,131374,2,0,L|472:211,1,35.0000001490115,8|4,1:0|0:0,0:0:0:0:
430,202,131802,6,0,L|507:218,1,70.000000298023,0|8,1:0|1:0,0:0:0:0:
356,220,132445,1,0,1:0:0:0:
342,236,132552,1,8,0:0:0:0:
262,184,132767,1,8,0:0:0:0:
267,204,132874,1,0,1:0:0:0:
191,231,133088,1,8,1:0:0:0:
103,212,133302,1,4,0:0:0:0:
103,212,133517,6,0,L|30:229,1,70.000000298023,4|8,1:0|1:0,0:0:0:0:
75,324,134160,1,0,1:0:0:0:
84,305,134267,1,8,0:0:0:0:
159,369,134481,1,8,0:0:0:0:
157,347,134589,1,0,1:0:0:0:
245,342,134802,1,8,1:0:0:0:
245,342,135017,1,4,0:0:0:0:
508,200,135231,6,0,B|396:220|431:146|316:163,1,192.500000819563,4|0,1:0|0:0,0:0:0:0:
325,162,136517,6,0,L|336:86,1,70.000000298023,2|2,0:0|0:0,0:0:0:0:
278,241,136945,6,0,L|146:253,1,105.000004452467,4|2,1:3|1:2,0:0:0:0:
149,345,137374,2,0,L|138:155,1,178.500004164576,4|0,1:2|0:0,0:0:0:0:
138,166,137802,2,0,P|87:159|18:183,1,105.000004452467,4|2,1:3|1:2,0:0:0:0:
509,274,138231,6,0,P|463:326|341:341,1,178.500004164576,4|0,1:2|0:0,0:0:0:0:
359,346,138659,2,0,P|308:351|249:366,1,105.000004452467,4|2,1:3|1:0,0:0:0:0:
35,278,139088,1,2,1:0:0:0:
248,73,139302,1,2,1:0:0:0:
248,73,139374,1,0,1:0:0:0:
248,73,139445,1,0,1:0:0:0:
248,73,139517,2,0,P|225:106|153:138,1,105.000004452467,2|4,1:0|1:2,0:0:0:0:
437,235,139945,2,0,P|389:208|322:199,1,105.000004452467,2|4,1:0|1:2,0:0:0:0:
39,186,140374,6,0,P|35:131|45:75,1,105.000004452467,4|2,1:3|1:2,0:0:0:0:
294,289,140802,2,0,P|268:233|206:196,1,119.000002776384,4|0,1:2|1:0,0:0:0:0:
222,200,141124,1,0,1:0:0:0:
226,204,141231,2,0,L|113:233,1,105.000004452467,4|2,1:3|1:2,0:0:0:0:
419,34,141659,2,0,P|384:93|279:119,1,178.500004164576,4|0,1:2|0:0,0:0:0:0:
282,119,142088,6,0,P|230:115|173:125,1,105.000004452467,4|2,1:3|1:0,0:0:0:0:
59,154,142517,1,2,1:0:0:0:
382,198,142731,1,2,1:0:0:0:
382,198,142802,1,0,1:0:0:0:
382,198,142874,1,0,1:0:0:0:
382,198,142945,2,0,P|439:199|491:184,1,105.000004452467,2|6,1:0|1:2,0:0:0:0:
262,280,143374,1,4,1:2:0:0:
420,348,143588,1,4,1:2:0:0:
420,348,143659,1,0,1:0:0:0:
420,348,143731,1,0,1:0:0:0:
420,348,143802,6,0,P|380:297|341:272,1,105.000004452467,4|2,1:3|1:2,0:0:0:0:
93,199,144231,2,0,L|48:211,1,35.0000001490115,4|2,1:2|1:2,0:0:0:0:
55,347,144659,6,0,P|95:296|134:271,1,105.000004452467,4|2,1:3|1:2,0:0:0:0:
428,156,145088,2,0,L|473:168,1,35.0000001490115,4|2,1:2|1:2,0:0:0:0:
153,81,145517,6,0,L|32:111,1,105.000004452467,4|2,1:3|1:2,0:0:0:0:
256,41,145945,1,2,1:0:0:0:
267,251,146159,1,2,1:0:0:0:
267,251,146231,1,0,1:0:0:0:
267,251,146302,1,0,1:0:0:0:
267,251,146374,2,0,L|246:123,1,105.000004452467,2|6,1:0|1:2,0:0:0:0:
497,188,146802,1,2,1:0:0:0:
377,292,147017,1,6,1:2:0:0:
371,25,147231,6,0,P|425:41|473:95,1,105.000004452467,4|2,1:3|1:2,0:0:0:0:
145,213,147659,2,0,P|148:186|156:164,1,35.0000001490115,4|2,1:2|1:2,0:0:0:0:
397,359,148088,6,0,P|368:298|321:264,1,105.000004452467,4|2,1:3|1:2,0:0:0:0:
68,102,148517,2,0,L|22:114,1,35.0000001490115,4|0,1:2|1:0,0:0:0:0:
34,110,148838,1,0,1:0:0:0:
34,110,148945,5,4,1:3:0:0:
298,199,149159,1,2,0:2:0:0:
298,199,149588,1,2,0:0:0:0:
298,199,150017,1,2,0:0:0:0:
303,226,150124,1,2,0:0:0:0:
308,253,150231,2,0,L|304:278,1,17.5000000745057,4|0,1:0|1:0,0:0:0:0:
399,348,150445,2,0,L|384:296,1,52.5000022262334,0|0,1:0|0:0,0:0:0:0:
369,160,150659,6,0,P|410:118|469:99,1,105.000004452467,4|2,1:3|1:2,0:0:0:0:
274,353,151088,2,0,P|207:346|156:287,1,119.000002776384,4|2,1:2|1:2,0:0:0:0:
155,291,151409,1,2,1:2:0:0:
143,267,151517,2,0,L|160:157,1,105.000004452467,4|2,1:3|1:2,0:0:0:0:
18,28,151945,2,0,L|26:72,1,35.0000001490115,4|4,1:2|1:3,0:0:0:0:
307,69,152374,6,0,P|261:43|186:45,1,105.000004452467,4|2,1:3|1:0,0:0:0:0:
28,149,152802,1,2,1:0:0:0:
89,357,153017,1,2,1:0:0:0:
89,357,153088,1,0,1:0:0:0:
89,357,153159,1,0,1:0:0:0:
89,357,153231,2,0,P|131:360|190:331,1,105.000004452467,4|2,1:2|1:0,0:0:0:0:
248,228,153659,1,4,1:2:0:0:
148,178,153874,1,2,1:0:0:0:
149,33,154088,6,0,P|86:47|45:88,1,105.000004452467,4|2,1:3|1:2,0:0:0:0:
354,336,154517,2,0,P|375:276|318:168,1,178.500004164576,4|0,1:2|0:0,0:0:0:0:
329,176,154945,2,0,L|217:196,1,105.000004452467,4|2,1:3|1:2,0:0:0:0:
490,44,155374,2,0,L|446:31,1,35.0000001490115,4|4,1:2|1:3,0:0:0:0:
120,188,155802,6,0,P|141:129|183:91,1,105.000004452467,4|2,1:3|1:0,0:0:0:0:
311,36,156231,1,2,1:0:0:0:
477,237,156445,1,2,1:0:0:0:
477,237,156517,1,0,1:0:0:0:
477,237,156588,1,0,1:0:0:0:
477,237,156659,2,0,P|438:201|386:184,1,105.000004452467,4|4,1:2|1:2,0:0:0:0:
363,182,156981,1,0,1:0:0:0:
337,186,157088,1,4,1:2:0:0:
445,39,157302,1,4,1:3:0:0:
445,39,157374,1,0,1:0:0:0:
445,39,157445,1,0,1:0:0:0:
445,39,157517,6,0,P|414:69|345:95,1,105.000004452467,4|2,1:3|1:2,0:0:0:0:
249,209,157945,2,0,L|63:180,1,178.500004164576,4|0,1:2|0:0,0:0:0:0:
72,181,158374,2,0,P|67:124|85:77,1,105.000004452467,4|2,1:3|1:2,0:0:0:0:
279,324,158802,2,0,L|272:367,1,35.0000001490115,4|4,1:2|3:0,0:0:0:0:
198,52,159231,6,0,L|315:72,1,105.000004452467,4|2,1:3|1:0,0:0:0:0:
446,94,159659,1,2,1:0:0:0:
417,238,159874,1,2,1:0:0:0:
417,238,159945,1,0,1:0:0:0:
417,238,160017,1,0,1:0:0:0:
417,238,160088,2,0,L|397:351,1,105.000004452467,4|2,1:2|1:0,0:0:0:0:
232,235,160517,1,4,1:2:0:0:
504,42,160731,1,2,1:0:0:0:
258,146,160945,6,0,L|145:164,1,105.000004452467,4|2,1:3|1:2,0:0:0:0:
1,355,161374,2,0,P|35:293|143:264,1,178.500004164576,4|0,1:2|0:0,0:0:0:0:
133,262,161802,2,0,L|140:366,1,105.000004452467,4|2,1:3|1:2,0:0:0:0:
5,197,162231,1,4,1:2:0:0:
92,57,162445,1,4,1:3:0:0:
92,57,162552,1,0,1:0:0:0:
92,57,162659,6,0,P|149:82|219:83,1,105.000004452467,4|2,1:3|1:0,0:0:0:0:
282,302,163088,2,0,P|264:235|270:177,1,105.000004452467,2|2,1:0|1:0,0:0:0:0:
265,199,163374,1,0,1:0:0:0:
265,199,163445,1,0,1:0:0:0:
265,199,163517,1,4,1:2:0:0:
340,95,163731,1,4,1:2:0:0:
340,95,163838,1,0,1:0:0:0:
340,95,163945,1,4,1:2:0:0:
105,242,164159,1,4,1:3:0:0:
105,242,164267,1,0,1:0:0:0:
105,242,164374,6,0,L|-5:225,1,105.000004452467,4|4,1:0|3:0,0:0:0:0:
128,340,164802,2,0,L|169:347,1,35.0000001490115,4|4,1:2|3:0,0:0:0:0:
467,365,165231,2,0,P|416:357|371:307,1,105.000004452467,4|4,1:3|1:3,0:0:0:0:
444,60,165659,2,0,P|383:92|365:161,1,119.000002776384,6|4,1:2|3:0,0:0:0:0:
505,284,166088,6,0,P|492:229|447:180,1,105.000004452467,4|2,1:3|1:0,0:0:0:0:
434,206,166409,1,0,0:0:0:0:
405,220,166517,2,0,L|294:264,1,105.000004452467,2|2,1:0|1:0,0:0:0:0:
307,259,166802,1,0,1:0:0:0:
307,259,166874,1,0,1:0:0:0:
307,259,166945,1,4,1:2:0:0:
428,310,167159,1,2,1:0:0:0:
312,146,167374,5,4,1:2:0:0:
170,184,167588,1,2,1:0:0:0:
34,37,167802,6,0,P|84:45|139:77,1,105.000004452467,4|4,1:0|3:0,0:0:0:0:
210,303,168231,2,0,L|198:342,1,35.0000001490115,4|4,1:2|3:0,0:0:0:0:
322,341,168659,2,0,P|304:284|310:228,1,105.000004452467,4|4,1:3|3:0,0:0:0:0:
452,36,169088,2,0,P|491:91|494:162,1,119.000002776384,4|4,1:2|0:3,0:0:0:0:
201,127,169517,6,0,P|214:67|257:23,1,105.000004452467,4|2,1:3|1:0,0:0:0:0:
463,240,169945,1,2,1:0:0:0:
379,177,170159,1,2,1:0:0:0:
379,177,170231,1,0,1:0:0:0:
379,177,170302,1,0,1:0:0:0:
379,177,170374,2,0,P|316:151|259:155,1,105.000004452467,4|4,1:2|1:2,0:0:0:0:
49,136,170802,1,4,1:2:0:0:
308,44,171017,1,4,1:3:0:0:
308,44,171088,1,0,1:0:0:0:
308,44,171159,1,0,1:0:0:0:
308,44,171231,6,0,P|259:67|196:62,1,105.000004452467,4|4,1:0|3:0,0:0:0:0:
27,344,171659,2,0,L|33:306,1,35.0000001490115,4|4,1:2|3:0,0:0:0:0:
81,54,172088,2,0,L|86:177,1,105.000004452467,4|4,1:3|1:3,0:0:0:0:
85,158,172409,1,0,0:0:0:0:
85,158,172517,1,4,1:2:0:0:
96,258,172731,1,4,3:0:0:0:
179,33,172945,6,0,P|230:45|288:40,1,105.000004452467,4|2,1:3|1:0,0:0:0:0:
490,97,173374,1,2,1:0:0:0:
282,196,173588,1,2,1:0:0:0:
282,196,173659,1,0,1:0:0:0:
282,196,173731,1,0,1:0:0:0:
282,196,173802,2,0,P|259:235|256:299,1,105.000004452467,4|2,1:2|1:0,0:0:0:0:
483,220,174231,1,4,1:2:0:0:
308,105,174445,1,2,1:0:0:0:
276,106,174552,1,0,1:0:0:0:
244,109,174659,1,4,1:0:0:0:
17,126,174874,5,2,0:0:0:0:
17,126,175302,1,2,0:0:0:0:
17,126,175731,1,2,0:0:0:0:
27,210,175945,1,2,0:0:0:0:
125,39,176159,5,2,0:0:0:0:
122,60,176267,1,0,1:0:0:0:
119,80,176374,1,4,0:0:0:0:
116,100,176481,1,0,1:0:0:0:
112,120,176588,1,8,1:0:0:0:
487,203,176802,2,0,L|475:146,1,52.5000022262334,0|8,0:0|1:0,0:0:0:0:
90,231,177124,2,0,L|79:282,1,52.5000022262334,0|8,0:0|1:0,0:0:0:0:
422,314,177445,2,0,L|411:262,2,52.5000022262334,8|0|4,1:0|1:0|1:2,0:0:0:0:
354,363,177874,1,4,1:2:0:0:
246,288,178088,6,0,B|224:162|297:224|257:74,1,210.000000894069
259,84,179802,6,0,P|201:58|122:60,1,140
53,33,180338,2,0,L|50:74,1,35
367,238,180659,2,0,L|370:197,1,35
420,292,180874,2,0,P|410:228|416:149,1,140
451,78,181517,2,0,P|412:73|323:79,1,105
346,75,181945,2,0,L|340:146,1,70
289,200,182267,2,0,L|248:193,1,35
36,194,182588,2,0,P|88:226|126:304,1,140
