osu file format v14

[General]
AudioFilename: asdt.mp3
AudioLeadIn: 0
PreviewTime: 159120
Countdown: 0
SampleSet: Soft
StackLeniency: 0.7
Mode: 0
LetterboxInBreaks: 0
WidescreenStoryboard: 0

[Editor]
Bookmarks: 186549,234977,262406
DistanceSpacing: 1
BeatDivisor: 8
GridSize: 4
TimelineZoom: 3.599998

[Metadata]
Title:dreamenddischarger
TitleUnicode:dreamenddischarger
Artist:zts
ArtistUnicode:zts
Creator:EvilElvis
Version:Love Letter
Source:うみねこのなく頃に
Tags:code zts label musicbox red czl Umineko no Naku Koro ni irreversible okoratu happy30 natteke damnae marathon visual novel 07th Expansion
BeatmapID:758298
BeatmapSetID:339615

[Difficulty]
HPDrainRate:7
CircleSize:4
OverallDifficulty:7
ApproachRate:8.5
SliderMultiplier:1.6
SliderTickRate:1

[Events]
//Background and Video events
0,0,"bg12.jpg",0,0
//Break Periods
//Storyboard Layer 0 (Background)
//Storyboard Layer 1 (Fail)
//Storyboard Layer 2 (Pass)
//Storyboard Layer 3 (Foreground)
//Storyboard Sound Samples

[TimingPoints]
6549,428.571428571429,4,2,0,20,1,0
18549,-100,4,2,0,30,0,0
18870,-100,4,2,0,40,0,0
19191,-100,4,2,0,50,0,0
21977,-166.666666666667,4,2,0,50,0,0
33977,-133.333333333333,4,2,0,70,0,0
40834,-111.111111111111,4,2,0,70,0,0
47691,-71.4285714285714,4,2,0,70,0,0
56477,-133.333333333333,4,2,0,65,0,0
56906,-105.263157894737,4,2,0,55,0,0
57334,-79.9999999999999,4,2,0,45,0,0
57763,-74.0740740740741,4,2,0,30,0,0
59691,-100,4,2,0,30,0,0
59799,-100,4,2,0,45,0,0
60870,-66.6666666666667,4,2,0,55,0,0
61406,-74.0740740740741,4,2,0,50,0,0
63656,-74.0740740740741,4,2,0,35,0,0
64941,-74.0740740740741,4,2,0,50,0,0
66656,-74.0740740740741,4,2,0,25,0,0
68263,-74.0740740740741,4,2,0,55,0,0
73299,-74.0740740740741,4,2,0,65,0,0
75120,-74.0740740740741,4,2,0,70,0,0
115406,-200,4,2,0,70,0,0
115834,-74.0740740740741,4,2,0,70,0,0
130299,-74.0740740740741,4,2,0,40,0,0
130406,-74.0740740740741,4,2,0,70,0,0
130620,-74.0740740740741,4,2,0,50,0,0
130727,-74.0740740740741,4,2,0,70,0,0
130941,-74.0740740740741,4,2,0,40,0,0
131049,-74.0740740740741,4,2,0,70,0,0
131263,-74.0740740740741,4,2,0,60,0,0
131477,-74.0740740740741,4,2,0,80,0,0
131691,-74.0740740740741,4,2,0,70,0,0
136834,-74.0740740740741,4,2,0,50,0,0
137049,-74.0740740740741,4,2,0,70,0,0
137156,-74.0740740740741,4,2,0,30,0,0
137370,-74.0740740740741,4,2,0,70,0,0
137477,-74.0740740740741,4,2,0,30,0,0
137584,-74.0740740740741,4,2,0,70,0,0
137691,-74.0740740740741,4,2,0,40,0,0
138013,-74.0740740740741,4,2,0,50,0,0
138120,-74.0740740740741,4,2,0,70,0,0
138334,-74.0740740740741,4,2,0,20,0,0
138549,-74.0740740740741,4,2,0,70,0,0
139191,-74.0740740740741,4,2,0,30,0,0
139406,-74.0740740740741,4,2,0,70,0,0
157406,-200,4,2,0,70,0,0
158691,-66.6666666666667,4,2,0,70,0,0
159120,-71.4285714285714,4,2,0,70,0,1
172834,-66.6666666666667,4,2,0,70,0,1
183120,-66.6666666666667,4,2,0,70,0,0
198977,-83.3333333333333,4,2,0,70,0,0
199406,-111.111111111111,4,2,0,70,0,0
200156,-66.6666666666667,4,2,0,70,0,0
200691,428.571428571429,4,2,0,70,1,0
207548,-125,4,2,0,40,0,0
219549,-83.3333333333333,4,2,0,40,0,0
222120,-100,4,2,0,40,0,0
228120,-133.333333333333,4,2,0,50,0,0
230263,-133.333333333333,4,2,0,10,0,0
230691,-133.333333333333,4,2,0,70,0,0
234120,-200,4,2,0,70,0,0
234976,-200,4,2,0,70,0,1
235083,-200,4,2,0,70,0,0
240120,-133.333333333333,4,2,0,70,0,0
241834,-100,4,2,0,70,0,0
243120,-66.6666666666667,4,2,0,70,0,0
243549,-100,4,2,0,70,0,0
244833,-66.6666666666667,4,2,0,70,0,0
246977,-76.9230769230769,4,2,0,70,0,0
249549,-100,4,2,0,70,0,0
250406,-76.9230769230769,4,2,0,70,0,0
251263,-100,4,2,0,70,0,0
255441,-100,4,2,0,50,0,0
257263,-100,4,2,0,70,0,0
258977,-100,4,2,0,85,0,0
260263,-100,4,2,0,93,0,0
261120,-100,4,2,0,100,0,0
262406,-76.9230769230769,4,2,0,70,0,0
275477,-58.8235294117647,4,2,0,70,0,0
275691,-76.9230769230769,4,2,0,70,0,0
285549,-71.4285714285714,4,2,0,70,0,0
285763,-66.6666666666667,4,2,0,70,0,0
285977,-62.5,4,2,0,70,0,0
286406,-76.9230769230769,4,2,0,70,0,0
289191,-58.8235294117647,4,2,0,70,0,0
289406,-76.9230769230769,4,2,0,70,0,0
289620,-66.6666666666667,4,2,0,70,0,0
289833,-71.4285714285714,4,2,0,70,0,1
300119,-166.666666666667,4,2,0,70,0,0
300977,-71.4285714285714,4,2,0,70,0,0
302691,-71.4285714285714,4,2,0,70,0,1
303120,-50,4,2,0,70,0,1
303548,-50,4,2,0,70,0,0
303977,-133.333333333333,4,2,0,70,0,0
304406,-50,4,2,0,70,0,0
304834,-166.666666666667,4,2,0,70,0,0

[Colours]
Combo1 : 17,254,176
Combo2 : 173,255,95
Combo3 : 255,88,100
Combo4 : 255,94,55

[HitObjects]
256,192,548,12,0,6120,0:0:0:0:
59,89,6548,5,2,0:0:0:0:
173,124,6870,1,0,0:0:0:0:
59,89,7191,1,0,0:0:0:0:
168,212,7620,5,2,0:0:0:0:
240,186,7834,1,0,0:0:0:0:
240,186,7941,1,2,0:0:0:0:
319,306,8263,5,2,0:0:0:0:
361,170,8584,1,0,0:0:0:0:
319,306,8906,1,0,0:0:0:0:
487,104,9334,5,2,0:0:0:0:
408,72,9549,1,0,0:0:0:0:
408,72,9656,1,2,0:0:0:0:
242,182,9977,5,2,0:0:0:0:
267,31,10299,1,0,0:0:0:0:
242,182,10620,1,0,0:0:0:0:
165,33,11049,5,2,0:0:0:0:
88,57,11263,1,0,0:0:0:0:
88,57,11370,1,2,0:0:0:0:
13,81,11584,1,2,0:0:0:0:
13,81,11691,5,2,0:0:0:0:
187,112,12013,1,2,0:0:0:0:
13,81,12334,1,2,0:0:0:0:
297,24,12763,5,2,0:0:0:0:
223,42,12977,1,0,0:0:0:0:
223,42,13084,1,2,0:0:0:0:
285,258,13406,5,2,0:0:0:0:
481,250,13727,1,0,0:0:0:0:
336,346,14049,1,0,0:0:0:0:
336,346,14477,5,2,0:0:0:0:
383,192,14691,1,0,0:0:0:0:
383,192,14799,1,2,0:0:0:0:
224,328,15120,5,2,0:0:0:0:
49,208,15441,1,0,0:0:0:0:
140,377,15763,1,0,0:0:0:0:
140,377,16191,5,2,0:0:0:0:
155,183,16406,1,0,0:0:0:0:
155,183,16513,1,2,0:0:0:0:
259,39,16834,5,2,0:0:0:0:
286,212,17156,1,0,0:0:0:0:
377,54,17477,1,0,0:0:0:0:
377,54,17906,5,2,0:0:0:0:
356,273,18120,1,0,0:0:0:0:
356,273,18227,1,2,0:0:0:0:
438,251,18441,5,2,0:0:0:0:
438,251,18549,1,4,0:0:0:0:
376,187,18763,1,0,0:0:0:0:
376,187,18870,1,4,0:0:0:0:
298,208,19084,1,0,0:0:0:0:
298,208,19191,1,4,0:0:0:0:
298,208,19620,5,2,0:0:0:0:
220,235,19834,1,0,0:0:0:0:
220,235,19941,1,2,0:0:0:0:
50,76,20263,5,4,1:0:0:0:
50,76,20906,1,2,1:2:0:0:
50,76,21334,1,0,1:0:0:0:
119,113,21549,1,2,0:0:0:0:
119,113,21656,1,0,1:0:0:0:
362,113,21977,6,0,L|282:80,2,71.9999978027344,0|2|2,1:0|0:0|0:0,0:0:0:0:
440,69,22834,1,4,1:2:0:0:
495,142,23049,1,2,1:2:0:0:
425,186,23263,1,2,0:0:0:0:
425,186,23370,1,0,1:0:0:0:
246,346,23691,5,0,1:0:0:0:
48,266,24013,1,0,1:0:0:0:
246,346,24334,1,0,1:0:0:0:
246,346,24763,1,0,1:0:0:0:
226,267,24977,1,0,1:2:0:0:
226,267,25084,1,0,0:0:0:0:
299,238,25299,1,0,0:0:0:0:
299,238,25406,6,0,P|285:189|274:164,1,71.9999978027344,0|0,1:0|1:0,0:0:0:0:
286,135,25834,2,0,P|262:146|242:156,1,47.9999985351563,0|0,0:0|1:0,0:0:0:0:
223,86,26263,1,0,0:0:0:0:
163,46,26477,1,0,1:0:0:0:
91,39,26691,1,0,1:0:0:0:
91,39,26799,1,2,0:0:0:0:
16,55,27013,1,2,0:2:0:0:
16,55,27120,6,0,P|19:93|30:131,1,71.9999978027344,6|0,1:0|0:0,0:0:0:0:
25,146,27549,2,0,P|54:139|76:137,1,47.9999985351563,0|2,1:0|0:1,0:0:0:0:
150,131,27977,1,0,1:0:0:0:
223,166,28191,1,2,0:0:0:0:
239,244,28406,1,2,1:2:0:0:
239,244,28513,1,0,0:0:0:0:
283,41,28834,6,0,P|315:44|357:53,1,71.9999978027344,2|0,1:0|0:0,0:0:0:0:
377,33,29263,2,0,P|367:64|365:87,1,47.9999985351563,0|2,1:0|0:1,0:0:0:0:
363,155,29691,1,4,1:2:0:0:
439,196,29906,1,2,0:0:0:0:
499,138,30120,1,0,1:0:0:0:
499,138,30227,1,2,0:1:0:0:
423,97,30441,1,0,1:0:0:0:
423,97,30549,1,2,1:0:0:0:
297,311,30870,5,0,0:0:0:0:
297,311,30977,2,0,P|293:267|294:252,1,47.9999985351563,0|2,1:0|0:1,0:0:0:0:
285,187,31406,1,0,1:0:0:0:
278,112,31620,1,2,0:0:0:0:
270,38,31834,1,0,1:0:0:0:
270,38,31941,1,2,0:0:0:0:
165,47,32156,1,2,0:0:0:0:
165,47,32263,6,0,L|170:119,1,71.9999978027344,2|0,1:0|0:0,0:0:0:0:
180,137,32691,2,0,P|159:137|111:143,1,47.9999985351563,0|2,1:0|0:1,0:0:0:0:
87,76,33120,1,4,1:2:0:0:
26,221,33334,1,2,0:0:0:0:
22,242,33441,1,0,1:0:0:0:
25,263,33549,1,0,1:0:0:0:
33,282,33656,1,2,1:0:0:0:
37,303,33763,1,0,1:2:0:0:
36,324,33870,1,0,1:0:0:0:
12,345,33977,6,0,P|62:343|112:355,1,90.0000034332277,6|0,1:0|0:0,0:0:0:0:
128,334,34406,2,0,L|192:346,1,60.0000022888184,0|2,1:0|0:1,0:0:0:0:
286,300,34834,1,0,1:2:0:0:
244,199,35049,1,2,0:0:0:0:
156,255,35263,1,0,1:0:0:0:
156,255,35370,1,2,0:1:0:0:
348,232,35584,5,2,0:0:0:0:
348,232,35691,2,0,P|353:189|342:142,1,90.0000034332277,2|0,1:0|0:0,0:0:0:0:
373,121,36120,2,0,L|291:116,1,60.0000022888184,0|2,1:0|0:1,0:0:0:0:
274,49,36549,1,0,1:0:0:0:
271,234,36763,1,2,0:0:0:0:
198,86,36977,1,0,1:0:0:0:
198,86,37084,1,2,1:0:0:0:
384,207,37299,1,2,0:0:0:0:
384,207,37406,6,0,P|428:214|482:199,2,90.0000034332277,2|0|2,1:0|0:0|0:1,0:0:0:0:
274,178,38263,1,0,1:0:0:0:
411,102,38477,1,2,0:0:0:0:
423,279,38691,1,2,1:0:0:0:
423,279,38799,1,2,0:0:0:0:
211,259,39013,5,2,0:0:0:0:
211,259,39120,2,0,P|203:300|214:358,1,90.0000034332277,2|0,1:0|0:0,0:0:0:0:
239,363,39549,2,0,P|273:360|304:357,1,60.0000022888184,0|2,1:0|0:1,0:0:0:0:
131,306,39977,2,0,P|97:309|66:312,1,60.0000022888184,4|2,1:2|0:0,0:0:0:0:
17,220,40406,1,0,1:0:0:0:
17,220,40513,1,0,1:0:0:0:
17,220,40620,1,0,1:0:0:0:
17,220,40727,1,0,1:0:0:0:
17,220,40834,6,0,P|59:217|151:158,1,143.999995605469,6|8,1:0|1:2,0:0:0:0:
159,81,41477,1,2,0:1:0:0:
235,20,41691,1,0,1:0:0:0:
235,20,41799,2,0,P|236:66|247:137,1,107.999996704102,2|8,0:0|1:2,0:0:0:0:
256,142,42227,1,2,0:1:0:0:
349,104,42441,1,2,0:0:0:0:
349,104,42549,6,0,P|352:150|344:224,1,107.999996704102,2|2,1:0|0:0,0:0:0:0:
381,222,42977,2,0,P|337:229|302:240,1,71.9999978027344,8|2,1:2|0:1,0:0:0:0:
244,316,43406,1,0,1:0:0:0:
219,312,43513,1,2,0:0:0:0:
197,298,43620,1,0,0:0:0:0:
174,286,43727,1,2,0:0:0:0:
148,284,43834,2,2,P|105:295|76:307,1,71.9999978027344,8|0,1:2|1:0,1:0:0:0:
57,317,44156,1,0,1:0:0:0:
37,333,44263,6,2,P|25:287|26:218,1,107.999996704102,6|0,1:0|0:0,1:0:0:0:
14,197,44691,2,0,P|54:201|96:206,1,71.9999978027344,8|2,1:2|0:1,0:0:0:0:
152,133,45120,1,0,1:0:0:0:
176,127,45227,1,2,0:0:0:0:
201,127,45334,1,0,0:0:0:0:
225,132,45441,1,2,0:0:0:0:
249,136,45549,2,2,P|255:95|254:52,1,71.9999978027344,8|0,1:2|1:0,1:0:0:0:
245,42,45870,1,0,1:0:0:0:
232,20,45977,6,0,P|277:35|390:18,2,143.999995605469,4|4|4,1:2|1:2|1:2,0:0:0:0:
161,49,47049,1,0,1:0:0:0:
258,202,47263,1,0,1:0:0:0:
268,232,47370,1,0,1:0:0:0:
274,263,47477,1,0,1:0:0:0:
276,295,47584,1,0,1:0:0:0:
274,327,47691,1,4,1:0:0:0:
116,300,47906,6,0,L|32:292,1,55.9999982910157,2|0,0:0|0:0,0:0:0:0:
92,271,48120,1,8,1:0:0:0:
388,264,48334,2,0,L|472:256,1,55.9999982910157,2|0,0:0|0:0,0:0:0:0:
410,233,48549,1,0,1:0:0:0:
140,160,48763,2,0,L|56:168,1,55.9999982910157,2|0,0:0|0:0,0:0:0:0:
105,134,48977,1,8,1:0:0:0:
308,116,49191,1,4,0:0:0:0:
308,116,49299,1,0,0:0:0:0:
308,116,49406,6,0,L|432:108,1,111.999996582031,0|2,1:0|0:0,0:0:0:0:
364,292,49834,2,0,L|248:296,1,111.999996582031,8|2,1:0|0:0,0:0:0:0:
182,332,50156,2,0,P|126:352|70:358,1,111.999996582031,8|8,0:0|0:0,0:0:0:0:
28,288,50477,1,0,0:0:0:0:
52,68,50691,1,8,1:0:0:0:
28,288,50906,1,4,0:0:0:0:
36,252,51013,1,0,0:0:0:0:
44,212,51120,6,0,L|164:180,1,111.999996582031,4|2,1:0|0:0,0:0:0:0:
240,84,51549,1,8,1:0:0:0:
344,232,51763,1,2,0:0:0:0:
344,232,51870,1,0,0:0:0:0:
344,232,51977,2,0,P|364:268|336:332,1,111.999996582031,0|2,1:0|0:0,0:0:0:0:
216,340,52406,2,0,L|100:332,1,111.999996582031,8|4,1:0|0:0,0:0:0:0:
0,134,52834,6,0,P|36:166|36:234,1,111.999996582031,0|0,1:0|1:0,0:0:0:0:
186,126,53263,2,0,P|186:71|225:33,1,111.999996582031,8|0,1:0|1:0,0:0:0:0:
304,40,53584,2,0,L|428:52,1,111.999996582031,2|2,0:0|0:0,0:0:0:0:
484,104,53906,1,4,1:0:0:0:
460,340,54120,1,8,1:0:0:0:
484,120,54334,1,4,0:0:0:0:
460,356,54549,6,0,L|340:344,1,111.999996582031,4|0,1:0|0:0,0:0:0:0:
348,344,54870,1,0,0:0:0:0:
348,344,54977,1,8,1:0:0:0:
304,216,55191,1,2,0:0:0:0:
193,313,55406,2,0,P|165:257|193:217,1,111.999996582031,0|0,1:0|0:0,0:0:0:0:
120,128,55834,2,0,L|-8:120,1,111.999996582031,8|4,1:0|0:0,0:0:0:0:
224,164,56263,5,0,1:0:0:0:
320,48,56477,1,2,0:0:0:0:
320,48,56584,1,0,0:0:0:0:
320,48,56691,2,0,L|396:32,1,60.0000022888184,0|0,1:0|0:0,0:0:0:0:
312,160,57120,2,0,L|400:180,1,75.9999979705811,0|2,1:0|0:0,0:0:0:0:
236,240,57548,2,0,L|292:336,1,100,0|2,1:0|0:0,0:0:0:0:
116,256,57977,2,0,L|108:376,1,108.000000411987,4|2,0:0|0:0,0:0:0:0:
48,176,58406,6,0,P|96:144|152:152,1,108.000000411987,2|4,1:0|0:0,0:0:0:0:
228,220,58834,2,0,L|252:336,1,108.000000411987,0|0,1:0|0:0,0:0:0:0:
360,344,59263,2,0,P|412:346|456:316,1,108.000000411987,2|4,1:0|0:0,0:0:0:0:
475,300,59584,1,0,0:0:0:0:
475,300,59691,6,0,L|478:213,1,80,0|2,0:0|0:0,0:0:0:0:
352,44,60120,1,4,0:0:0:0:
272,176,60334,1,2,0:0:0:0:
272,176,60441,1,0,0:0:0:0:
272,176,60548,2,0,L|277:261,1,80,0|2,0:0|0:0,0:0:0:0:
184,320,60977,6,2,P|116:344|21:272,1,180.000006866455,0|0,2:0|2:0,1:0:0:0:
112,252,61406,5,4,1:0:0:0:
272,344,61620,2,0,P|328:316|388:328,1,108.000000411987,2|8,0:0|1:0,0:0:0:0:
421,195,62049,2,0,L|417:107,1,54.0000002059937,2|2,0:0|0:0,0:0:0:0:
480,220,62263,2,0,L|344:236,1,108.000000411987,0|2,1:0|0:0,0:0:0:0:
240,244,62691,2,0,P|208:212|232:156,1,108.000000411987,8|2,1:0|0:0,0:0:0:0:
300,148,63013,1,2,0:0:0:0:
374,137,63120,6,0,L|434:129,2,54.0000002059937,0|0|2,1:0|0:0|0:0,0:0:0:0:
144,100,63549,1,8,1:0:0:0:
144,100,63763,6,0,P|100:88|40:104,1,108.000000411987,2|0,1:0|2:0,1:0:0:0:
156,296,64191,2,0,P|209:314|268:293,1,108.000000411987,2|8,1:0|1:0,1:0:0:0:
408,248,64620,2,0,L|476:240,2,54.0000002059937,2|8|4,1:0|0:0|1:0,0:0:0:0:
256,204,65049,5,2,0:0:0:0:
348,88,65263,2,0,P|396:132|396:180,1,108.000000411987,8|2,1:0|0:0,0:0:0:0:
164,320,65691,2,0,P|116:276|116:228,1,108.000000411987,0|2,1:0|0:0,0:0:0:0:
132,160,66013,1,0,0:0:0:0:
156,84,66120,2,0,L|168:28,2,54.0000002059937,8|0|2,1:0|0:0|0:0,0:0:0:0:
60,56,66549,6,0,L|32:176,1,108.000000411987,0|2,1:0|1:0,1:0:0:0:
210,237,66977,2,0,L|238:117,1,108.000000411987,8|2,1:0|1:0,1:0:0:0:
332,52,67406,1,0,0:0:0:0:
332,52,67513,1,0,0:0:0:0:
332,52,67620,2,0,P|384:40|436:76,1,108.000000411987,2|8,1:0|1:0,0:0:0:0:
472,176,68049,2,0,L|460:240,1,54.0000002059937,2|0,1:0|0:0,0:0:0:0:
492,308,68263,5,4,1:0:0:0:
320,256,68477,1,0,0:0:0:0:
320,256,68584,1,0,0:0:0:0:
320,256,68691,2,0,P|252:292|176:256,1,162.000000617981,8|2,1:0|0:0,0:0:0:0:
168,184,69120,2,0,L|164:116,2,54.0000002059937,0|0|2,1:0|0:0|0:0,0:0:0:0:
80,256,69549,1,8,1:0:0:0:
72,40,69763,1,4,0:0:0:0:
76,268,69977,6,0,L|244:284,1,162.000000617981,4|0,1:0|0:0,0:0:0:0:
276,208,70406,2,0,P|324:268|288:352,1,162.000000617981,8|2,1:0|0:0,0:0:0:0:
224,356,70834,2,0,L|164:352,2,54.0000002059937,4|0|2,1:0|0:0|0:0,0:0:0:0:
396,336,71263,1,8,1:0:0:0:
424,124,71477,1,4,0:0:0:0:
408,336,71691,6,0,P|404:268|320:228,1,162.000000617981,4|2,1:0|0:0,0:0:0:0:
248,224,72120,2,0,L|184:220,2,54.0000002059937,8|0|2,1:0|0:0|0:0,0:0:0:0:
52,96,72549,2,0,P|80:152|120:172,1,108.000000411987,4|2,1:0|0:0,0:0:0:0:
52,348,72977,2,0,P|72:299|176:264,1,162.000000617981,8|0,1:0|1:0,0:0:0:0:
280,224,73406,6,0,L|460:232,1,162.000000617981,4|0,1:0|1:0,0:0:0:0:
224,160,73834,2,0,L|44:152,1,162.000000617981,4|0,1:0|1:0,0:0:0:0:
96,252,74263,2,0,P|168:268|204:364,1,162.000000617981,4|0,1:0|1:0,0:0:0:0:
296,312,74691,2,0,L|420:304,1,108.000000411987,4|0,1:0|1:0,0:0:0:0:
476,260,75013,1,0,1:0:0:0:
476,260,75120,6,2,B|499:173|454:186|479:91,1,162.000000617981,4|0,1:0|0:0,1:0:0:0:
512,70,75549,2,0,P|458:79|404:79,1,108.000000411987,8|0,1:0|0:0,0:0:0:0:
286,203,75977,1,2,1:0:0:0:
131,41,76191,1,0,0:0:0:0:
131,41,76299,1,0,0:0:0:0:
131,41,76406,2,2,P|205:65|300:57,1,162.000000617981,8|0,1:0|0:0,1:0:0:0:
317,17,76834,6,0,P|313:88|318:143,1,108.000000411987,2|0,1:0|0:0,0:0:0:0:
100,255,77263,2,0,P|167:237|210:210,1,108.000000411987,10|0,1:0|0:0,0:0:0:0:
411,340,77691,2,0,P|370:285|333:253,1,108.000000411987,2|0,1:0|0:0,0:0:0:0:
340,258,78013,1,0,0:0:0:0:
340,258,78120,1,10,1:0:0:0:
184,362,78334,5,0,0:0:0:0:
184,362,78441,1,0,0:0:0:0:
184,362,78549,2,0,P|214:323|278:289,1,108.000000411987,2|0,1:0|0:0,0:0:0:0:
166,131,78977,2,0,P|217:170|264:186,1,108.000000411987,10|0,1:0|0:0,0:0:0:0:
166,248,79406,2,2,B|83:235|96:276|-1:256,1,162.000000617981,0|0,1:0|0:0,1:0:0:0:
6,257,79834,2,0,P|9:204|5:146,1,108.000000411987,10|0,1:0|0:0,0:0:0:0:
140,160,80263,6,2,P|65:148|6:4,1,216.000000823975,0|8,1:0|1:0,1:0:0:0:
228,23,80906,1,2,1:0:0:0:
228,23,81013,1,0,0:0:0:0:
228,23,81120,1,12,0:0:0:0:
143,262,81334,1,2,0:0:0:0:
143,262,81549,1,10,1:0:0:0:
237,204,81763,5,2,0:0:0:0:
237,204,81870,1,2,0:0:0:0:
237,204,81977,2,2,P|234:268|243:334,1,108.000000411987,0|0,1:0|0:0,1:0:0:0:
184,371,82406,1,8,1:0:0:0:
185,125,82620,1,0,0:0:0:0:
185,125,82727,1,0,0:0:0:0:
185,125,82834,2,0,P|252:155|343:159,1,162.000000617981,2|0,1:0|0:0,1:0:0:0:
368,195,83263,2,2,P|363:151|373:66,1,108.000000411987,8|0,1:0|0:0,1:0:0:0:
455,37,83691,6,0,L|286:46,1,162.000000617981,2|0,1:0|0:0,0:0:0:0:
268,25,84120,1,10,1:0:0:0:
478,125,84334,1,2,0:1:0:0:
241,274,84549,2,2,P|219:217|224:113,1,162.000000617981,0|0,1:0|0:0,1:0:0:0:
222,117,84977,2,0,L|348:124,1,108.000000411987,10|0,1:0|0:0,0:0:0:0:
512,247,85406,6,2,L|344:243,1,162.000000617981,2|0,1:0|0:0,1:0:0:0:
323,209,85834,1,8,1:0:0:0:
253,367,86049,1,0,1:0:0:0:
131,225,86263,1,0,1:0:0:0:
232,273,86477,1,2,1:0:0:0:
232,273,86584,1,0,0:0:0:0:
232,273,86691,1,10,1:0:0:0:
253,367,86906,1,2,0:0:0:0:
210,165,87120,6,0,P|206:122|212:40,1,108.000000411987,6|0,1:0|0:0,0:0:0:0:
280,21,87549,2,2,P|206:43|107:31,1,162.000000617981,12|0,1:0|0:0,1:0:0:0:
91,18,87977,1,4,1:0:0:0:
2,233,88191,5,4,1:2:0:0:
101,109,88406,1,8,1:0:0:0:
100,130,88513,1,0,1:0:0:0:
114,145,88620,1,0,1:0:0:0:
114,166,88727,1,0,1:0:0:0:
92,192,88834,6,2,P|156:200|280:192,1,162.000000617981,4|0,1:0|0:0,1:0:0:0:
344,156,89263,2,0,P|332:220|328:268,1,108.000000411987,10|0,1:0|0:0,0:0:0:0:
328,262,89584,1,0,0:0:0:0:
328,262,89691,2,2,P|391:263|443:271,1,108.000000411987,0|2,1:0|0:1,0:1:0:0:
236,292,90120,2,0,P|176:292|120:312,1,108.000000411987,10|0,1:0|0:0,0:0:0:0:
8,200,90549,6,2,P|80:220|184:184,1,162.000000617981,0|0,1:0|0:0,1:1:0:0:
162,198,90977,2,0,P|160:136|160:68,1,108.000000411987,10|0,1:0|0:0,0:0:0:0:
276,208,91406,2,2,P|292:136|320:80,1,108.000000411987,0|2,1:0|2:1,1:0:0:0:
360,276,91834,2,0,P|404:232|456:204,1,108.000000411987,10|2,1:1|0:1,0:1:0:0:
443,209,92156,1,0,0:0:0:0:
443,209,92263,6,2,P|424:136|484:4,1,216.000000823975,6|8,1:0|1:0,0:1:0:0:
328,76,92906,1,0,0:0:0:0:
328,76,93013,1,0,0:0:0:0:
328,76,93120,2,2,P|248:68|188:52,1,108.000000411987,0|2,1:0|0:0,0:1:0:0:
24,108,93549,2,0,P|104:108|144:132,1,108.000000411987,10|0,1:1|0:0,0:0:0:0:
220,160,93977,6,2,P|192:228|168:336,1,162.000000617981,0|0,1:0|0:0,0:1:0:0:
171,313,94406,1,8,1:0:0:0:
324,268,94620,1,2,1:1:0:0:
324,268,94727,1,2,1:1:0:0:
324,268,94834,1,2,1:1:0:0:
56,276,95049,1,4,0:0:0:0:
220,160,95263,1,10,1:0:0:0:
172,316,95477,1,0,1:0:0:0:
65,138,95691,6,2,P|140:167|220:160,1,162.000000617981,0|0,1:0|0:0,0:1:0:0:
219,160,96120,2,0,P|228:80|236:36,1,108.000000411987,8|0,1:0|0:0,0:0:0:0:
232,52,96441,1,0,0:0:0:0:
232,52,96549,2,2,P|316:72|408:64,1,162.000000617981,0|0,1:0|0:0,1:0:0:0:
464,168,96977,2,0,P|380:148|288:156,1,162.000000617981,10|0,1:0|0:0,2:0:0:0:
272,320,97406,6,2,P|355:339|424:288,1,162.000000617981,0|0,1:0|0:0,2:1:0:0:
416,300,97834,2,0,P|407:254|400:188,1,108.000000411987,10|0,1:0|0:0,0:0:0:0:
400,193,98156,1,0,0:0:0:0:
400,193,98263,2,2,P|344:204|288:212,1,108.000000411987,0|2,1:0|0:1,0:1:0:0:
40,164,98691,2,0,P|96:153|152:145,1,108.000000411987,10|2,1:1|0:1,0:1:0:0:
296,80,99120,6,2,P|236:156|300:284,1,216.000000823975,4|8,1:0|1:0,0:1:0:0:
455,151,99763,1,2,0:0:0:0:
455,151,99870,1,2,0:0:0:0:
455,151,99977,2,0,P|384:161|322:150,1,108.000000411987,0|2,1:0|1:0,0:0:0:0:
328,187,100299,1,0,0:0:0:0:
312,209,100406,2,0,L|317:323,1,108.000000411987,10|2,1:0|1:0,0:0:0:0:
299,350,100727,1,0,0:0:0:0:
260,364,100834,6,2,P|211:342|165:244,1,162.000000617981,4|0,1:2|0:0,1:0:0:0:
284,11,101263,2,2,P|216:26|155:109,1,162.000000617981,4|0,1:2|0:0,1:0:0:0:
37,195,101691,2,2,B|131:203|108:159|196:172,1,162.000000617981,4|0,1:2|0:0,1:0:0:0:
253,122,102120,1,4,1:2:0:0:
443,235,102334,1,0,1:0:0:0:
429,258,102441,1,0,1:0:0:0:
418,282,102549,6,2,P|356:297|303:340,1,108.000000411987,6|0,1:0|0:0,1:0:0:0:
330,216,102977,2,0,P|302:145|326:46,1,162.000000617981,8|0,1:0|0:0,1:0:0:0:
316,62,103406,2,2,P|262:59|211:41,1,108.000000411987,2|0,1:0|0:0,1:0:0:0:
1,141,103834,2,0,P|51:122|105:120,1,108.000000411987,10|2,1:0|0:1,0:0:0:0:
132,124,104156,1,0,0:0:0:0:
157,132,104263,2,2,P|217:169|258:266,1,162.000000617981,0|0,1:0|0:0,1:0:0:0:
297,272,104691,6,0,P|241:279|188:300,1,108.000000411987,10|0,1:0|0:0,0:0:0:0:
290,118,105120,2,0,P|313:63|327:16,1,108.000000411987,2|0,1:0|0:0,0:0:0:0:
422,206,105549,2,0,P|455:252|495:291,1,108.000000411987,10|2,1:0|0:0,0:0:0:0:
491,288,105870,1,2,0:0:0:0:
491,288,105977,5,6,1:0:0:0:
383,358,106191,1,2,0:0:0:0:
339,232,106406,2,0,P|403:201|456:108,1,162.000000617981,8|0,1:0|0:0,0:0:0:0:
457,90,106834,1,0,1:0:0:0:
284,70,107049,1,2,0:0:0:0:
367,22,107263,2,0,P|378:62|376:96,2,72.0000002746582,10|2|2,1:0|0:1|0:1,0:0:0:0:
193,15,107691,6,2,P|171:84|191:192,1,162.000000617981,6|0,1:0|0:0,1:0:0:0:
145,221,108120,2,0,P|190:192|243:180,1,108.000000411987,10|0,1:0|0:0,0:0:0:0:
96,147,108549,2,2,P|41:111|-9:100,1,108.000000411987,2|0,1:0|0:0,1:0:0:0:
127,36,108977,1,10,1:0:0:0:
281,71,109191,5,2,0:0:0:0:
281,71,109299,1,2,0:0:0:0:
281,71,109406,2,2,P|312:131|297:225,1,162.000000617981,6|0,1:0|0:0,1:0:0:0:
298,221,109834,2,0,L|191:215,1,108.000000411987,8|0,1:0|0:0,0:0:0:0:
24,339,110263,2,0,P|77:312|196:308,1,162.000000617981,0|0,1:0|0:0,0:0:0:0:
213,314,110691,1,10,1:0:0:0:
66,219,110906,1,2,0:0:0:0:
66,219,111013,1,2,0:0:0:0:
66,219,111120,6,2,P|32:166|17:102,1,108.000000411987,2|0,1:0|0:0,1:0:0:0:
224,26,111549,2,0,P|258:79|273:143,1,108.000000411987,10|0,1:0|0:0,0:0:0:0:
192,275,111977,2,2,P|153:219|161:124,1,162.000000617981,0|0,1:0|0:0,1:0:0:0:
180,107,112406,1,10,1:0:0:0:
355,32,112620,1,2,0:0:0:0:
355,32,112727,1,2,0:0:0:0:
355,32,112834,6,2,P|405:71|429:224,1,216.000000823975,6|8,1:0|1:0,1:0:0:0:
237,183,113477,1,0,0:0:0:0:
237,183,113584,1,0,0:0:0:0:
237,183,113691,2,0,P|290:172|340:147,1,108.000000411987,0|0,1:0|0:0,0:0:0:0:
351,367,114120,2,0,P|335:303|320:253,1,108.000000411987,10|2,1:0|0:0,0:0:0:0:
323,262,114441,1,2,0:0:0:0:
323,262,114549,6,0,L|210:300,1,108.000000411987,2|0,1:0|0:0,0:0:0:0:
195,57,114977,2,2,L|120:150,1,108.000000411987,10|0,1:0|0:0,1:0:0:0:
412,92,115406,6,2,L|360:36,1,60,4|0,1:2|0:0,1:0:0:0:
335,117,115834,6,0,L|301:142,5,36.0000001373291,0|0|0|0|0|0,1:0|1:0|1:0|1:0|1:0|1:0,0:0:0:0:
257,116,116263,6,2,P|315:174|336:265,1,162.000000617981,6|0,1:0|0:0,1:0:0:0:
334,282,116691,1,8,1:0:0:0:
506,194,116906,1,2,0:0:0:0:
506,194,117013,1,0,1:0:0:0:
506,194,117120,2,0,P|442:183|395:187,1,108.000000411987,0|2,1:0|0:0,0:0:0:0:
225,357,117549,2,0,P|289:368|336:364,1,108.000000411987,10|2,1:0|0:0,0:0:0:0:
281,84,117977,6,0,B|265:180|302:155|280:267,1,162.000000617981,2|0,1:0|0:0,0:0:0:0:
278,275,118406,1,8,1:0:0:0:
106,219,118620,1,2,0:0:0:0:
106,219,118727,1,0,1:0:0:0:
106,219,118834,2,0,L|219:205,1,108.000000411987,2|2,1:0|0:0,0:0:0:0:
370,162,119263,1,8,1:0:0:0:
96,27,119477,5,2,0:1:0:0:
96,27,119584,1,0,0:0:0:0:
96,27,119691,2,2,P|150:42|196:138,1,162.000000617981,2|0,1:0|0:0,1:0:0:0:
196,130,120120,2,0,L|70:144,1,108.000000411987,8|2,1:0|0:0,0:0:0:0:
15,253,120549,2,0,P|21:313|23:367,1,108.000000411987,0|2,1:0|0:0,0:0:0:0:
254,190,120977,6,0,L|261:272,2,72.0000002746582,2|2|2,1:0|0:1|0:1,0:0:0:0:
199,298,121406,2,2,P|272:288|366:300,1,162.000000617981,6|0,1:0|0:0,1:0:0:0:
376,326,121834,2,0,P|423:321|488:324,1,108.000000411987,10|2,1:0|0:0,0:0:0:0:
322,151,122263,1,2,1:0:0:0:
477,35,122477,1,2,0:0:0:0:
468,66,122584,1,0,0:0:0:0:
449,92,122691,1,10,1:0:0:0:
460,122,122799,1,0,1:0:0:0:
460,154,122906,1,2,1:2:0:0:
456,186,123013,1,0,1:0:0:0:
446,216,123120,6,0,P|367:243|277:231,1,162.000000617981,6|0,1:0|0:0,0:0:0:0:
262,214,123549,1,8,1:0:0:0:
55,117,123763,1,2,0:0:0:0:
55,117,123870,1,0,0:0:0:0:
55,117,123977,2,0,P|34:184|64:285,1,162.000000617981,0|0,1:0|0:0,0:0:0:0:
29,301,124406,2,0,P|68:295|145:301,1,108.000000411987,10|2,1:0|0:0,0:0:0:0:
165,285,124727,1,0,0:0:0:0:
186,260,124834,6,0,L|170:149,1,108.000000411987,2|2,1:0|0:0,0:0:0:0:
299,266,125263,2,0,L|321:155,1,108.000000411987,10|2,1:0|0:0,0:0:0:0:
409,321,125691,2,0,L|453:219,1,108.000000411987,2|2,1:0|0:0,1:0:0:0:
488,127,126120,1,10,1:0:0:0:
200,21,126334,5,2,0:0:0:0:
200,21,126441,1,0,1:0:0:0:
200,21,126549,2,2,P|255:48|306:145,1,162.000000617981,6|0,1:0|0:0,1:0:0:0:
305,162,126977,1,8,1:0:0:0:
12,154,127191,1,2,0:0:0:0:
12,154,127299,1,0,1:0:0:0:
12,154,127406,2,2,P|54:112|152:92,1,162.000000617981,6|0,1:0|0:0,1:0:0:0:
187,105,127834,1,8,1:0:0:0:
161,351,128049,5,2,0:1:0:0:
161,351,128156,1,8,1:0:0:0:
161,351,128263,2,2,P|93:306|70:218,1,162.000000617981,6|0,1:0|0:0,1:0:0:0:
68,200,128691,1,8,1:0:0:0:
357,221,128906,1,2,0:0:0:0:
357,221,129013,1,0,1:0:0:0:
357,221,129120,2,2,P|310:262|196:269,1,162.000000617981,6|0,1:0|0:0,1:0:0:0:
181,263,129549,2,0,L|188:192,1,54.0000002059937,12|0,1:2|0:0,0:0:0:0:
236,151,129763,2,0,L|227:91,1,54.0000002059937,10|10,0:0|0:0,0:0:0:0:
259,26,129977,5,0,1:0:0:0:
489,192,130191,5,8,1:0:0:0:
489,192,130299,1,4,1:2:0:0:
24,193,130513,5,8,1:0:0:0:
24,193,130620,1,4,1:2:0:0:
489,192,130834,5,8,1:0:0:0:
489,192,130942,1,4,1:2:0:0:
24,193,131156,5,8,1:0:0:0:
24,193,131263,1,4,1:2:0:0:
489,192,131477,5,4,1:2:0:0:
412,268,131691,6,0,L|368:264|280:256,1,108.000000411987,2|0,1:2|0:0,0:0:0:0:
200,292,132120,1,0,1:0:0:0:
216,184,132334,1,2,0:0:0:0:
192,80,132549,1,0,1:0:0:0:
296,52,132763,2,0,L|284:96,2,36.0000001373291
328,32,132977,2,0,L|372:36|460:44,1,108.000000411987,2|0,1:2|0:0,0:0:0:0:
428,148,133406,6,0,P|384:144|324:184,1,108.000000411987,0|0,1:2|0:0,0:0:0:0:
300,196,133691,2,0,L|308:252,1,36.0000001373291,2|0,0:0|0:0,0:0:0:0:
243,278,133834,6,0,P|199:282|139:242,1,108.000000411987,0|0,1:2|0:0,0:0:0:0:
76,168,134263,2,0,L|80:124|88:36,1,108.000000411987,2|0,1:2|0:0,0:0:0:0:
88,24,134549,2,0,L|144:16,2,36.0000001373291,2|0|2,0:0|0:0|1:2,0:0:0:0:
240,84,134906,1,2,3:2:0:0:
174,216,135120,6,0,P|166:320|166:352,1,108.000000411987,0|2,1:2|0:0,0:0:0:0:
165,323,135441,1,2,0:0:0:0:
165,323,135549,2,0,P|236:312|276:308,1,108.000000411987,0|0,1:0|3:0,0:0:0:0:
416,201,135977,2,0,P|435:221|448:245,3,54.0000002059937,0|0|2|2,0:0|3:0|0:0|0:0,0:0:0:0:
420,205,136406,6,0,P|316:213|284:213,1,108.000000411987,0|0,1:2|0:0,0:0:0:0:
274,224,136727,1,0,0:0:0:0:
236,237,136834,6,0,P|237:159|276:122,1,108.000000411987,2|0,1:2|0:0,0:0:0:0:
314,16,137156,2,0,P|343:88|322:137,1,108.000000411987,2|0,1:2|0:0,0:0:0:0:
175,100,137477,2,0,P|165:67|167:39,1,54.0000002059937,2|0,1:2|0:0,0:0:0:0:
78,33,137691,2,0,P|179:39|241:31,1,162.000000617981,0|0,1:0|1:0,0:0:0:0:
239,31,138120,2,0,P|252:88|252:140,1,108.000000411987,2|0,1:2|1:0,0:0:0:0:
176,213,138549,5,0,1:0:0:0:
281,234,138763,1,2,2:0:0:0:
346,148,138977,1,0,1:0:0:0:
281,234,139192,1,0,1:0:0:0:
325,332,139407,1,0,1:0:0:0:
181,208,139621,2,0,L|193:164,2,36.0000001373291
154,183,139835,2,0,P|103:191|22:195,1,108.000000411987,2|0,1:2|0:0,0:0:0:0:
146,326,140264,6,0,P|217:299|227:228,1,108.000000411987,0|0,1:2|0:0,0:0:0:0:
245,242,140549,2,0,L|237:186,1,36.0000001373291,2|0,0:0|0:0,0:0:0:0:
252,135,140692,6,0,P|311:130|369:119,1,108.000000411987,0|0,1:2|0:0,0:0:0:0:
505,231,141121,2,0,P|452:220|399:222,1,108.000000411987,2|2,1:2|0:0,0:0:0:0:
399,222,141441,1,2,0:0:0:0:
399,222,141549,1,0,1:0:0:0:
448,61,141763,1,2,3:2:0:0:
358,121,141978,6,0,P|281:117|238:76,1,108.000000411987,0|2,1:2|0:0,0:0:0:0:
257,100,142299,1,2,0:0:0:0:
257,100,142407,2,0,P|268:171|266:213,1,108.000000411987,0|0,1:0|3:0,0:0:0:0:
114,62,142835,2,0,P|140:56|168:57,3,54.0000002059937,0|0|2|2,0:0|3:0|0:0|0:0,0:0:0:0:
123,64,143264,6,0,P|106:119|59:184,1,108.000000411987,0|0,1:2|0:0,0:0:0:0:
78,241,143585,1,0,0:0:0:0:
78,241,143692,6,0,P|112:287|137:352,1,108.000000411987,2|0,1:2|0:0,0:0:0:0:
80,161,144013,2,0,P|134:181|191:222,1,108.000000411987,2|0,1:2|0:0,0:0:0:0:
179,116,144335,2,0,P|212:107|240:111,1,54.0000002059937,2|0,1:2|0:0,0:0:0:0:
315,65,144549,2,0,L|348:212,2,108.000000411987,0|0|0,1:0|1:0|1:0,0:0:0:0:
231,109,145191,1,0,1:0:0:0:
231,109,145299,1,0,1:0:0:0:
231,109,145406,5,4,1:0:0:0:
426,62,145620,1,2,0:0:0:0:
426,62,145727,1,2,0:0:0:0:
426,62,145834,2,0,P|446:117|477:176,1,108.000000411987,0|0,1:0|0:0,0:0:0:0:
285,102,146263,2,0,P|323:146|373:190,1,108.000000411987,0|0,1:0|0:0,0:0:0:0:
359,179,146549,1,2,0:0:0:0:
359,179,146620,1,2,0:0:0:0:
359,179,146691,1,0,1:0:0:0:
167,189,146906,1,0,1:0:0:0:
101,68,147120,6,0,P|73:119|50:182,1,108.000000411987,0|0,1:0|0:0,0:0:0:0:
56,165,147441,1,2,0:0:0:0:
56,165,147549,2,0,P|63:223|62:289,1,108.000000411987,0|2,1:0|0:0,0:0:0:0:
280,328,147977,2,0,P|272:269|273:203,1,108.000000411987,0|0,1:0|0:0,0:0:0:0:
272,220,148263,1,2,0:0:0:0:
272,220,148334,1,2,0:0:0:0:
272,220,148406,1,0,1:0:0:0:
416,309,148620,2,0,L|345:317,1,54.0000002059937,0|2,1:0|0:0,0:0:0:0:
170,312,148834,6,0,P|190:244|290:228,1,162.000000617981,4|2,0:0|0:0,0:0:0:0:
270,220,149263,2,0,P|326:253|341:293,1,108.000000411987,0|2,1:0|0:0,0:0:0:0:
351,165,149584,2,0,P|303:141|280:93,1,108.000000411987,0|2,1:0|0:0,0:0:0:0:
270,220,149906,2,0,L|199:228,1,54.0000002059937,2|2,2:2|0:0,0:0:0:0:
123,169,150120,2,0,P|139:232|147:289,1,108.000000411987,0|2,1:0|2:0,0:0:0:0:
189,359,150441,1,2,0:0:0:0:
239,250,150549,6,0,P|223:187|215:130,1,108.000000411987,0|0,1:0|2:0,0:0:0:0:
168,153,150870,1,2,0:0:0:0:
123,169,150978,2,0,P|66:202|51:242,1,108.000000411987,0|2,1:0|0:0,0:0:0:0:
35,374,151299,2,0,P|82:350|105:302,1,108.000000411987,0|2,1:0|0:0,0:0:0:0:
106,302,151621,2,0,L|177:310,1,54.0000002059937,2|2,2:2|0:0,0:0:0:0:
317,227,151835,2,0,P|260:260|245:300,1,108.000000411987,0|2,1:0|2:0,0:0:0:0:
245,297,152156,1,2,0:0:0:0:
245,297,152263,6,0,P|225:269|176:212,1,108.000000411987,4|0,1:2|0:0,0:0:0:0:
158,33,152691,2,0,P|190:76|226:117,1,108.000000411987,0|2,1:2|0:0,0:0:0:0:
327,154,153120,1,0,1:2:0:0:
408,83,153334,1,0,0:0:0:0:
408,83,153406,1,2,0:0:0:0:
408,83,153477,1,2,0:0:0:0:
408,83,153549,1,0,1:0:0:0:
307,44,153763,1,0,1:0:0:0:
225,116,153977,5,0,1:0:0:0:
152,47,154191,1,0,0:0:0:0:
152,47,154299,1,0,0:0:0:0:
152,47,154406,2,0,P|95:60|45:95,1,108.000000411987,0|2,1:0|0:0,0:0:0:0:
70,120,154727,1,0,0:0:0:0:
85,149,154834,2,0,P|101:177|115:198,1,54.0000002059937,2|0,1:2|0:0,0:0:0:0:
194,193,155049,1,2,0:0:0:0:
181,237,155156,1,0,0:0:0:0:
168,280,155263,2,0,P|159:309|150:334,3,54.0000002059937,0|0|0|0,1:0|0:0|1:0|0:0,0:0:0:0:
78,374,155691,5,4,0:0:0:0:
18,165,155906,1,2,0:0:0:0:
18,165,156013,1,4,0:0:0:0:
262,221,156227,1,2,0:0:0:0:
262,221,156334,1,4,1:2:0:0:
186,244,156549,1,0,0:0:0:0:
186,244,156656,1,0,0:0:0:0:
186,244,156763,1,4,0:0:0:0:
186,244,156870,1,0,0:0:0:0:
186,244,156977,2,0,L|120:250,1,54.0000002059937,4|0,0:0|0:0,0:0:0:0:
107,180,157191,1,0,1:0:0:0:
474,195,157406,6,0,L|479:181,1,10,4|0,1:0|2:0,0:0:0:0:
470,72,157727,2,0,L|474:80,1,10,2|0,1:0|2:0,0:0:0:0:
424,258,158049,6,2,L|434:319,1,60,4|0,1:0|0:0,1:0:0:0:
433,317,158477,1,4,1:2:0:0:
371,166,158691,6,2,L|361:95,1,60.0000022888184,4|2,1:2|1:2,1:0:0:0:
360,204,158906,1,0,1:0:0:0:
337,230,159013,1,2,1:2:0:0:
307,244,159120,6,0,P|255:249|178:232,1,111.999996582031,6|2,1:0|0:0,0:0:0:0:
123,141,159441,1,2,0:0:0:0:
103,124,159549,2,0,P|70:129|39:139,1,55.9999982910157,10|0,1:0|0:0,0:0:0:0:
189,73,159763,2,0,P|221:67|253:58,1,55.9999982910157,2|0,1:0|0:0,0:0:0:0:
128,47,159977,2,0,P|155:136|159:176,1,111.999996582031,2|2,1:0|0:0,0:0:0:0:
119,224,160299,1,2,0:0:0:0:
82,220,160406,2,0,P|102:252|112:275,1,55.9999982910157,10|0,1:0|0:0,0:0:0:0:
187,282,160620,2,0,P|175:313|157:341,1,55.9999982910157,2|0,1:0|0:0,0:0:0:0:
260,308,160834,6,0,P|229:257|220:202,1,111.999996582031,2|2,1:0|0:0,0:0:0:0:
313,133,161156,1,2,0:0:0:0:
335,108,161263,2,0,P|341:168|326:226,1,111.999996582031,10|2,1:0|0:0,0:0:0:0:
216,108,161584,1,2,0:0:0:0:
193,88,161691,2,0,P|216:84|246:73,1,55.9999982910157,2|2,1:0|0:0,0:0:0:0:
306,24,161906,2,0,P|333:29|359:39,1,55.9999982910157,2|2,0:0|0:0,0:0:0:0:
446,80,162120,1,10,1:0:0:0:
268,350,162334,5,6,1:2:0:0:
268,350,162441,1,2,0:0:0:0:
268,350,162549,2,0,P|250:283|264:237,1,111.999996582031,6|2,1:0|0:0,0:0:0:0:
192,198,162870,1,2,0:0:0:0:
210,175,162977,2,0,P|245:153|326:149,1,111.999996582031,10|2,1:0|0:0,0:0:0:0:
311,62,163299,1,2,0:0:0:0:
339,69,163406,2,0,P|386:102|413:161,1,111.999996582031,6|2,1:0|0:0,0:0:0:0:
492,151,163727,1,2,0:0:0:0:
486,186,163834,2,0,P|459:213|439:224,1,55.9999982910157,10|0,1:0|0:0,0:0:0:0:
380,261,164049,1,2,1:0:0:0:
355,287,164156,1,2,0:0:0:0:
345,324,164263,5,6,1:0:0:0:
321,190,164477,1,2,0:1:0:0:
321,190,164584,1,0,0:0:0:0:
321,190,164691,2,0,P|270:151|204:136,1,111.999996582031,10|2,1:0|1:0,0:0:0:0:
343,104,165013,1,8,1:0:0:0:
343,104,165120,2,0,P|390:73|430:28,1,111.999996582031,2|8,1:0|1:0,0:0:0:0:
452,6,165441,2,0,P|466:32|485:56,1,55.9999982910157,0|10,0:0|1:0,0:0:0:0:
345,324,165763,1,2,1:0:0:0:
301,22,165977,5,6,1:0:0:0:
239,138,166191,1,2,0:0:0:0:
213,159,166299,1,2,0:0:0:0:
182,172,166406,2,0,P|119:189|66:187,1,111.999996582031,10|2,1:0|1:0,0:0:0:0:
441,347,166834,5,6,1:0:0:0:
399,269,167049,1,2,0:0:0:0:
387,237,167156,1,2,0:0:0:0:
380,204,167263,2,0,P|377:134|388:89,1,111.999996582031,10|2,1:0|1:0,0:0:0:0:
319,18,167584,1,2,0:0:0:0:
287,39,167691,6,0,P|286:62|293:94,1,55.9999982910157,6|0,1:0|0:0,0:0:0:0:
474,120,167906,2,0,P|480:92|480:64,1,55.9999982910157,2|2,0:0|0:0,0:0:0:0:
450,36,168120,1,14,1:0:0:0:
196,215,168334,1,2,0:0:0:0:
167,232,168441,1,2,0:0:0:0:
145,257,168549,2,0,P|127:283|113:321,1,55.9999982910157,0|0,1:0|1:2,0:0:0:0:
95,92,168763,2,0,P|130:110|170:119,1,55.9999982910157,2|0,1:0|0:1,0:0:0:0:
183,124,168977,1,6,1:0:0:0:
345,340,169191,5,2,1:0:0:0:
345,340,169299,1,0,0:0:0:0:
345,340,169406,2,0,P|327:281|326:219,1,111.999996582031,6|2,1:0|0:0,0:0:0:0:
231,190,169727,1,2,0:0:0:0:
253,200,169834,2,0,P|323:187|358:162,1,111.999996582031,10|2,1:0|0:0,0:0:0:0:
470,155,170156,1,2,0:0:0:0:
438,143,170263,2,0,P|373:117|337:85,1,111.999996582031,6|2,1:0|0:0,0:0:0:0:
276,36,170584,5,2,0:0:0:0:
260,10,170691,2,0,L|253:72,1,55.9999982910157,12|0,1:2|0:0,0:0:0:0:
68,246,170906,2,0,L|128:254,1,55.9999982910157,2|0,1:0|0:0,0:0:0:0:
387,294,171120,1,2,1:0:0:0:
259,158,171334,5,4,1:2:0:0:
259,158,171441,1,0,0:0:0:0:
259,158,171549,1,10,1:0:0:0:
246,229,171763,1,2,1:0:0:0:
231,302,171977,1,4,1:2:0:0:
493,147,172191,6,0,L|432:135,1,55.9999982910157,8|0,1:0|1:0,0:0:0:0:
382,82,172406,1,4,1:2:0:0:
74,285,172620,1,2,1:0:0:0:
508,260,172834,5,6,1:0:0:0:
342,169,173049,1,2,0:0:0:0:
342,169,173156,1,2,0:0:0:0:
342,169,173263,2,0,P|343:200|347:258,1,60.0000022888184,10|0,1:0|0:0,0:0:0:0:
353,362,173477,2,0,P|353:329|350:291,1,60.0000022888184,2|0,1:0|0:0,0:0:0:0:
407,259,173691,2,0,P|345:265|266:257,1,120.000004577637,2|2,1:0|0:0,0:0:0:0:
249,171,174013,1,2,0:0:0:0:
230,193,174120,2,0,P|213:202|155:221,1,60.0000022888184,10|0,1:0|0:0,0:0:0:0:
180,327,174334,2,0,P|208:336|235:350,1,60.0000022888184,2|0,1:0|0:0,0:0:0:0:
72,163,174549,6,0,P|103:226|106:284,1,120.000004577637,4|2,1:2|0:0,0:0:0:0:
176,107,174870,1,2,0:0:0:0:
146,125,174977,2,0,P|98:126|6:97,1,120.000004577637,10|2,1:0|1:0,0:0:0:0:
249,29,175299,1,0,0:0:0:0:
274,13,175406,2,0,P|281:40|280:78,1,60.0000022888184,4|0,1:2|0:0,0:0:0:0:
318,141,175620,2,0,L|250:144,1,60.0000022888184,2|0,1:0|0:0,0:0:0:0:
295,218,175834,1,10,1:0:0:0:
404,8,176049,5,2,1:0:0:0:
404,8,176156,1,0,0:0:0:0:
404,8,176263,2,0,P|386:79|401:140,1,120.000004577637,6|0,1:0|1:0,0:0:0:0:
480,190,176584,1,0,1:0:0:0:
478,223,176691,2,0,P|424:222|339:269,1,120.000004577637,10|0,1:0|1:0,0:0:0:0:
238,327,177013,1,0,1:0:0:0:
255,303,177120,2,0,P|272:246|267:176,1,120.000004577637,2|0,1:0|1:0,0:0:0:0:
315,43,177441,1,0,1:0:0:0:
300,73,177549,2,0,P|270:99|238:112,1,60.0000022888184,10|0,1:0|0:0,0:0:0:0:
180,98,177763,1,2,1:0:0:0:
180,98,177870,1,8,1:0:0:0:
180,98,177977,6,0,L|119:81,1,60.0000022888184,4|0,1:0|0:0,0:0:0:0:
95,152,178191,2,0,L|25:161,1,60.0000022888184,10|0,1:0|0:0,0:0:0:0:
139,252,178406,2,0,L|63:228,1,60.0000022888184,2|8,1:0|1:0,0:0:0:0:
65,311,178620,2,0,L|-3:327,1,60.0000022888184,2|0,1:0|0:0,0:0:0:0:
129,370,178834,1,10,1:0:0:0:
151,350,178941,1,0,0:0:0:0:
179,339,179049,1,0,1:0:0:0:
208,334,179156,1,0,1:0:0:0:
222,307,179263,5,2,1:0:0:0:
244,326,179370,1,0,1:0:0:0:
271,337,179477,1,2,1:0:0:0:
299,344,179584,1,0,1:0:0:0:
333,370,179691,6,0,P|344:310|386:250,1,120.000004577637,6|2,1:0|0:0,0:0:0:0:
474,215,180013,1,2,0:0:0:0:
492,184,180120,2,0,P|445:204|416:208,1,60.0000022888184,12|2,1:2|0:0,0:0:0:0:
469,42,180334,2,0,P|494:66|510:105,1,60.0000022888184,2|0,1:0|1:0,0:0:0:0:
369,130,180549,2,0,P|364:91|392:44,1,60.0000022888184,2|2,1:0|0:0,0:0:0:0:
303,22,180763,1,2,1:2:0:0:
303,22,180870,1,0,1:0:0:0:
303,22,180977,6,0,L|248:56,1,60.0000022888184,12|2,1:2|0:0,0:0:0:0:
198,213,181191,2,0,L|200:146,1,60.0000022888184,2|0,1:0|1:0,0:0:0:0:
77,43,181406,2,0,L|142:74,1,60.0000022888184,6|2,1:0|0:0,0:0:0:0:
109,158,181620,5,0,1:0:0:0:
109,158,181727,1,0,1:0:0:0:
109,158,181834,2,0,L|45:200,1,60.0000022888184,12|2,1:2|0:0,0:0:0:0:
99,335,182049,1,0,1:0:0:0:
99,335,182156,1,2,1:0:0:0:
99,335,182263,2,0,L|54:276,1,60.0000022888184,6|2,1:0|0:0,0:0:0:0:
242,336,182477,1,2,1:0:0:0:
242,336,182584,1,0,1:0:0:0:
242,336,182691,2,0,L|184:367,1,60.0000022888184,12|0,1:2|0:0,0:0:0:0:
234,177,182906,2,0,L|263:232,1,60.0000022888184,2|0,1:0|1:0,0:0:0:0:
314,295,183120,5,6,1:0:0:0:
484,147,183334,1,4,1:2:0:0:
372,360,183549,5,8,1:0:0:0:
372,360,183656,1,2,0:0:0:0:
51,68,183870,5,2,0:0:0:0:
51,68,183977,1,6,1:0:0:0:
330,140,184191,1,4,1:2:0:0:
138,22,184406,5,8,1:0:0:0:
138,22,184513,1,2,0:0:0:0:
138,22,184620,1,0,1:0:0:0:
138,22,184727,1,8,0:0:0:0:
138,22,184834,5,6,1:0:0:0:
192,87,185049,1,4,1:2:0:0:
192,87,185156,1,0,1:0:0:0:
192,87,185263,1,10,1:0:0:0:
240,153,185477,1,2,1:0:0:0:
240,153,185584,1,0,0:0:0:0:
240,153,185691,6,0,L|280:207,1,60.0000022888184,6|0,1:0|0:0,0:0:0:0:
206,324,185906,6,0,L|263:286,1,60.0000022888184,4|0,1:2|0:0,0:0:0:0:
382,364,186120,6,0,L|346:309,1,60.0000022888184,6|0,1:0|0:0,0:0:0:0:
413,186,186334,6,0,L|356:226,1,60.0000022888184,4|0,1:2|1:0,0:0:0:0:
292,248,186549,6,0,L|128:240,1,120.000004577637,4|0,1:0|0:0,0:0:0:0:
100,236,186870,1,0,1:0:0:0:
24,224,186977,2,0,P|0:172|60:92,1,120.000004577637,0|0,1:0|0:0,0:0:0:0:
76,68,187299,1,0,1:0:0:0:
76,68,187406,2,0,L|152:64,1,60.0000022888184,0|0,1:0|0:0,0:0:0:0:
192,152,187620,2,0,L|251:148,1,60.0000022888184,2|0,0:0|0:0,0:0:0:0:
336,88,187834,2,0,L|348:224,1,120.000004577637,4|0,1:2|0:0,0:0:0:0:
420,24,188263,6,0,L|428:184,1,120.000004577637,4|0,1:0|0:0,0:0:0:0:
440,336,188691,1,0,1:0:0:0:
316,260,188906,1,2,0:0:0:0:
304,264,188977,1,0,0:0:0:0:
292,268,189049,1,0,0:0:0:0:
280,272,189120,1,0,1:0:0:0:
104,180,189334,2,0,L|112:252,1,60.0000022888184,2|0,0:0|0:0,0:0:0:0:
120,364,189549,2,0,B|144:308|216:292,1,120.000004577637,4|0,1:2|0:0,0:0:0:0:
224,180,189977,6,0,L|364:160,1,120.000004577637,4|2,1:0|0:0,0:0:0:0:
424,180,190299,1,0,0:0:0:0:
404,104,190406,2,0,P|360:52|296:56,1,120.000004577637,0|2,1:0|0:0,0:0:0:0:
300,52,190691,1,0,0:0:0:0:
284,56,190763,1,0,0:0:0:0:
268,60,190834,2,0,L|140:88,1,120.000004577637,0|2,1:0|0:0,0:0:0:0:
36,192,191263,2,0,L|32:256,1,60.0000022888184,4|0,1:0|2:0,0:0:0:0:
104,352,191477,2,0,L|108:280,1,60.0000022888184,0|0,0:0|1:0,0:0:0:0:
148,216,191691,6,0,L|284:224,1,120.000004577637,4|0,1:0|0:0,0:0:0:0:
507,287,192120,2,0,P|463:310|386:292,1,120.000004577637,0|2,1:0|0:0,0:0:0:0:
369,267,192441,1,0,0:0:0:0:
352,228,192549,2,0,L|364:104,1,120.000004577637,0|2,0:0|0:0,0:0:0:0:
368,92,192834,1,0,0:0:0:0:
376,72,192906,1,0,0:0:0:0:
384,56,192977,1,4,1:2:0:0:
480,168,193191,1,0,0:0:0:0:
192,296,193406,6,0,P|100:296|68:260,1,120.000004577637,4|2,1:0|0:0,0:0:0:0:
72,204,193727,1,0,0:0:0:0:
152,212,193834,2,0,L|280:204,1,120.000004577637,0|2,1:0|0:0,0:0:0:0:
344,248,194156,1,0,0:0:0:0:
416,208,194263,2,0,P|456:256|432:316,1,120.000004577637,0|0,1:0|0:0,0:0:0:0:
366,336,194584,1,0,1:0:0:0:
288,304,194691,2,0,L|276:160,1,120.000004577637,4|0,1:0|0:0,0:0:0:0:
244,40,195120,6,0,L|80:48,1,120.000004577637,4|0,1:0|0:0,0:0:0:0:
416,40,195549,1,0,1:0:0:0:
296,176,195763,1,2,0:0:0:0:
272,172,195834,1,0,0:0:0:0:
244,168,195906,1,0,0:0:0:0:
212,164,195977,2,0,B|80:172,1,120.000004577637,0|2,1:0|0:0,0:0:0:0:
40,237,196299,1,0,0:0:0:0:
80,312,196406,2,0,L|160:308,1,60.0000022888184,0|0,1:0|0:0,0:0:0:0:
284,340,196620,2,0,L|204:344,1,60.0000022888184,0|0,1:0|0:0,0:0:0:0:
216,256,196834,6,0,L|356:252,1,120.000004577637,4|2,1:0|0:0,0:0:0:0:
416,288,197120,1,0,0:0:0:0:
416,288,197191,1,0,0:0:0:0:
416,288,197263,2,0,P|440:224|424:168,1,120.000004577637,4|2,1:0|0:0,0:0:0:0:
364,124,197549,1,0,0:0:0:0:
364,124,197620,1,0,0:0:0:0:
364,124,197692,6,0,L|348:200,1,60.0000022888184,4|0,1:0|0:0,0:0:0:0:
264,264,197906,2,0,L|248:188,1,60.0000022888184,4|0,0:0|0:0,0:0:0:0:
231,131,198120,1,0,1:0:0:0:
159,123,198227,1,0,0:0:0:0:
87,115,198334,1,4,0:0:0:0:
15,107,198441,1,0,0:0:0:0:
108,28,198549,6,0,L|228:44,1,120.000004577637,4|2,1:0|0:0,0:0:0:0:
458,108,198977,6,0,L|338:128,1,95.9999970703126,0|2,1:0|0:0,0:0:0:0:
220,224,199406,6,0,L|320:240,1,71.9999978027344,4|2,1:0|0:0,0:0:0:0:
356,288,199691,1,0,0:0:0:0:
356,288,199763,1,0,0:0:0:0:
356,288,199834,2,0,L|352:360,2,47.9999985351563,0|0|0,1:0|1:0|1:0,0:0:0:0:
368,200,200263,6,2,B|396:140|376:92|376:92|312:116|256:100,1,180.000006866455,2|0,0:0|0:0,0:0:0:0:
224,92,200691,5,4,1:0:0:0:
256,192,200799,12,0,207120,0:0:0:0:
40,312,207549,6,0,L|116:308,1,64,2|0,1:2|0:0,0:0:0:0:
122,312,207870,1,0,0:0:0:0:
140,315,207977,2,0,L|216:311,1,64,0|0,1:0|0:0,0:0:0:0:
120,192,208406,2,0,L|116:128,1,64,2|0,1:2|3:0,3:0:0:0:
304,336,208834,2,0,L|359:333,2,32,0|0|0,1:0|0:0|0:0,0:0:0:0:
416,368,209263,5,0,1:0:0:0:
392,244,209477,1,0,0:0:0:0:
416,368,209691,5,0,1:0:0:0:
392,244,209905,1,0,0:0:0:0:
448,156,210120,6,0,L|456:104,1,32,2|0,1:2|0:0,0:0:0:0:
256,56,210441,1,0,0:0:0:0:
256,56,210549,2,0,L|248:4,1,32,0|0,1:0|0:0,0:0:0:0:
144,140,210870,1,0,0:0:0:0:
144,140,210977,6,0,P|128:172|132:208,1,64,2|0,1:2|0:0,0:0:0:0:
112,228,211299,1,0,0:0:0:0:
112,228,211406,2,0,P|123:261|151:284,1,64,0|0,1:0|0:0,0:0:0:0:
324,340,211834,2,0,L|240:344,1,64,2|0,1:2|0:0,0:0:0:0:
440,264,212263,2,0,L|524:268,1,64,0|0,1:0|0:0,0:0:0:0:
256,116,212691,6,0,L|260:32,1,64,2|0,1:2|0:0,0:0:0:0:
259,179,213120,2,0,L|255:95,1,64,0|0,1:0|0:0,0:0:0:0:
148,256,213549,6,0,L|144:319,1,64,4|0,1:0|0:0,0:0:0:0:
259,179,213976,2,0,L|262:242,1,64,0|0,1:2|0:0,0:0:0:0:
400,312,214406,5,4,1:0:0:0:
140,148,214834,1,0,1:0:0:0:
156,48,215049,1,0,0:0:0:0:
140,148,215263,1,0,1:0:0:0:
140,148,215691,5,2,1:2:0:0:
156,48,215834,1,2,0:0:0:0:
140,148,215977,1,2,0:0:0:0:
156,48,216120,6,0,L|160:120,1,64,4|0,1:0|0:0,0:0:0:0:
143,211,216549,2,0,L|139:147,1,64,0|0,1:0|0:0,0:0:0:0:
40,336,216977,6,0,P|88:328|128:340,1,64,2|0,1:2|0:0,0:0:0:0:
316,364,217406,2,0,P|268:356|228:368,1,64,2|0,1:2|0:0,0:0:0:0:
408,192,217834,6,0,B|384:64|384:64|416:116,1,192,4|0,1:0|0:0,0:0:0:0:
416,116,218691,2,0,B|538:159|538:159|477:160,1,192,4|0,1:0|0:0,0:0:0:0:
475,160,219549,6,0,B|376:244|376:244|405:191,1,192,4|4,1:0|1:2,0:0:0:0:
413,113,220191,1,0,0:0:0:0:
405,189,220406,6,0,B|381:61|381:61|413:113,1,192,4|4,1:0|1:2,0:0:0:0:
256,280,221263,6,0,P|180:268|52:276,1,191.999994140625,4|0,1:0|1:0,0:0:0:0:
40,300,221906,1,0,0:0:0:0:
64,328,222120,6,0,P|132:312|24:192,1,320,2|0,1:2|1:0,0:0:0:0:
83,248,223406,5,2,1:2:0:0:
192,232,223834,5,4,1:0:0:0:
328,209,224263,5,4,1:0:0:0:
500,180,224691,6,0,L|512:92,1,80,4|0,1:2|0:0,0:0:0:0:
328,204,225120,2,0,L|338:283,1,80,0|0,1:0|0:0,0:0:0:0:
512,100,225549,1,0,1:0:0:0:
100,192,225977,5,0,1:0:0:0:
328,204,226406,2,0,L|338:283,1,80,4|0,1:2|0:0,0:0:0:0:
352,289,226727,1,0,0:0:0:0:
364,296,226834,2,0,L|353:216,1,80,0|0,1:0|0:0,0:0:0:0:
416,136,227263,5,4,1:2:0:0:
152,344,227691,1,4,1:0:0:0:
94,280,228120,6,0,B|130:252|194:248|226:292|238:332|238:332|248:280|286:256|286:256|272:208|288:160|336:124|396:124|448:152|476:208|440:280,1,600.000022888184,4|0,1:0|1:0,0:0:0:0:
447,261,230691,6,0,P|483:193|440:92,1,180.000006866455,0|0,1:0|0:0,0:0:0:0:
436,92,231441,1,0,0:0:0:0:
420,88,231549,6,0,L|380:96,1,30.0000011444092,0|0,1:2|0:0,0:0:0:0:
356,164,231763,6,0,L|322:141,1,30.0000011444092
256,184,231977,6,0,L|248:144,1,30.0000011444092
180,120,232191,6,0,L|202:86,1,30.0000011444092
224,256,232406,6,0,L|190:233,1,30.0000011444092
125,264,232620,6,0,L|116:223,1,30.0000011444092
40,207,232834,6,0,L|62:173,1,30.0000011444092
31,108,233048,6,0,L|71:99,1,30.0000011444092
216,72,233263,6,0,L|186:77,1,30.0000011444092
0,88,233477,6,0,L|40:79,1,30.0000011444092
232,52,233691,6,0,L|257:48,7,15.0000005722046
210,90,234120,6,0,P|228:165|236:213,1,120,4|0,1:0|0:0,0:0:0:0:
176,83,234977,6,0,P|194:158|202:206,1,120,0|0,1:0|0:0,0:0:0:0:
18,177,235834,1,2,0:0:0:0:
140,149,236049,1,0,0:0:0:0:
273,83,236263,1,0,0:0:0:0:
273,83,236370,1,0,0:0:0:0:
236,208,236691,6,0,P|218:283|210:331,1,120,0|0,3:0|0:0,0:0:0:0:
394,302,237548,1,2,0:0:0:0:
272,274,237763,1,0,0:0:0:0:
139,208,237977,1,0,0:0:0:0:
139,208,238084,1,0,0:0:0:0:
327,153,238299,5,0,0:0:0:0:
327,153,238406,2,0,L|341:89,1,60,0|0,3:0|2:0,0:0:0:0:
414,136,239049,2,0,L|435:55,1,80
434,58,239691,1,2,0:0:0:0:
434,58,239799,1,0,0:0:0:0:
254,218,240120,6,0,L|182:230,1,60,0|0,3:0|0:0,0:0:0:0:
78,235,240441,1,0,0:0:0:0:
212,333,240763,2,0,P|270:355|345:335,1,120.000004577637
464,207,241406,1,2,0:0:0:0:
464,207,241513,1,0,0:0:0:0:
99,111,241727,5,0,0:0:0:0:
106,120,241834,2,0,L|125:221,1,80,0|0,3:0|0:0,0:0:0:0:
197,153,242156,1,0,0:0:0:0:
9,219,242477,1,0,0:0:0:0:
341,289,242691,2,0,P|283:251|243:235,1,80,2|0,0:0|0:0,0:0:0:0:
248,235,243013,1,0,0:0:0:0:
363,209,243120,2,0,L|431:213,1,60.0000022888184
283,154,243549,6,0,L|176:145,1,80,0|0,3:0|0:0,0:0:0:0:
365,99,243869,1,0,0:0:0:0:
154,239,244192,1,0,0:0:0:0:
56,181,244406,2,0,P|31:116|8:79,1,80,2|0,2:0|3:0,3:0:0:0:
12,82,244726,1,0,3:0:0:0:
127,154,244833,2,0,L|195:158,1,60.0000022888184
462,248,245263,5,0,3:0:0:0:
189,355,245584,1,0,0:0:0:0:
146,92,245906,1,0,0:0:0:0:
64,149,246120,2,0,P|43:207|41:273,1,120.000004577637,2|0,0:0|0:0,0:0:0:0:
397,357,246549,2,0,L|329:353,1,60.0000022888184
228,146,246977,6,0,P|285:146|342:156,1,103.999995239258,0|0,3:0|0:0,0:0:0:0:
475,71,247299,2,0,P|417:71|361:81,1,103.999995239258
235,237,247620,1,0,0:0:0:0:
136,144,247834,2,0,P|74:113|21:100,1,103.999995239258,2|0,0:0|0:0,0:0:0:0:
19,201,248156,1,0,0:0:0:0:
26,101,248263,2,0,L|14:41,1,51.999997619629
19,219,248477,2,0,L|28:286,1,51.999997619629
118,273,248691,6,0,L|300:271,1,155.999992858887,4|0,1:0|0:0,0:0:0:0:
458,270,249334,1,0,0:0:0:0:
204,363,249549,2,0,L|9:361,1,160,2|0,3:0|0:0,0:0:0:0:
156,181,250191,1,0,0:0:0:0:
261,175,250406,6,0,L|443:173,2,155.999992858887,2|0|0,0:0|0:0|0:0,0:0:0:0:
180,88,251263,2,0,L|73:83,1,80,2|0,3:0|0:0,0:0:0:0:
11,80,251691,1,0,0:0:0:0:
11,80,251799,1,0,0:0:0:0:
225,16,252120,5,0,0:0:0:0:
292,200,252441,1,0,0:0:0:0:
219,365,252763,1,0,0:0:0:0:
81,271,252977,2,0,P|63:309|49:356,1,80,2|0,3:0|0:0,0:0:0:0:
33,155,253406,1,0,0:0:0:0:
33,155,253513,1,0,0:0:0:0:
271,144,253834,6,0,P|233:236|218:292,2,120,2|0|0,0:0|0:0|0:0,0:0:0:0:
371,132,254691,2,0,L|462:126,1,80,2|0,3:0|0:0,0:0:0:0:
171,141,255120,1,0,0:0:0:0:
171,141,255227,1,0,0:0:0:0:
333,352,255549,5,0,1:0:0:0:
333,347,255656,1,0,3:0:0:0:
333,342,255763,1,0,3:0:0:0:
333,337,255870,1,0,3:0:0:0:
333,332,255977,1,0,3:0:0:0:
333,327,256084,1,0,3:0:0:0:
333,322,256191,1,0,3:0:0:0:
333,317,256299,1,0,3:0:0:0:
333,312,256406,1,2,3:0:0:0:
332,307,256513,1,0,3:0:0:0:
331,302,256620,2,0,L|282:281,1,40,0|0,3:0|3:0,3:0:0:0:
407,239,256834,2,0,L|456:218,1,40,0|0,3:0|3:0,3:0:0:0:
213,303,257049,2,0,L|198:352,1,40
189,219,257263,5,0,3:0:0:0:
189,214,257370,1,0,3:0:0:0:
189,209,257477,1,0,3:0:0:0:
189,204,257584,1,0,3:0:0:0:
189,199,257691,1,0,3:0:0:0:
189,194,257798,1,0,3:0:0:0:
189,189,257905,1,0,3:0:0:0:
189,184,258013,1,0,3:0:0:0:
189,179,258120,1,2,3:0:0:0:
190,174,258227,1,0,3:0:0:0:
191,169,258334,2,0,L|240:148,1,40,0|0,3:0|3:0,3:0:0:0:
115,106,258548,2,0,L|66:85,1,40,0|0,3:0|3:0,3:0:0:0:
325,192,258763,2,0,L|370:183,1,40,0|0,3:0|3:0,0:0:0:0:
258,140,258977,5,0,3:0:0:0:
257,135,259084,1,0,3:0:0:0:
258,132,259191,1,0,3:0:0:0:
257,127,259299,1,0,3:0:0:0:
257,122,259406,1,0,3:0:0:0:
257,117,259513,1,0,3:0:0:0:
257,112,259620,1,0,3:0:0:0:
257,107,259727,1,0,3:0:0:0:
257,102,259834,1,2,3:0:0:0:
257,97,259941,1,0,3:0:0:0:
257,92,260049,1,0,3:0:0:0:
257,87,260156,1,0,3:0:0:0:
257,82,260263,5,0,3:0:0:0:
257,77,260370,1,0,3:0:0:0:
257,72,260477,1,0,3:0:0:0:
257,67,260584,1,0,3:0:0:0:
257,62,260691,1,0,3:0:0:0:
257,57,260799,1,0,3:0:0:0:
257,52,260906,1,2,3:0:0:0:
257,47,261013,1,0,3:0:0:0:
257,42,261120,1,2,3:2:0:0:
257,37,261227,1,2,3:0:0:0:
257,32,261334,1,0,3:0:0:0:
257,27,261441,1,2,3:2:0:0:
256,22,261549,1,2,3:0:0:0:
339,158,261763,6,0,L|400:170,1,40,2|0,3:0|0:0,0:0:0:0:
178,269,262084,6,0,L|117:281,1,40,2|0,3:0|0:0,0:0:0:0:
244,116,262406,6,0,L|251:239,1,103.999995239258,6|0,1:0|0:0,0:0:0:0:
145,80,262727,2,0,L|154:17,1,51.999997619629,2|0,0:1|1:2,0:0:0:0:
315,68,262941,1,0,0:0:0:0:
315,68,263049,2,0,P|393:68|441:41,1,103.999995239258,2|0,0:1|1:0,0:0:0:0:
235,12,263477,5,2,0:1:0:0:
474,107,263691,1,2,1:0:0:0:
474,107,263799,2,0,L|479:176,1,51.999997619629,2|2,0:1|0:3,0:0:0:0:
421,298,264013,1,2,0:3:0:0:
421,298,264120,2,0,P|369:251|297:260,1,103.999995239258,2|0,1:0|0:0,0:0:0:0:
177,259,264441,2,0,L|201:186,1,51.999997619629,2|0,0:1|1:0,0:0:0:0:
304,86,264656,1,0,0:0:0:0:
304,86,264763,2,0,P|315:145|295:199,1,103.999995239258,2|0,0:1|1:2,0:0:0:0:
80,354,265191,5,2,0:1:0:0:
146,76,265406,1,0,1:2:0:0:
146,76,265513,1,2,0:1:0:0:
224,333,265727,1,2,0:3:0:0:
224,333,265834,2,0,L|282:352,2,51.999997619629,2|0|0,1:0|0:0|0:0,0:0:0:0:
130,215,266156,2,0,L|56:185,2,51.999997619629,2|0|0,0:1|1:0|0:0,0:0:0:0:
250,130,266477,2,0,L|328:112,1,51.999997619629,2|0,0:1|0:0,0:0:0:0:
398,168,266691,1,0,1:2:0:0:
132,19,266906,6,0,L|70:7,1,51.999997619629,2|0,0:1|0:0,0:0:0:0:
198,121,267120,2,0,L|275:134,1,51.999997619629,2|0,1:0|0:0,0:0:0:0:
123,238,267334,1,2,0:3:0:0:
108,216,267441,1,2,0:3:0:0:
108,190,267549,2,0,P|151:184|215:221,1,103.999995239258,2|0,1:0|0:0,0:0:0:0:
129,365,267870,2,0,L|143:257,1,103.999995239258,2|0,0:1|0:0,0:0:0:0:
290,131,268191,2,0,L|298:199,1,51.999997619629,2|0,0:1|0:0,0:0:0:0:
266,287,268406,1,0,1:2:0:0:
224,17,268620,6,0,L|316:7,1,51.999997619629,2|0,0:1|0:0,0:0:0:0:
377,121,268834,1,2,1:1:0:0:
377,121,268941,2,0,L|309:105,1,51.999997619629,2|2,0:0|0:3,0:0:0:0:
128,52,269156,1,2,0:3:0:0:
128,52,269263,2,0,P|108:109|126:174,1,103.999995239258,2|0,1:0|0:0,0:0:0:0:
175,344,269584,2,0,P|195:287|177:222,1,103.999995239258,2|0,0:1|0:0,0:0:0:0:
17,122,269906,2,0,P|20:183|59:230,1,103.999995239258,2|0,0:1|1:2,0:0:0:0:
271,32,270334,6,0,L|324:4,1,51.999997619629,2|0,0:1|0:0,0:0:0:0:
234,150,270549,1,2,1:0:0:0:
234,150,270656,2,0,L|244:218,1,51.999997619629,2|2,0:0|0:3,0:0:0:0:
139,79,270870,1,2,0:3:0:0:
139,79,270977,2,0,P|66:63|18:92,1,103.999995239258,2|0,1:0|0:0,0:0:0:0:
43,215,271299,2,0,L|54:279,1,51.999997619629,2|0,0:1|1:0,0:0:0:0:
176,370,271513,1,0,0:0:0:0:
176,370,271620,2,0,P|181:322|188:303,1,51.999997619629,2|0,0:1|0:0,0:0:0:0:
277,241,271834,1,0,1:2:0:0:
10,78,272049,6,0,L|18:129,1,51.999997619629,2|0,0:1|0:0,0:0:0:0:
166,213,272263,1,2,1:0:0:0:
166,213,272370,2,0,L|179:295,1,51.999997619629,2|2,0:1|0:3,0:0:0:0:
336,85,272584,1,2,0:3:0:0:
336,85,272691,2,0,L|416:48,2,51.999997619629,2|0|0,1:0|0:0|0:0,0:0:0:0:
262,248,273013,2,0,L|267:318,2,51.999997619629,2|0|0,0:1|1:0|0:0,0:0:0:0:
184,89,273334,2,0,L|104:52,1,51.999997619629,2|0,0:1|0:0,0:0:0:0:
10,78,273549,1,0,1:2:0:0:
324,153,273763,5,2,0:1:0:0:
135,314,273977,1,2,1:0:0:0:
145,271,274084,2,0,L|158:212,1,51.999997619629,2|2,0:1|0:3,0:0:0:0:
328,157,274299,1,2,0:3:0:0:
358,199,274406,2,0,P|369:253|336:306,1,103.999995239258,2|0,1:0|0:0,0:0:0:0:
232,89,274727,2,0,L|243:17,2,51.999997619629,2|0|0,0:1|1:1|0:0,0:0:0:0:
246,271,275049,2,0,L|235:381,1,103.999995239258,2|0,0:1|1:2,0:0:0:0:
115,56,275477,6,2,B|155:26|155:26|151:53,1,68.0000012969971,6|0,1:2|1:0,0:1:0:0:
115,195,275691,6,0,L|104:256,1,51.999997619629,2|2,1:0|0:0,0:0:0:0:
240,120,275906,2,0,L|233:68,1,51.999997619629,6|0,1:3|1:0,0:0:0:0:
199,261,276119,6,0,L|208:373,1,103.999995239258,6|0,1:0|0:0,0:0:0:0:
311,211,276441,2,0,P|344:170|426:154,1,103.999995239258,2|0,0:1|0:0,0:0:0:0:
411,344,276763,2,0,L|325:328,1,51.999997619629,2|0,0:1|0:0,0:0:0:0:
479,276,276977,1,0,1:2:0:0:
242,333,277191,5,2,0:1:0:0:
472,155,277406,1,2,1:0:0:0:
472,155,277513,1,2,0:0:0:0:
329,363,277727,1,2,0:3:0:0:
329,363,277833,2,0,P|325:303|292:254,1,103.999995239258,2|0,1:0|0:0,0:0:0:0:
152,247,278156,2,0,L|145:326,1,51.999997619629,2|0,0:1|1:1,0:0:0:0:
250,184,278370,1,0,0:0:0:0:
250,184,278477,2,0,L|241:115,1,51.999997619629,2|0,0:1|0:0,0:0:0:0:
135,53,278691,1,0,1:2:0:0:
364,149,278906,6,0,L|433:172,1,51.999997619629,2|0,0:1|0:0,0:0:0:0:
270,47,279120,1,2,1:0:0:0:
270,47,279227,2,0,L|334:32,1,51.999997619629,2|2,0:1|0:3,0:0:0:0:
250,184,279441,1,2,0:3:0:0:
202,200,279549,2,0,P|160:172|135:101,1,103.999995239258,2|0,1:0|0:0,0:0:0:0:
283,254,279870,2,0,L|278:372,1,103.999995239258,2|0,0:1|0:0,0:0:0:0:
49,328,280191,2,0,L|60:210,1,103.999995239258,2|0,0:1|1:0,0:0:0:0:
218,67,280620,5,2,0:1:0:0:
190,280,280834,2,0,L|176:350,1,51.999997619629,2|0,1:0|0:0,0:0:0:0:
104,155,281049,2,0,L|34:139,1,51.999997619629,2|2,0:3|0:3,0:0:0:0:
218,67,281263,2,0,L|285:49,2,51.999997619629,2|0|0,1:0|0:0|0:0,0:0:0:0:
149,216,281584,2,0,L|98:229,2,51.999997619629,2|0|0,0:1|1:0|0:0,0:0:0:0:
329,224,281906,2,0,L|389:211,1,51.999997619629,2|0,0:1|0:0,0:0:0:0:
455,285,282120,1,2,1:2:0:0:
224,157,282334,5,2,0:1:0:0:
442,58,282549,1,2,1:0:0:0:
461,97,282656,2,0,L|468:174,1,51.999997619629,2|0,0:0|0:0,0:0:0:0:
349,291,282870,1,2,0:3:0:0:
349,291,282977,2,0,P|390:245|464:252,1,103.999995239258,2|0,1:0|0:0,0:0:0:0:
338,373,283299,2,0,P|282:372|216:326,1,103.999995239258,2|0,0:1|0:0,0:0:0:0:
117,209,283620,2,0,L|114:151,1,51.999997619629,2|0,0:1|0:0,0:0:0:0:
193,84,283834,1,0,1:2:0:0:
140,329,284049,6,0,L|130:393,1,51.999997619629,2|0,0:1|0:0,0:0:0:0:
35,195,284263,1,2,1:0:0:0:
28,145,284370,2,0,P|43:102|71:82,1,51.999997619629,2|2,0:0|0:3,0:0:0:0:
193,84,284584,1,2,0:3:0:0:
193,84,284691,2,0,P|250:94|324:70,1,103.999995239258,2|0,1:0|0:0,0:0:0:0:
133,18,285013,2,0,L|64:24,1,51.999997619629,2|0,0:1|1:0,0:0:0:0:
114,157,285227,1,0,0:0:0:0:
129,208,285333,2,0,L|147:279,1,51.999997619629,2|0,0:1|0:0,0:0:0:0:
298,89,285548,6,0,L|320:27,1,51.999997619629,0|2,1:2|0:3,0:0:0:0:
263,270,285763,2,0,L|286:335,1,60.0000022888184,2|2,0:1|0:3,0:0:0:0:
193,84,285977,1,2,1:0:0:0:
149,60,286084,2,0,P|104:51|59:67,1,64,2|2,0:1|3:0,0:0:0:0:
28,230,286299,1,2,0:3:0:0:
57,271,286406,2,0,P|80:332|82:375,1,103.999995239258,2|0,1:0|0:0,0:0:0:0:
187,234,286727,2,0,P|225:197|266:188,1,51.999997619629,2|0,0:1|1:0,0:0:0:0:
374,276,286941,1,0,0:0:0:0:
379,330,287049,2,0,L|385:389,2,51.999997619629,2|0|0,0:1|0:0|1:0,0:0:0:0:
342,23,287477,5,2,0:1:0:0:
262,227,287691,1,0,1:2:0:0:
245,272,287799,2,0,P|240:312|246:339,1,51.999997619629,2|2,0:1|0:3,0:0:0:0:
352,176,288013,1,2,0:3:0:0:
306,146,288120,2,0,P|271:136|178:188,1,103.999995239258,2|0,1:0|0:0,0:0:0:0:
57,281,288441,2,0,L|51:147,1,103.999995239258,2|0,1:1|0:1,0:0:0:0:
181,70,288763,2,2,B|201:139|152:154|189:228,1,155.999992858887,2|0,1:0|0:0,0:1:0:0:
389,237,289191,6,2,B|395:187|395:187|380:200,1,68.0000012969971,4|4,1:2|0:3,0:3:0:0:
295,293,289406,6,2,L|308:364,1,51.999997619629,2|6,1:0|0:3,0:3:0:0:
474,216,289619,2,2,L|483:158,1,51.999997619629,2|6,1:2|1:3,0:3:0:0:
398,59,289834,6,0,L|259:40,1,111.999996582031,6|2,1:0|0:0,0:0:0:0:
249,194,290156,1,2,0:1:0:0:
236,212,290263,2,0,P|236:175|245:138,1,55.9999982910157,4|2,1:2|0:0,0:0:0:0:
139,8,290477,2,0,P|158:60|157:137,1,111.999996582031,2|0,0:1|1:2,0:0:0:0:
70,235,290799,1,2,0:0:0:0:
44,256,290906,1,2,1:0:0:0:
26,284,291013,1,0,0:0:0:0:
1,306,291120,6,0,L|69:327,1,55.9999982910157,2|2,1:0|0:1,0:0:0:0:
241,300,291334,1,2,0:0:0:0:
257,296,291441,1,2,0:0:0:0:
272,288,291549,2,2,P|222:275|177:222,1,111.999996582031,2|0,1:0|1:0,1:0:0:0:
259,45,291870,1,2,0:1:0:0:
237,30,291977,2,0,P|204:60|192:91,1,55.9999982910157,4|0,1:2|0:0,0:0:0:0:
341,184,292191,2,2,B|473:191,1,111.999996582031,2|6,0:1|1:0,1:0:0:0:
512,92,292513,1,0,0:0:0:0:
489,75,292620,1,2,1:0:0:0:
461,69,292727,1,2,0:0:0:0:
431,28,292834,6,0,L|421:100,1,55.9999982910157,6|2,1:0|0:1,0:0:0:0:
218,316,293049,1,2,0:0:0:0:
229,335,293156,1,2,0:0:0:0:
235,356,293263,2,0,P|238:295|247:237,1,111.999996582031,2|0,1:0|0:0,0:0:0:0:
300,150,293584,1,2,0:1:0:0:
317,126,293691,2,0,P|312:89|305:60,1,55.9999982910157,4|0,1:2|0:0,0:0:0:0:
185,24,293906,2,2,P|119:39|61:40,1,111.999996582031,2|0,0:1|1:0,1:0:0:0:
15,215,294227,1,0,0:0:0:0:
47,207,294334,1,2,0:1:0:0:
80,207,294441,1,2,0:0:0:0:
111,219,294549,6,0,P|132:242|154:278,1,55.9999982910157,2|2,1:0|0:1,0:0:0:0:
274,331,294763,1,0,1:0:0:0:
283,348,294870,1,0,1:0:0:0:
290,369,294977,2,0,P|300:302|336:240,1,111.999996582031,2|0,1:0|0:0,0:0:0:0:
447,187,295299,1,2,0:1:0:0:
478,166,295406,2,0,P|404:175|347:166,1,111.999996582031,0|2,1:0|1:1,0:0:0:0:
116,36,295727,5,0,1:0:0:0:
99,19,295834,2,0,L|32:35,2,55.9999982910157,4|2|2,1:2|0:0|0:0,0:0:0:0:
202,77,296156,1,0,1:0:0:0:
219,60,296263,2,0,L|286:76,2,55.9999982910157,4|0|0,1:2|1:0|1:0,0:0:0:0:
112,135,296584,1,0,1:0:0:0:
103,157,296691,6,0,P|86:224|105:297,1,111.999996582031,6|0,1:0|0:0,0:0:0:0:
237,356,297013,1,2,0:1:0:0:
274,349,297120,2,0,L|217:333,1,55.9999982910157,0|0,1:2|0:0,0:0:0:0:
293,166,297334,1,2,1:0:0:0:
271,173,297441,1,0,1:2:0:0:
254,175,297549,2,0,L|311:191,1,55.9999982910157,4|0,1:2|0:0,0:0:0:0:
345,282,297763,2,0,L|291:266,1,55.9999982910157,2|0,1:0|0:0,0:0:0:0:
508,82,297977,6,0,L|524:22,1,55.9999982910157,2|0,1:0|0:0,0:0:0:0:
394,25,298191,1,2,1:2:0:0:
394,25,298299,1,0,1:2:0:0:
394,25,298406,2,0,P|385:89|411:139,1,111.999996582031,2|0,1:0|0:0,0:0:0:0:
432,230,298727,1,2,0:1:0:0:
437,253,298834,2,0,P|432:283|413:315,1,55.9999982910157,4|0,1:2|0:0,0:0:0:0:
281,363,299049,1,2,0:1:0:0:
265,333,299156,1,2,0:0:0:0:
257,299,299263,2,0,P|270:269|290:249,1,55.9999982910157,0|0,1:0|0:0,0:0:0:0:
225,54,299477,5,0,1:0:0:0:
256,64,299584,1,0,1:0:0:0:
286,83,299691,2,0,P|297:112|297:141,1,55.9999982910157,2|0,1:0|1:0,0:0:0:0:
439,222,299906,2,0,P|394:216|365:203,1,55.9999982910157,4|0,1:2|1:0,0:0:0:0:
195,145,300120,6,0,L|190:118,7,23.9999992675781,0|0|0|2|0|0|2|0,1:0|0:0|0:0|0:0|0:0|0:0|0:0|0:0,0:0:0:0:
248,162,300977,6,0,P|216:178|192:200,1,55.9999982910157,2|0,0:0|0:0,0:0:0:0:
143,196,301191,2,0,P|171:219|185:252,1,55.9999982910157,2|2,0:0|0:0,0:0:0:0:
157,324,301406,5,0,1:0:0:0:
119,357,301513,1,0,1:0:0:0:
68,357,301620,1,0,1:0:0:0:
28,325,301727,1,0,1:0:0:0:
22,274,301834,2,0,L|80:278,1,55.9999982910157,4|0,1:2|0:0,0:0:0:0:
257,147,302049,1,2,0:0:0:0:
274,135,302156,2,0,L|216:131,1,55.9999982910157,4|0,1:2|1:0,0:0:0:0:
56,37,302370,5,0,1:0:0:0:
17,69,302477,1,0,1:0:0:0:
14,119,302584,1,0,1:0:0:0:
20,160,302691,6,0,L|58:162,1,27.9999991455078,0|0,1:0|1:0,0:0:0:0:
28,186,302799,6,0,L|62:174,1,27.9999991455078,0|0,1:0|0:0,0:0:0:0:
42,207,302906,6,0,L|69:186,1,27.9999991455078,8|0,1:0|0:0,0:0:0:0:
56,223,303013,6,0,L|76:193,1,27.9999991455078,0|0,1:0|1:0,0:0:0:0:
82,235,303120,6,0,L|79:143,1,80,6|2,1:0|1:0,0:0:0:0:
136,109,303334,5,0,1:0:0:0:
212,75,303441,5,0,1:0:0:0:
323,90,303548,5,4,1:0:0:0:
