osu file format v14

[General]
AudioFilename: assdg.mp3
AudioLeadIn: 0
PreviewTime: 97331
Countdown: 0
SampleSet: Soft
StackLeniency: 0.7
Mode: 0
LetterboxInBreaks: 0
WidescreenStoryboard: 0

[Editor]
DistanceSpacing: 1
BeatDivisor: 8
GridSize: 4
TimelineZoom: 2.2

[Metadata]
Title:All the Ills of This World -eleison-
TitleUnicode:この世すべての悪 -eleison-
Artist:zts
ArtistUnicode:zts
Creator:EvilElvis
Version:Hard
Source:Fate/stay night
Tags:
BeatmapID:685978
BeatmapSetID:306467

[Difficulty]
HPDrainRate:6
CircleSize:4
OverallDifficulty:7
ApproachRate:8
SliderMultiplier:1.4
SliderTickRate:1

[Events]
//Background and Video events
0,0,"GOYC6.jpg",0,0
//Break Periods
//Storyboard Layer 0 (Background)
//Storyboard Layer 1 (Fail)
//Storyboard Layer 2 (Pass)
//Storyboard Layer 3 (Foreground)
//Storyboard Sound Samples

[TimingPoints]
27042,461.538461538462,3,2,0,50,1,0
50349,461.538461538462,3,2,0,50,1,0
62118,461.538461538462,3,2,0,50,1,0
66964,-100,3,2,0,30,0,0
67079,-100,3,2,0,50,0,0
67425,-100,3,2,0,30,0,0
67483,-100,3,1,0,50,0,0
67683,480,3,2,0,50,1,0
69123,500,3,2,0,50,1,0
70156,521.739130434783,3,2,0,50,1,0
70677,545.454545454546,3,2,0,50,1,0
70949,571.428571428571,3,2,0,50,1,0
71245,600,3,2,0,50,1,0
71545,631.578947368421,3,2,0,50,1,0
71850,666.666666666667,3,2,0,50,1,0
72162,705.882352941176,3,2,0,50,1,0
72455,750,3,2,0,50,1,0
72773,800,3,2,0,50,1,0
73091,857.142857142857,3,2,0,50,1,0
73399,923.076923076923,3,2,0,50,1,0
73735,1000,3,2,0,50,1,0
74716,461.538461538462,3,2,0,70,1,0
85100,-76.9230769230769,3,2,0,70,0,0
85792,-100,3,2,0,60,0,0
97331,461.538461538462,3,2,0,80,1,0
107254,-100,3,2,0,50,0,0
107369,-100,3,2,0,80,0,0
107715,-100,3,2,0,60,0,0
107831,-100,3,2,0,80,0,0
113484,-200,3,2,0,50,0,0
113715,-100,3,1,0,80,0,0
136100,-76.9230769230769,3,1,0,80,0,1
174869,-76.9230769230769,3,1,0,80,0,0

[Colours]
Combo1 : 255,94,55
Combo2 : 173,255,95
Combo3 : 17,254,176
Combo4 : 255,88,100

[HitObjects]
41,189,62118,6,0,P|107:188|172:189,1,105,4|0,0:0|0:0,0:0:0:0:
125,109,62579,2,0,P|165:116|200:122,1,70,0|0,1:0|0:0,0:0:0:0:
269,222,63041,2,0,P|271:271|275:337,1,105,10|0,0:0|0:0,0:0:0:0:
274,326,63502,6,0,P|315:324|350:323,1,70,0|0,1:0|0:0,0:0:0:0:
452,242,63964,2,0,P|399:245|373:247,1,70,0|0,1:0|0:0,0:0:0:0:
322,165,64425,1,10,0:0:0:0:
390,101,64656,1,0,0:0:0:0:
390,101,64771,1,0,0:0:0:0:
390,101,64887,6,0,P|388:56|387:31,1,70,0|0,1:0|0:0,0:0:0:0:
280,90,65348,2,0,L|281:55|282:20,1,70,0|0,1:0|0:0,0:0:0:0:
189,132,65810,1,10,0:0:0:0:
198,53,66041,1,0,0:0:0:0:
198,53,66156,1,0,0:0:0:0:
198,53,66271,6,0,P|146:45|116:43,1,70,0|0,1:0|0:0,0:0:0:0:
3,115,66733,2,0,P|55:107|85:105,1,70,0|8,1:0|1:0,0:0:0:0:
247,153,67194,1,0,0:0:0:0:
247,153,67310,1,0,0:0:0:0:
247,153,67425,2,0,L|275:157,3,17.5,8|0|0|0,1:0|0:0|0:0|0:0,0:0:0:0:
292,135,67683,6,0,P|288:189|285:246,1,105,4|0,0:0|0:0,0:0:0:0:
285,239,68163,2,0,P|330:245|364:249,1,70,0|0,1:0|0:0,0:0:0:0:
448,179,68643,2,0,P|398:175|360:171,1,70,10|0,0:0|0:0,0:0:0:0:
188,284,69123,6,0,P|146:287|88:293,1,70,0|0,1:0|0:0,0:0:0:0:
26,179,69623,2,0,P|68:176|126:170,1,70,0|0,1:0|0:0,0:0:0:0:
285,341,70156,6,0,P|332:342|412:344,1,105,0|0,1:0|0:0,0:0:0:0:
389,343,70677,6,0,L|394:270,1,70,0|0,1:0|1:0,0:0:0:0:
480,137,71245,6,0,L|485:206,1,70,0|0,1:0|1:0,0:0:0:0:
465,31,71850,5,0,1:0:0:0:
465,31,72162,1,0,1:0:0:0:
377,13,72455,5,0,1:0:0:0:
377,13,72773,1,0,1:0:0:0:
301,48,73091,5,0,1:0:0:0:
301,48,73399,1,0,1:0:0:0:
289,124,73735,5,0,1:0:0:0:
289,124,74235,1,4,1:2:0:0:
289,124,74716,6,0,L|363:126,1,70,6|2,1:0|0:0,0:0:0:0:
316,207,75177,2,0,L|385:203,1,70,0|2,1:0|1:0,0:0:0:0:
467,221,75639,1,10,0:0:0:0:
207,163,75869,5,0,1:0:0:0:
207,163,75985,1,0,1:0:0:0:
207,163,76100,2,0,L|133:165,1,70,2|2,1:0|0:0,0:0:0:0:
180,246,76561,2,0,L|110:242,1,70,0|2,1:0|1:0,0:0:0:0:
26,254,77023,1,10,0:0:0:0:
290,213,77254,5,0,1:0:0:0:
290,213,77370,1,0,1:0:0:0:
290,213,77485,2,0,L|364:215,1,70,2|2,1:0|0:0,0:0:0:0:
317,296,77946,2,0,L|386:292,1,70,0|2,1:0|1:0,0:0:0:0:
473,285,78408,5,0,1:0:0:0:
352,373,78639,1,0,1:0:0:0:
222,310,78869,1,2,1:0:0:0:
337,215,79100,1,0,1:0:0:0:
473,285,79331,1,2,1:0:0:0:
352,373,79562,1,0,1:0:0:0:
222,310,79792,1,2,1:0:0:0:
337,215,80023,1,0,0:0:0:0:
468,105,80254,6,0,L|460:35,1,70,6|2,1:0|0:0,0:0:0:0:
358,91,80716,2,0,L|366:21,1,70,0|2,1:0|1:0,0:0:0:0:
282,123,81177,1,10,0:0:0:0:
212,40,81408,5,0,1:0:0:0:
212,40,81523,1,0,1:0:0:0:
212,40,81639,2,0,L|201:113,1,70,2|2,1:0|0:0,0:0:0:0:
108,20,82100,2,0,L|116:89,1,70,0|2,1:0|1:0,1:0:0:0:
20,33,82562,1,10,2:0:0:0:
259,208,82792,5,2,1:0:0:0:
259,208,82908,1,0,0:0:0:0:
259,208,83023,2,0,L|248:286,1,70,6|0,1:0|0:0,0:0:0:0:
340,340,83485,2,0,L|345:271,1,70,0|2,1:0|1:0,0:0:0:0:
146,224,83946,5,0,1:0:0:0:
22,321,84177,1,2,1:0:0:0:
178,319,84408,1,2,1:0:0:0:
43,229,84639,1,0,1:0:0:0:
97,375,84869,1,2,1:0:0:0:
242,127,85100,5,0,1:0:0:0:
242,127,85216,1,0,1:0:0:0:
242,127,85331,2,0,L|85:142,1,136.499993751526,4|0,1:2|0:0,0:0:0:0:
151,217,85792,6,0,L|70:213,1,70,4|2,1:0|0:0,0:0:0:0:
81,213,86139,1,0,0:0:0:0:
81,213,86254,1,0,1:0:0:0:
222,298,86485,1,2,1:0:0:0:
83,317,86716,2,0,L|6:306,1,70,10|2,0:0|0:0,0:0:0:0:
13,307,87062,1,0,0:0:0:0:
13,307,87177,1,0,1:0:0:0:
173,369,87408,5,2,0:0:0:0:
293,344,87639,2,0,L|370:333,1,70,0|2,1:0|1:0,0:0:0:0:
363,334,87985,1,0,0:0:0:0:
363,334,88100,1,10,0:0:0:0:
185,271,88331,1,2,0:0:0:0:
317,214,88562,5,4,1:2:0:0:
192,124,88792,1,2,0:0:0:0:
223,128,88908,1,0,0:0:0:0:
254,131,89023,1,4,1:2:0:0:
347,100,89254,1,2,0:0:0:0:
378,104,89370,1,0,1:0:0:0:
409,107,89485,1,0,1:0:0:0:
494,56,89716,1,0,1:0:0:0:
242,42,89946,6,0,L|169:57,1,70,4|0,1:2|0:0,0:0:0:0:
92,205,90408,2,0,L|103:131,1,70,4|0,1:2|0:0,0:0:0:0:
6,11,90869,2,0,L|78:50,1,70,0|0,1:0|1:0,0:0:0:0:
215,144,91331,6,0,L|201:220,1,70,4|2,1:0|0:0,0:0:0:0:
202,212,91677,1,0,0:0:0:0:
202,212,91792,1,0,1:0:0:0:
124,265,92023,1,2,1:0:0:0:
28,224,92254,1,10,0:0:0:0:
31,248,92369,1,0,0:0:0:0:
33,272,92485,1,2,0:0:0:0:
35,296,92600,1,0,1:0:0:0:
39,320,92716,6,0,L|110:345,1,70,4|2,1:0|0:0,0:0:0:0:
105,343,93062,1,0,0:0:0:0:
105,343,93177,1,0,1:0:0:0:
189,373,93408,1,2,1:0:0:0:
381,326,93639,2,0,L|310:301,1,70,10|2,0:0|1:0,0:0:0:0:
315,303,93985,1,0,1:0:0:0:
315,303,94100,1,6,1:0:0:0:
223,272,94331,5,2,0:0:0:0:
377,222,94562,1,2,1:0:0:0:
468,366,94792,1,2,0:0:0:0:
321,309,95023,5,2,1:0:0:0:
166,225,95254,1,2,1:0:0:0:
57,358,95485,2,0,L|121:368,2,46.6666666666667,4|0|0,1:2|0:0|0:0,0:0:0:0:
59,279,95946,2,0,L|13:272,2,46.6666666666667,0|0|0,1:0|0:0|0:0,0:0:0:0:
126,234,96408,1,4,1:2:0:0:
124,206,96523,1,0,1:0:0:0:
121,177,96639,1,0,1:0:0:0:
118,149,96754,1,0,1:0:0:0:
459,36,97331,6,0,P|462:73|464:113,1,70,4|2,1:0|0:0,0:0:0:0:
463,105,97677,1,2,0:0:0:0:
463,105,97792,1,0,1:0:0:0:
375,180,98023,1,2,0:0:0:0:
493,265,98254,2,0,P|499:231|507:197,1,70,0|2,1:0|0:0,0:0:0:0:
367,268,98715,1,0,1:0:0:0:
480,371,98946,1,2,0:0:0:0:
401,165,99177,6,0,P|396:121|384:49,1,105,4|0,0:2|0:0,0:0:0:0:
386,61,99638,2,0,P|331:73|309:78,1,70,0|2,1:0|0:0,0:0:0:0:
32,52,100100,6,0,P|87:40|109:35,1,70,0|2,1:0|0:0,0:0:0:0:
100,37,100446,1,2,0:0:0:0:
100,37,100561,1,0,1:0:0:0:
248,107,100792,1,2,0:0:0:0:
164,220,101023,1,0,1:0:0:0:
19,138,101254,1,2,0:0:0:0:
46,133,101369,1,2,0:0:0:0:
73,130,101484,6,0,P|77:182|79:212,1,70,0|2,1:0|0:0,0:0:0:0:
248,338,101946,2,0,P|247:287|252:209,1,105,4|0,0:0|0:0,0:0:0:0:
249,233,102407,2,0,P|204:232|175:231,1,70,2|2,1:0|0:0,0:0:0:0:
345,143,102869,6,0,P|302:158|236:153,1,105,6|0,1:0|0:0,0:0:0:0:
243,155,103331,2,0,L|240:82,1,70,0|2,1:0|1:0,0:0:0:0:
369,29,103792,2,0,L|481:37,1,105,2|0,1:0|0:0,0:0:0:0:
473,36,104254,6,0,L|466:115,1,70,6|0,1:0|0:0,0:0:0:0:
275,26,104715,1,0,1:0:0:0:
147,135,104946,1,2,1:0:0:0:
147,135,105061,1,0,0:0:0:0:
147,135,105177,2,0,L|154:213,1,70,2|0,1:0|0:0,0:0:0:0:
49,115,105638,6,0,P|60:182|69:282,2,140,6|0|2,1:0|1:0|1:0,0:0:0:0:
125,37,106792,5,0,0:0:0:0:
125,37,106907,1,0,0:0:0:0:
125,37,107023,2,0,P|168:33|213:27,1,70,2|4,1:0|0:0,0:0:0:0:
198,57,107369,1,0,0:0:0:0:
200,84,107484,1,2,1:0:0:0:
382,91,107715,1,4,0:0:0:0:
302,30,107946,5,2,1:0:0:0:
301,57,108061,1,0,0:0:0:0:
300,85,108177,1,2,1:0:0:0:
299,112,108292,1,0,0:0:0:0:
298,139,108407,2,0,P|246:146|218:151,1,70,4|2,1:2|1:0,0:0:0:0:
232,177,108754,1,0,0:0:0:0:
234,204,108869,1,2,1:0:0:0:
458,179,109100,1,0,1:0:0:0:
372,143,109331,5,2,1:0:0:0:
373,170,109446,1,0,0:0:0:0:
374,198,109562,1,2,1:0:0:0:
375,225,109677,1,0,0:0:0:0:
376,252,109792,2,0,P|428:259|456:264,1,70,4|2,1:2|1:0,0:0:0:0:
466,280,110138,1,0,0:0:0:0:
482,302,110254,1,2,1:0:0:0:
486,329,110369,1,0,0:0:0:0:
479,356,110484,1,4,0:0:0:0:
293,144,110715,5,2,1:0:0:0:
317,114,110831,1,0,0:0:0:0:
354,105,110946,1,2,1:0:0:0:
392,110,111061,1,0,0:0:0:0:
421,135,111177,2,0,P|432:175|436:213,1,70,4|2,1:2|1:0,0:0:0:0:
467,206,111523,1,0,0:0:0:0:
497,200,111638,1,2,1:0:0:0:
496,231,111754,1,0,0:0:0:0:
502,261,111869,1,4,0:0:0:0:
275,348,112100,1,2,1:0:0:0:
281,317,112215,1,0,0:0:0:0:
283,285,112331,1,2,1:0:0:0:
276,254,112446,1,0,0:0:0:0:
265,224,112561,6,0,P|305:217|339:211,1,70,4|2,1:2|1:0,0:0:0:0:
358,191,112907,1,0,0:0:0:0:
363,159,113023,1,4,1:2:0:0:
354,128,113138,1,0,0:0:0:0:
330,106,113254,1,4,1:0:0:0:
72,169,113484,6,0,L|66:211,1,35
68,233,113773,6,0,L|74:249,2,17.5
66,278,113946,6,0,L|56:350,1,70,6|0,1:0|0:0,0:0:0:0:
198,232,114407,1,0,0:2:0:0:
150,113,114638,1,0,0:0:0:0:
150,113,114754,1,0,0:0:0:0:
150,113,114869,1,2,0:0:0:0:
25,155,115100,1,0,0:0:0:0:
282,337,115331,6,0,P|284:302|284:267,1,70,6|0,0:0|0:0,0:0:0:0:
150,213,115792,2,0,P|150:248|153:283,1,70,0|2,0:0|0:0,0:0:0:0:
271,186,116254,1,2,0:0:0:0:
79,122,116484,5,2,0:0:0:0:
79,122,116600,1,0,0:0:0:0:
79,122,116715,2,0,P|125:117|159:114,1,70,6|0,0:0|0:0,0:0:0:0:
403,92,117177,2,0,P|350:88|326:88,1,70,2|0,0:0|0:0,0:0:0:0:
207,231,117638,1,0,0:0:0:0:
171,228,117754,1,2,2:0:0:0:
136,225,117869,1,0,0:0:0:0:
101,224,117984,1,2,2:0:0:0:
66,218,118100,6,0,L|-11:201,1,70,6|0,1:0|0:0,0:0:0:0:
239,141,118561,2,0,L|170:156,1,70,2|0,0:0|0:0,0:0:0:0:
391,259,119023,2,0,L|322:243,1,70
293,232,119369,1,0,0:0:0:0:
264,218,119484,6,0,P|250:269|251:329,1,105,6|0,0:0|2:0,0:0:0:0:
159,293,119946,2,0,P|173:324|183:358,1,70,2|0,1:0|0:0,0:0:0:0:
461,108,120407,6,0,P|422:125|381:190,1,105,2|0,0:0|2:0,0:0:0:0:
385,173,120869,2,0,P|394:218|394:251,1,70,6|0,0:0|0:0,0:0:0:0:
480,322,121331,2,0,P|485:278|495:247,1,70
492,253,121677,1,0,0:0:0:0:
492,253,121792,1,2,1:0:0:0:
377,358,122023,1,0,0:0:0:0:
282,197,122254,6,0,P|285:136|294:70,1,105,6|0,1:0|2:0,0:0:0:0:
304,64,122715,2,0,P|258:65|229:63,1,70,2|0,1:0|0:0,0:0:0:0:
90,175,123177,1,0,0:0:0:0:
121,175,123292,1,2,0:2:0:0:
152,175,123407,1,0,0:0:0:0:
183,174,123523,1,2,0:2:0:0:
207,154,123638,6,0,P|208:190|212:230,1,70,6|0,1:0|0:0,0:0:0:0:
225,307,124100,1,2,1:0:0:0:
0,141,124331,5,2,0:0:0:0:
27,134,124446,1,0,0:0:0:0:
53,124,124561,2,0,P|82:85|91:25,1,105,4|0,1:2|2:0,0:0:0:0:
91,30,125023,6,0,L|126:26|161:22,1,70,6|0,0:0|0:0,0:0:0:0:
258,69,125484,2,0,P|289:69|337:72,1,70
485,83,125946,1,2,0:0:0:0:
408,21,126177,1,0,1:0:0:0:
423,181,126407,6,0,P|467:179|496:177,1,70,6|0,0:0|0:0,0:0:0:0:
258,197,126869,2,0,L|293:199|328:201,1,70
169,232,127331,1,2,0:0:0:0:
36,185,127561,5,0,0:0:0:0:
36,185,127677,1,0,0:0:0:0:
36,185,127792,2,0,P|70:183|105:181,1,70,6|0,0:0|0:0,0:0:0:0:
153,346,128254,2,0,P|118:348|83:349,1,70,2|0,0:0|0:0,0:0:0:0:
77,269,128715,1,0,0:0:0:0:
119,265,128831,1,2,0:2:0:0:
160,264,128946,1,0,0:0:0:0:
201,262,129061,1,2,0:2:0:0:
243,258,129177,6,0,P|244:298|247:344,1,70,6|2,0:0|0:2,0:0:0:0:
477,227,129638,1,2,0:0:0:0:
365,159,129869,1,2,0:0:0:0:
322,267,130100,1,6,0:2:0:0:
416,340,130331,1,0,0:0:0:0:
416,340,130446,1,0,0:0:0:0:
416,340,130561,6,0,P|419:297|417:264,1,70,6|0,0:0|0:0,0:0:0:0:
492,142,131023,1,0,0:0:0:0:
355,76,131254,1,0,0:0:0:0:
284,202,131484,1,2,0:0:0:0:
238,206,131600,1,2,0:2:0:0:
192,210,131715,1,0,0:0:0:0:
146,215,131831,1,2,0:2:0:0:
108,189,131946,6,0,P|114:233|116:274,1,70,6|0,0:0|0:0,0:0:0:0:
285,109,132407,2,0,P|279:65|277:24,1,70,0|2,0:0|0:0,0:0:0:0:
25,141,132869,1,0,0:0:0:0:
261,278,133100,5,0,0:0:0:0:
261,278,133215,1,0,0:0:0:0:
261,278,133331,2,0,P|265:328|265:354,1,70,6|0,0:0|0:0,0:0:0:0:
176,137,133792,2,0,P|171:86|170:9,1,105,0|0,0:0|1:0,0:0:0:0:
169,32,134254,2,0,P|108:40|85:43,1,70
33,220,134715,5,4,2:0:0:0:
33,220,134869,1,0,0:0:0:0:
33,220,135023,1,0,0:0:0:0:
33,220,135177,1,4,2:0:0:0:
33,220,135331,1,0,0:0:0:0:
33,220,135484,1,0,0:0:0:0:
33,220,135638,2,0,L|72:221,5,23.3333333333333,4|0|0|0|0|0,2:0|0:0|0:0|0:0|0:0|0:0,0:0:0:0:
84,258,136100,6,0,P|82:201|75:117,1,136.499993751526,6|0,1:0|2:0,0:0:0:0:
75,121,136561,2,0,P|123:117|179:115,1,90.9999958343508
190,336,137023,1,2,0:0:0:0:
245,130,137254,1,2,0:0:0:0:
290,366,137484,6,0,P|288:312|278:214,1,136.499993751526,4|0,2:0|2:0,0:0:0:0:
280,229,137946,2,0,P|324:218|383:214,1,90.9999958343508,2|0,0:0|0:0,0:0:0:0:
453,353,138407,2,0,P|407:348|363:338,1,90.9999958343508,2|0,0:0|0:0,0:0:0:0:
165,81,138869,6,0,P|173:153|176:225,1,136.499993751526,2|0,0:0|2:0,0:0:0:0:
175,216,139331,2,0,P|128:228|79:235,1,90.9999958343508,0|2,0:0|0:0,0:0:0:0:
12,253,139792,1,0,0:0:0:0:
321,297,140023,1,2,0:0:0:0:
266,139,140254,6,0,P|272:79|277:34,1,90.9999958343508,4|2,0:2|0:0,0:0:0:0:
368,188,140715,2,0,P|363:128|360:82,1,90.9999958343508,4|2,0:2|0:0,0:0:0:0:
458,243,141177,2,0,P|464:183|469:138,1,90.9999958343508,4|0,0:2|0:0,0:0:0:0:
482,114,141523,1,0,0:0:0:0:
496,76,141638,6,0,P|456:37|346:23,1,136.499993751526,6|0,0:0|2:0,0:0:0:0:
379,17,142100,2,0,L|277:41,1,90.9999958343508
1,45,142561,2,0,L|103:21,1,90.9999958343508,2|2,0:0|0:0,0:0:0:0:
84,190,143023,6,0,P|119:141|201:117,1,136.499993751526,4|0,2:0|2:0,0:0:0:0:
188,116,143484,2,0,P|184:77|177:26,1,90.9999958343508,2|0,0:0|0:0,0:0:0:0:
256,21,143946,1,2,0:0:0:0:
204,214,144177,1,0,0:0:0:0:
271,115,144407,6,0,P|283:224|284:270,1,136.499993751526,2|0,0:0|2:0,0:0:0:0:
283,250,144869,2,0,P|337:253|378:245,1,90.9999958343508
472,211,145331,1,2,0:0:0:0:
199,169,145561,5,2,0:0:0:0:
119,162,145792,2,0,P|71:166|21:153,1,90.9999958343508,4|2,0:2|0:0,0:0:0:0:
234,34,146254,2,0,P|278:24|323:28,1,90.9999958343508,4|2,0:2|0:0,0:0:0:0:
354,47,146600,1,2,0:0:0:0:
378,74,146715,2,0,L|365:177,1,90.9999958343508,2|0,0:0|0:0,0:0:0:0:
272,365,147177,6,0,P|260:314|267:229,1,136.499993751526,6|0,0:0|2:0,0:0:0:0:
266,230,147638,2,0,P|208:219|164:221,1,90.9999958343508
176,219,147984,1,0,0:0:0:0:
176,219,148100,1,2,0:0:0:0:
84,278,148331,6,2,P|74:221|94:93,1,181.999991668702,2|0,0:0|0:0,0:0:0:0:
219,30,149023,2,0,P|274:35|311:34,1,90.9999958343508,2|2,0:0|0:0,0:0:0:0:
309,34,149369,1,0,0:0:0:0:
309,34,149484,1,2,0:0:0:0:
461,131,149715,1,2,0:0:0:0:
279,120,149946,6,0,P|215:135|170:209,1,136.499993751526,2|0,0:0|2:0,0:0:0:0:
173,189,150407,2,0,L|190:283,1,90.9999958343508,2|0,0:0|0:0,0:0:0:0:
290,199,150869,1,2,0:0:0:0:
252,366,151100,1,2,0:0:0:0:
252,366,151215,1,0,0:0:0:0:
252,366,151331,6,0,P|183:356|97:360,1,136.499993751526,6|0,0:0|2:0,0:0:0:0:
116,357,151792,2,0,L|19:350,1,90.9999958343508,6|4,0:0|2:0,0:0:0:0:
178,241,152254,1,6,0:0:0:0:
142,248,152369,1,0,0:0:0:0:
106,255,152484,1,0,0:0:0:0:
253,99,152715,6,0,P|214:134|120:152,1,136.499993751526,6|0,0:0|2:0,0:0:0:0:
133,153,153177,2,0,L|34:145,1,90.9999958343508,0|2,0:0|0:0,0:0:0:0:
290,298,153638,2,0,L|181:314,1,90.9999958343508,2|0,0:0|0:0,0:0:0:0:
449,208,154100,6,0,P|373:202|321:158,1,136.499993751526,0|0,0:0|2:0,0:0:0:0:
326,166,154561,2,0,P|312:115|316:75,1,90.9999958343508,2|0,0:0|0:0,0:0:0:0:
509,22,155023,2,0,P|511:67|497:110,1,90.9999958343508,2|0,0:0|0:0,0:0:0:0:
194,359,155484,6,0,L|184:204,1,136.499993751526,6|0,0:0|2:0,0:0:0:0:
185,222,155946,2,0,P|235:218|285:222,1,90.9999958343508
438,361,156407,2,0,P|392:363|347:358,1,90.9999958343508,2|2,0:0|0:0,0:0:0:0:
347,358,156754,1,0,0:0:0:0:
347,358,156869,6,0,P|346:296|357:164,1,181.999991668702,6|4,0:0|0:2,0:0:0:0:
205,51,157561,1,2,0:0:0:0:
268,236,157792,1,4,0:2:0:0:
294,31,158023,1,0,0:0:0:0:
329,39,158138,1,0,0:0:0:0:
364,47,158254,5,6,0:0:0:0:
479,37,158484,1,0,0:0:0:0:
325,124,158715,5,0,0:0:0:0:
428,132,158946,1,0,0:0:0:0:
348,208,159177,5,0,0:0:0:0:
493,195,159407,1,2,0:0:0:0:
290,278,159638,5,6,0:0:0:0:
417,305,159869,1,0,0:0:0:0:
256,372,160100,5,2,0:0:0:0:
342,352,160331,1,0,0:0:0:0:
214,304,160561,1,2,0:0:0:0:
131,337,160792,1,0,0:0:0:0:
131,337,160907,1,0,0:0:0:0:
131,337,161023,5,4,0:2:0:0:
12,268,161254,1,0,0:0:0:0:
201,224,161484,5,4,0:2:0:0:
103,241,161715,1,0,0:0:0:0:
239,145,161946,5,4,0:2:0:0:
68,127,162177,1,0,0:0:0:0:
246,26,162407,5,4,0:0:0:0:
104,44,162638,1,0,0:0:0:0:
125,65,162754,6,0,P|158:94|205:115,1,90.9999958343508,4|0,0:2|0:0,0:0:0:0:
436,141,163100,2,0,P|396:141|329:166,1,90.9999958343508,4|0,0:2|0:0,0:0:0:0:
206,340,163446,2,0,P|233:302|255:238,1,90.9999958343508,4|0,0:2|0:0,0:0:0:0:
396,371,163792,5,6,0:0:0:0:
342,296,164023,1,0,0:0:0:0:
428,266,164254,1,0,0:0:0:0:
487,334,164484,1,0,0:0:0:0:
140,354,164715,5,12,2:0:0:0:
140,354,165177,5,0,0:0:0:0:
241,243,165407,1,0,0:0:0:0:
241,243,165523,1,0,0:0:0:0:
241,243,165638,1,0,0:0:0:0:
97,182,165869,1,0,0:0:0:0:
0,290,166100,1,0,0:0:0:0:
245,345,166331,5,0,0:0:0:0:
280,338,166446,1,0,0:0:0:0:
315,330,166561,1,6,0:0:0:0:
399,358,166792,1,0,0:0:0:0:
265,204,167023,5,0,0:0:0:0:
81,229,167254,1,0,0:0:0:0:
216,125,167484,1,2,0:0:0:0:
158,288,167715,1,0,0:0:0:0:
158,288,167831,1,0,0:0:0:0:
158,288,167946,1,6,0:0:0:0:
23,93,168177,6,0,L|30:57,3,30.3333319447836,0|0|0|2,0:0|0:0|0:0|0:0,0:0:0:0:
71,265,168638,1,2,0:0:0:0:
116,192,168869,1,4,0:2:0:0:
111,160,168984,1,0,0:0:0:0:
107,128,169100,2,0,L|100:86,2,30.3333319447836
119,70,169331,5,6,0:0:0:0:
192,322,169561,2,0,L|199:280,3,30.3333319447836
220,198,170023,5,2,0:0:0:0:
268,381,170254,1,12,2:0:0:0:
268,381,170715,5,6,0:0:0:0:
301,158,170946,2,0,L|290:112,3,30.3333319447836,0|0|0|2,0:0|0:0|0:0|0:0,0:0:0:0:
358,365,171407,5,2,0:0:0:0:
403,162,171638,1,0,0:0:0:0:
405,130,171754,1,0,0:0:0:0:
407,98,171869,2,0,L|408:67,2,30.3333319447836,2|0|0,0:0|0:0|0:0,0:0:0:0:
411,35,172100,1,6,0:0:0:0:
489,254,172331,6,0,L|485:220,3,30.3333319447836,0|0|0|4,0:0|0:0|0:0|0:2,0:0:0:0:
503,347,172792,1,2,0:0:0:0:
297,220,173023,5,2,0:0:0:0:
302,184,173138,1,0,0:0:0:0:
308,147,173254,2,0,L|315:98,2,30.3333319447836
320,80,173484,5,4,0:2:0:0:
274,87,173600,1,0,0:0:0:0:
229,96,173715,1,0,0:0:0:0:
184,104,173831,1,0,0:0:0:0:
139,113,173946,2,0,L|145:78,2,30.3333319447836,4|0|0,0:2|0:0|0:0,0:0:0:0:
108,119,174177,1,0,0:0:0:0:
63,127,174292,1,0,0:0:0:0:
16,136,174407,2,0,L|35:213,2,60.6666638895672,4|0|0,0:2|0:0|0:0,0:0:0:0:
39,56,174869,5,0,1:0:0:0:
