osu file format v6

[General]
AudioFilename: zs3_11_US.mp3
AudioLeadIn: 0
PreviewTime: -1
Countdown: 1
SampleSet: None
StackLeniency: 0.7
Mode: 0
LetterboxInBreaks: 1

[Editor]
Bookmarks: 12851
DistanceSpacing: 0.800000011920929
BeatDivisor: 4
GridSize: 32

[Metadata]
Title:Gekitotsu!! 100-Oku Powaa no Senshi-tachi
Artist:
Creator:YukitoAyanami22
Version:Normal
Source:
Tags:

[Difficulty]
HPDrainRate:5
CircleSize:6
OverallDifficulty:6
SliderMultiplier:1.7
SliderTickRate:1

[Events]
//Background and Video events
0,0,"542led.jpg"
//Break Periods
//Storyboard Layer 0 (Background)
//Storyboard Layer 1 (Fail)
//Storyboard Layer 2 (Pass)
//Storyboard Layer 3 (Foreground)
//Storyboard Sound Samples
//Background Colour Transformations
3,100,163,162,255

[TimingPoints]
5619.57142857143,535.714285714286,4,0,0,100,1,0

[Colours]
Combo1 : 191,255,128
Combo2 : 20,109,16
Combo3 : 0,0,0
Combo4 : 216,124,22

[HitObjects]
38,131,1155,1,0
38,131,1423,1,0
38,131,1690,1,0
132,168,2226,5,0
132,168,2405,5,0
132,168,2494,5,0
132,168,2762,5,0
192,296,3342,6,4,B|283:295,28,85
231,111,11110,5,10
174,290,12851,6,2,B|362:291,1,170
166,127,14191,6,0,B|252:127,3,85,8|0|0|8
157,297,15262,2,0,B|281:294,2,85
136,141,16333,5,2
136,141,16869,1,2
313,272,17405,6,0,B|213:209,2,85
201,110,18476,5,2
201,110,19012,1,2
152,140,19548,6,0,B|240:184,2,85
277,107,20619,1,2
277,107,21155,1,2
209,225,21691,5,0
134,156,21958,5,0
110,92,22226,5,0
169,252,22762,1,2
127,216,23298,1,2
202,156,23833,1,0
235,155,24101,1,0
289,225,24369,1,0
201,246,24905,5,2
145,211,25441,5,0
201,161,25976,1,0
253,138,26244,1,0
256,192,26579,12,10,27516
246,249,27851,5,0
172,241,28387,1,0
224,160,29191,1,0
224,160,29458,1,0
224,160,29726,1,0
224,160,29994,1,0
148,294,30262,6,0,L|247:296,2,85
353,323,31333,2,2,L|353:143,1,170
117,192,32405,6,0,L|225:196,2,85
147,272,33409,1,2
224,249,33923,1,2
320,152,34458,5,0
252,152,34726,1,0
203,104,34994,1,0
107,201,35530,5,0
187,121,36021,1,0
266,176,36512,5,0
236,115,36780,1,0
188,67,37048,1,0
92,163,37583,2,0,L|214:311,1,170
200,157,38655,5,0
266,170,38923,1,0
256,192,39280,12,0,40798
255,189,41066,5,0
110,333,41869,2,0,L|235:334,2,113.333333333333
140,246,42941,1,0
145,233,43208,1,0
176,181,43476,1,0
250,106,43923,1,0
163,194,44458,1,0
275,306,45083,2,0,L|377:306,5,85
182,217,47204,6,0,L|127:179,1,63.75
190,141,47673,1,0
325,102,48208,1,0
179,145,48811,1,0
204,265,49280,1,0
266,223,49548,1,0
200,264,49882,1,0
233,206,50150,1,0
203,260,50418,1,0
238,209,50686,1,0
72,107,51423,5,0
131,143,51691,1,0
183,90,51958,1,0
234,217,52494,1,0
133,116,53030,1,0
133,303,53632,2,4,L|234:305,5,85,4|6|4|6|4|6
185,119,55708,5,0
185,119,55976,1,0
364,211,56780,1,0
272,164,57182,1,0
186,120,57583,1,0
256,192,57650,12,0,60396
