osu file format v6

[General]
AudioFilename: 2.mp3
AudioLeadIn: 0
PreviewTime: -1
Countdown: 1
SampleSet: Normal
StackLeniency: 0.7
Mode: 0
LetterboxInBreaks: 1

[Editor]
DistanceSpacing: 0.800000011920929
BeatDivisor: 3
GridSize: 32

[Metadata]
Title:muscle man (second generations)
Artist:zillponggado
Creator:2965201
Version:Insane
Source:
Tags:

[Difficulty]
HPDrainRate:5
CircleSize:3
OverallDifficulty:9
SliderMultiplier:1.2
SliderTickRate:4

[Events]
//Background and Video events
//Break Periods
//Storyboard Layer 0 (Background)
//Storyboard Layer 1 (Fail)
//Storyboard Layer 2 (Pass)
//Storyboard Layer 3 (Foreground)
//Storyboard Sound Samples
//Background Colour Transformations
3,100,163,162,255

[TimingPoints]
0,500,4,1,0,100,1,0

[Colours]
Combo1 : 255,150,0
Combo2 : 5,240,5
Combo3 : 5,5,240
Combo4 : 240,5,5

[HitObjects]
206,112,2613,1,0
275,129,3076,1,0
163,187,3457,1,0
289,217,4245,1,0
382,147,4609,1,0
196,113,5015,1,0
145,236,5761,1,0
301,202,6125,1,0
286,144,6543,1,0
366,164,6876,1,0
236,282,7290,1,0
123,155,7632,1,0
181,101,8014,1,0
148,190,9524,5,0
324,173,9909,1,0
171,82,10312,1,0
344,79,10720,1,0
248,127,11113,1,0
232,212,11486,1,0
103,159,11842,1,0
144,60,12272,1,0
328,62,12634,1,0
343,128,12995,1,0
232,157,13376,1,0
204,222,13719,1,0
127,159,14142,1,0
246,188,15669,5,0
149,170,16061,1,0
289,110,16441,1,0
208,91,16844,1,0
65,102,17202,1,0
219,222,17597,1,0
369,214,17975,1,0
371,133,18365,1,0
216,134,18730,1,0
124,211,19101,1,0
294,253,19478,1,0
70,169,19855,1,0
125,77,20230,1,0
271,78,20598,1,0
206,149,20991,1,0
365,164,21400,1,0
252,225,21788,1,0
95,201,22138,1,0
109,101,22548,1,0
229,79,22891,1,0
349,90,23274,1,0
271,209,23650,1,0
167,234,24030,1,0
186,195,24446,1,0
196,157,24805,1,0
196,157,25174,1,0
186,195,25562,1,0
186,195,25971,1,0
196,157,26376,1,0
196,157,26720,1,0
186,195,27116,1,0
186,195,27491,1,0
196,157,27891,1,0
329,179,28266,1,0
265,222,28677,1,0
135,257,29039,1,0
69,103,29400,1,0
255,172,30978,5,0
158,179,31719,1,0
129,104,32481,1,0
269,137,33984,5,0
211,177,34326,1,0
105,157,34761,1,0
142,98,35141,1,0
341,87,35509,1,0
281,226,35900,1,0
185,229,36280,1,0
213,84,36646,1,0
115,212,37071,1,0
277,167,37476,1,0
369,161,37865,1,0
267,269,38233,1,0
200,135,38638,1,0
366,76,39006,1,0
218,208,39396,1,0
319,120,39781,1,0
164,24,40157,1,0
111,192,40523,1,0
324,308,40940,1,0
144,122,41264,1,0
281,139,41676,1,0
246,254,42056,1,0
159,257,42411,1,0
144,122,42812,1,0
307,47,43194,1,0
246,169,43574,1,0
110,187,43949,1,0
221,82,44322,1,0
338,182,44702,1,0
186,186,45074,1,0
118,125,45469,1,0
289,117,45830,1,0
177,193,49249,5,0
288,154,49673,1,0
187,128,50071,1,0
321,261,50448,1,0
82,261,50811,1,0
247,149,52358,5,0
358,162,52729,1,0
170,270,53119,1,0
102,162,53495,1,0
323,262,53875,1,0
226,119,54257,1,0
369,111,54658,1,0
219,211,55010,1,0
165,198,55410,1,0
161,111,55815,1,0
292,181,56162,1,0
323,255,56524,1,0
203,254,56924,1,0
239,112,57318,1,0
103,207,57695,1,0
114,142,58061,1,0
316,161,58428,1,0
212,234,58807,1,0
338,256,59209,1,0
225,179,59613,1,0
170,169,60014,1,0
202,104,60385,1,0
312,106,60739,1,0
300,186,61123,1,0
226,232,61518,1,0
184,181,63080,5,0
354,95,63446,1,0
220,201,63826,1,0
184,181,64196,1,0
140,147,64584,1,0
261,142,64957,1,0
302,251,65364,1,0
182,262,65738,1,0
261,142,66136,1,0
344,136,66492,1,0
182,262,66874,1,0
128,155,67236,1,0
344,229,67622,1,0
249,269,67998,1,0
244,168,68394,1,0
194,190,68784,1,0
358,105,69166,1,0
137,99,69545,1,0
129,204,69912,1,0
260,117,70306,1,0
291,182,70682,1,0
200,196,71043,1,0
179,142,71432,1,0
429,164,71805,1,0
249,294,72211,1,0
95,241,72588,1,0
108,122,72953,1,0
281,117,73294,1,0
336,234,73696,1,0
195,223,74096,1,0
176,184,75275,5,0
334,54,75668,1,0
287,159,76038,1,0
109,84,76444,1,0
259,219,76824,1,0
182,116,77228,1,0
152,191,77582,1,0
339,172,77957,1,0
291,60,78342,1,0
182,116,78710,1,0
229,186,79091,1,0
229,106,79495,1,0
85,75,79863,1,0
94,175,80258,1,0
334,146,80585,1,0
254,252,80987,1,0
217,214,81361,1,0
229,84,81728,1,0
373,72,82109,1,0
346,157,82484,1,0
193,179,82888,1,0
167,135,83250,1,0
264,120,83630,1,0
312,200,84027,1,0
193,179,84417,1,0
207,121,84837,1,0
343,141,85209,1,0
259,186,85580,1,0
158,187,85957,1,0
166,124,86352,1,0
259,186,86737,1,0
243,219,87094,1,0
158,187,87483,1,0
166,124,87884,1,0
259,186,88251,1,0
263,277,88587,1,0
122,166,89013,1,0
166,124,89365,1,0
314,131,89759,1,0
301,214,90133,1,0
181,219,90528,1,0
166,124,90868,1,0
314,131,91229,1,0
301,214,91664,1,0
243,234,92069,1,0
230,196,93592,5,0
342,207,95174,1,0
184,156,96674,1,0
184,156,97782,1,0
184,156,98577,1,0
184,156,99343,1,0
313,174,100477,5,0
109,119,101237,1,0
196,166,101970,1,0
304,147,102746,1,0
194,97,103479,1,0
324,111,104271,1,0
212,190,105023,1,0
371,211,105798,1,0
159,191,107362,5,0
249,151,108138,1,0
197,231,108934,1,0
87,72,109630,1,0
99,106,110445,1,0
272,132,111193,1,0
183,126,111946,1,0
183,126,112742,1,0
183,126,113493,1,0
183,126,114237,1,0
183,126,115008,1,0
183,126,115729,1,0
183,126,116512,1,0
217,192,118000,5,0
155,176,118500,1,0
207,144,118833,1,0
129,135,119166,1,0
155,176,119666,1,0
285,194,120000,1,0
169,249,120833,1,0
214,69,121500,1,0
107,119,121833,1,0
290,146,122333,1,0
201,182,122666,1,0
112,192,123000,1,0
363,106,123833,1,0
157,94,124666,1,0
265,182,125333,1,0
254,75,126166,1,0
136,197,126833,1,0
90,135,127666,1,0
319,164,128333,1,0
206,118,128833,1,0
216,192,129166,1,0
176,209,129499,1,0
108,171,129999,1,0
94,121,130333,1,0
167,101,130666,1,0
293,111,130999,1,0
274,182,131333,1,0
177,191,131833,1,0
167,101,132166,1,0
90,129,132666,1,0
99,188,133000,1,0
334,213,133333,1,0
117,190,134833,1,0
286,195,135333,1,0
183,164,135666,1,0
197,269,136000,1,0
355,246,136500,1,0
299,152,136833,1,0
183,164,137166,1,0
148,200,137500,1,0
145,138,138000,1,0
297,119,138333,1,0
320,187,138666,1,0
211,204,139000,1,0
191,156,139500,1,0
297,119,139833,1,0
320,187,140166,1,0
247,222,140500,1,0
141,195,141000,1,0
192,108,141333,1,0
406,109,141833,1,0
335,194,142166,1,0
202,174,142500,1,0
227,121,142833,1,0
294,132,143333,1,0
288,217,143666,1,0
148,199,144000,1,0
147,99,144333,1,0
242,90,144833,1,0
319,136,145166,1,0
226,207,145500,1,0
139,135,147166,5,0
219,147,147500,1,0
209,217,147833,1,0
401,199,148333,1,0
274,66,148666,1,0
132,104,149000,1,0
207,211,149833,1,0
346,179,150500,1,0
235,141,151333,1,0
101,146,152166,1,0
323,180,152833,1,0
189,182,153166,1,0
323,180,153666,1,0
189,182,154000,1,0
323,180,154333,1,0
189,182,154833,1,0
189,182,155500,1,0
399,177,156000,1,0
189,182,156333,1,0
399,177,156666,1,0
235,191,157000,1,0
399,177,157500,1,0
235,191,157833,1,0
347,173,158166,1,0
178,99,158500,1,0
115,239,159000,1,0
291,124,159333,1,0
148,205,159833,1,0
262,212,160166,1,0
201,121,160500,1,0
97,34,160833,1,0
291,60,161333,1,0
147,121,162000,1,0
255,167,162833,1,0
179,149,163500,1,0
136,200,164333,1,0
70,98,165000,1,0
293,115,165833,1,0
220,177,166666,1,0
134,177,167333,1,0
162,64,168166,1,0
135,207,171500,5,0
143,78,171833,1,0
312,91,172333,1,0
210,143,172666,1,0
177,119,173000,1,0
177,119,173500,1,0
177,119,173833,1,0
177,119,174166,1,0
177,119,174666,1,0
264,214,175000,1,0
241,244,175333,1,0
151,245,175666,1,0
81,169,176166,1,0
166,127,176500,1,0
262,124,176833,1,0
254,202,177166,1,0
137,221,177666,1,0
166,127,178000,1,0
208,131,178333,1,0
387,135,178833,1,0
328,187,179166,1,0
247,221,179500,1,0
217,189,179833,1,0
247,144,180333,1,0
343,130,180666,1,0
182,111,181000,1,0
171,186,181500,1,0
334,195,181833,1,0
324,99,182166,1,0
219,142,182666,1,0
171,186,183000,1,0
124,131,183333,1,0
268,125,183833,1,0
152,187,186000,5,0
341,177,186500,1,0
238,150,186833,1,0
266,258,187166,1,0
391,269,187666,1,0
142,83,188500,1,4
