osu file format v5

[General]
AudioFilename: zero tsukaima.mp3
AudioLeadIn: 0
PreviewTime: -1
Countdown: 1
SampleSet: Normal
StackLeniency: 0.7
Mode: 0
LetterboxInBreaks: 1

[Metadata]
Title:TAG
Artist:zero tsukaima
Creator:olveryu
Version:Easy
Source:
Tags:

[Difficulty]
HPDrainRate:5
CircleSize:5
OverallDifficulty:5
SliderMultiplier:1.4
SliderTickRate:1

[Events]
//Background and Video events
0,0,"c3699e2585e33f1e4c088d91.jpg"
//Break Periods
2,23177,39504
//Storyboard Layer 0 (Background)
//Storyboard Layer 1 (Failing)
//Storyboard Layer 2 (Passing)
//Storyboard Layer 3 (Foreground)
//Storyboard Sound Samples
//Background Colour Transformations
3,100,163,162,255

[TimingPoints]
0,545.454545454545,4,1,0,100,1,0

[Colours]
Combo1 : 255,150,0
Combo2 : 5,240,5
Combo3 : 5,5,240
Combo4 : 240,5,5

[HitObjects]
96,64,7363,1,0
160,128,8454,1,0
224,192,9340,1,0
288,256,10295,1,0
352,320,11318,1,0
416,256,12340,1,0
480,192,13159,1,0
416,128,14113,1,0
352,64,14999,1,0
288,0,16022,5,0
224,64,16909,1,0
160,128,17795,1,0
96,192,18886,1,0
256,192,19636,12,0,22977
64,96,40704,5,0
224,96,41659,1,0
384,96,42613,2,0,B|480:320,1,385
64,288,44590,2,0,B|64:32,1,455
448,96,47863,1,0
448,160,48886,5,0
448,224,49772,1,0
448,288,50727,1,0
384,288,51681,1,0
384,224,52636,1,0
384,160,53522,1,0
320,160,54204,6,0,B|320:320|32:320|32:160|32:32|320:32,1,612.5
128,96,57954,1,0
224,160,58840,1,0
128,224,59727,1,0
224,256,60681,1,0
128,320,61704,1,0
224,352,62590,1,0
352,352,63545,6,0,B,1,332.5
256,32,65454,2,0,B|64:32,1,175
64,160,66409,2,4,B|64:320,1,157.5
160,192,68590,5,0
256,192,68795,1,0
320,192,69136,2,0,B|256:320|448:352|512:224|480:64|416:0|256:0,1,717.5
96,128,72545,1,0
96,160,73090,1,0
96,192,73636,1,0
96,224,74181,1,0
96,256,74727,1,0
96,288,75272,1,0
96,320,75818,1,0
128,320,76363,1,0
160,320,76909,1,0
192,320,77454,1,0
224,320,77999,1,0
256,320,78545,1,0
288,320,79090,1,0
320,320,79636,1,0
320,288,80181,1,0
320,256,80727,1,0
320,224,81272,1,0
320,192,81818,1,0
320,160,82363,1,0
320,128,82909,1,0
320,96,83454,1,0
320,64,83999,1,0
288,64,84545,1,0
256,64,85090,1,0
224,64,85636,1,0
192,64,86181,1,0
160,64,86727,1,0
128,64,87272,1,0
96,96,87818,2,0,B|32:352|480:288|480:256,1,420
384,224,90272,5,0
384,192,90681,1,0
384,128,91159,1,0
384,96,91704,1,0
384,64,92181,1,0
320,64,93136,1,0
224,64,94090,2,0,B|32:128|384:320,1,385
448,256,96068,2,0,B,1,210
384,32,97704,2,0,B|32:32,1,332.5
64,96,99681,2,0,B|64:352,1,245
192,224,101590,1,0
448,64,102068,1,0
256,192,103159,12,0,114409
