osu file format v14

[General]
AudioFilename: yuzen_oukaryouran.mp3
AudioLeadIn: 0
PreviewTime: 86675
Countdown: 0
SampleSet: Normal
StackLeniency: 0.7
Mode: 1
LetterboxInBreaks: 0
WidescreenStoryboard: 0

[Editor]
DistanceSpacing: 0.6
BeatDivisor: 4
GridSize: 4
TimelineZoom: 2.2

[Metadata]
Title:Ouka Ryouran
TitleUnicode:桜花撩乱
Artist:yuzen
ArtistUnicode:悠然
Creator:Charlotte
Version:Muzukashii
Source:BMS
Tags:bofu2011 Midsoul JUDYDANNY
BeatmapID:1148004
BeatmapSetID:540913

[Difficulty]
HPDrainRate:6
CircleSize:5
OverallDifficulty:5
ApproachRate:5
SliderMultiplier:1.4
SliderTickRate:1

[Events]
//Background and Video events
0,0,"BG2.jpg",0,90
//Break Periods
//Storyboard Layer 0 (Background)
//Storyboard Layer 1 (Fail)
//Storyboard Layer 2 (Pass)
//Storyboard Layer 3 (Foreground)
//Storyboard Sound Samples

[TimingPoints]
1230,314.13612565445,4,1,0,80,1,0
33900,-100,4,1,0,80,0,1
54004,-100,4,1,0,60,0,0
59031,-100,4,1,0,70,0,0
62800,-100,4,1,0,80,0,0
86675,-100,4,1,0,80,0,1
106779,-100,4,1,0,60,0,0

[HitObjects]
256,192,1230,5,4,0:0:0:0:
256,192,1544,1,4,0:0:0:0:
256,192,1858,1,4,0:0:0:0:
256,192,2015,1,4,0:0:0:0:
256,192,2329,1,4,0:0:0:0:
256,192,2643,1,0,0:0:0:0:
256,192,2957,1,8,0:0:0:0:
256,192,3114,1,8,0:0:0:0:
256,192,3271,1,8,0:0:0:0:
256,192,3428,1,8,0:0:0:0:
256,192,3743,1,4,0:0:0:0:
256,192,4057,1,8,0:0:0:0:
256,192,4214,1,8,0:0:0:0:
256,192,4371,1,0,0:0:0:0:
256,192,4685,1,8,0:0:0:0:
256,192,4999,1,0,0:0:0:0:
256,192,5156,1,0,0:0:0:0:
256,192,5313,1,8,0:0:0:0:
256,192,5470,1,8,0:0:0:0:
256,192,5627,1,0,0:0:0:0:
256,192,5784,1,0,0:0:0:0:
256,192,5942,1,8,0:0:0:0:
256,192,6256,1,0,0:0:0:0:
256,192,6570,1,8,0:0:0:0:
256,192,6727,1,8,0:0:0:0:
256,192,6884,1,0,0:0:0:0:
256,192,7198,1,8,0:0:0:0:
256,192,7512,1,0,0:0:0:0:
256,192,7669,1,8,0:0:0:0:
256,192,7826,1,0,0:0:0:0:
256,192,7983,1,8,0:0:0:0:
256,192,8140,1,0,0:0:0:0:
256,192,8298,1,0,0:0:0:0:
256,192,8455,1,8,0:0:0:0:
256,192,8769,1,0,0:0:0:0:
256,192,9083,1,8,0:0:0:0:
256,192,9240,1,8,0:0:0:0:
256,192,9397,1,0,0:0:0:0:
256,192,9711,1,8,0:0:0:0:
256,192,10025,1,0,0:0:0:0:
256,192,10182,1,0,0:0:0:0:
256,192,10339,1,8,0:0:0:0:
256,192,10497,1,8,0:0:0:0:
256,192,10654,1,0,0:0:0:0:
256,192,10811,1,0,0:0:0:0:
256,192,10968,1,8,0:0:0:0:
256,192,11282,1,0,0:0:0:0:
256,192,11596,1,8,0:0:0:0:
256,192,11753,1,8,0:0:0:0:
256,192,11910,1,0,0:0:0:0:
256,192,12224,1,8,0:0:0:0:
256,192,12538,1,0,0:0:0:0:
256,192,12695,1,0,0:0:0:0:
256,192,12853,1,8,0:0:0:0:
256,192,13010,1,0,0:0:0:0:
256,192,13167,1,8,0:0:0:0:
256,192,13324,1,0,0:0:0:0:
256,192,13481,1,8,0:0:0:0:
256,192,13638,1,8,0:0:0:0:
256,192,13795,1,4,0:0:0:0:
256,192,13952,1,8,0:0:0:0:
256,192,14266,1,8,0:0:0:0:
256,192,14423,1,0,0:0:0:0:
256,192,14580,1,8,0:0:0:0:
256,192,14894,1,8,0:0:0:0:
256,192,15051,1,0,0:0:0:0:
256,192,15209,1,8,0:0:0:0:
256,192,15523,1,8,0:0:0:0:
256,192,15680,1,8,0:0:0:0:
256,192,15758,1,8,0:0:0:0:
256,192,15837,1,8,0:0:0:0:
256,192,15994,1,8,0:0:0:0:
256,192,16308,1,0,0:0:0:0:
256,192,16465,1,8,0:0:0:0:
256,192,16779,1,8,0:0:0:0:
256,192,16936,1,0,0:0:0:0:
256,192,17093,1,8,0:0:0:0:
256,192,17408,1,8,0:0:0:0:
256,192,17565,1,0,0:0:0:0:
256,192,17722,1,8,0:0:0:0:
256,192,18036,1,8,0:0:0:0:
256,192,18193,1,8,0:0:0:0:
256,192,18271,1,8,0:0:0:0:
256,192,18350,1,8,0:0:0:0:
256,192,18507,1,8,0:0:0:0:
256,192,18821,1,4,0:0:0:0:
256,192,18978,1,8,0:0:0:0:
256,192,19292,1,8,0:0:0:0:
256,192,19449,1,0,0:0:0:0:
256,192,19606,1,8,0:0:0:0:
256,192,19921,1,8,0:0:0:0:
256,192,20078,1,4,0:0:0:0:
256,192,20235,1,8,0:0:0:0:
256,192,20549,1,8,0:0:0:0:
256,192,20863,1,8,0:0:0:0:
256,192,21020,1,8,0:0:0:0:
256,192,21177,1,8,0:0:0:0:
256,192,21334,1,4,0:0:0:0:
256,192,21648,1,4,0:0:0:0:
256,192,21962,1,4,0:0:0:0:
256,192,22120,1,8,0:0:0:0:
256,192,22277,1,8,0:0:0:0:
256,192,22434,1,4,0:0:0:0:
256,192,22748,1,0,0:0:0:0:
256,192,23062,1,8,0:0:0:0:
256,192,23219,1,8,0:0:0:0:
256,192,23376,1,8,0:0:0:0:
256,192,23533,1,8,0:0:0:0:
256,192,23847,1,4,0:0:0:0:
256,192,24083,1,8,0:0:0:0:
256,192,24161,1,8,0:0:0:0:
256,192,24319,1,0,0:0:0:0:
256,192,24476,1,8,0:0:0:0:
256,192,24633,1,0,0:0:0:0:
256,192,24790,1,8,0:0:0:0:
256,192,25104,1,8,0:0:0:0:
256,192,25261,1,0,0:0:0:0:
256,192,25418,1,8,0:0:0:0:
256,192,25732,1,0,0:0:0:0:
256,192,26046,1,8,0:0:0:0:
256,192,26203,1,8,0:0:0:0:
256,192,26360,1,0,0:0:0:0:
256,192,26596,1,8,0:0:0:0:
256,192,26675,1,8,0:0:0:0:
256,192,26832,1,0,0:0:0:0:
256,192,26989,1,8,0:0:0:0:
256,192,27146,1,0,0:0:0:0:
256,192,27303,1,8,0:0:0:0:
256,192,27617,1,8,0:0:0:0:
256,192,27774,1,0,0:0:0:0:
256,192,27931,1,0,0:0:0:0:
256,192,28245,1,0,0:0:0:0:
256,192,28559,1,0,0:0:0:0:
256,192,28716,1,8,0:0:0:0:
256,192,28873,1,0,0:0:0:0:
256,192,29109,1,8,0:0:0:0:
256,192,29188,1,8,0:0:0:0:
256,192,29345,1,0,0:0:0:0:
256,192,29502,1,8,0:0:0:0:
256,192,29659,1,0,0:0:0:0:
256,192,29816,1,8,0:0:0:0:
256,192,30130,1,8,0:0:0:0:
256,192,30287,1,0,0:0:0:0:
256,192,30444,1,8,0:0:0:0:
256,192,30601,1,8,0:0:0:0:
256,192,30915,1,8,0:0:0:0:
256,192,31072,1,0,0:0:0:0:
256,192,31229,1,8,0:0:0:0:
256,192,31387,1,8,0:0:0:0:
256,192,31544,1,8,0:0:0:0:
256,192,31622,1,8,0:0:0:0:
256,192,31701,1,8,0:0:0:0:
256,192,31858,1,8,0:0:0:0:
256,192,32015,1,0,0:0:0:0:
256,192,32172,1,0,0:0:0:0:
256,192,32329,1,8,0:0:0:0:
256,192,32486,1,0,0:0:0:0:
256,192,32800,1,0,0:0:0:0:
256,192,33114,1,8,0:0:0:0:
256,192,33271,1,8,0:0:0:0:
256,192,33428,1,8,0:0:0:0:
256,192,33586,1,8,0:0:0:0:
256,192,33900,1,4,0:0:0:0:
256,192,34135,1,8,0:0:0:0:
256,192,34214,1,8,0:0:0:0:
256,192,34371,1,0,0:0:0:0:
256,192,34528,1,8,0:0:0:0:
256,192,34685,1,0,0:0:0:0:
256,192,34842,1,8,0:0:0:0:
256,192,35156,1,8,0:0:0:0:
256,192,35313,1,0,0:0:0:0:
256,192,35470,1,8,0:0:0:0:
256,192,35784,1,0,0:0:0:0:
256,192,35942,1,8,0:0:0:0:
256,192,36099,1,8,0:0:0:0:
256,192,36256,1,8,0:0:0:0:
256,192,36413,1,0,0:0:0:0:
256,192,36648,1,8,0:0:0:0:
256,192,36727,1,8,0:0:0:0:
256,192,36884,1,0,0:0:0:0:
256,192,37041,1,8,0:0:0:0:
256,192,37198,1,0,0:0:0:0:
256,192,37355,1,8,0:0:0:0:
256,192,37669,1,8,0:0:0:0:
256,192,37826,1,0,0:0:0:0:
256,192,37983,1,0,0:0:0:0:
256,192,38298,1,0,0:0:0:0:
256,192,38455,1,8,0:0:0:0:
256,192,38612,1,0,0:0:0:0:
256,192,38769,1,8,0:0:0:0:
256,192,38926,1,0,0:0:0:0:
256,192,39161,1,8,0:0:0:0:
256,192,39240,1,8,0:0:0:0:
256,192,39397,1,0,0:0:0:0:
256,192,39554,1,8,0:0:0:0:
256,192,39711,1,0,0:0:0:0:
256,192,39868,1,8,0:0:0:0:
256,192,40182,1,8,0:0:0:0:
256,192,40339,1,0,0:0:0:0:
256,192,40497,1,8,0:0:0:0:
256,192,40811,1,0,0:0:0:0:
256,192,40968,1,8,0:0:0:0:
256,192,41125,1,8,0:0:0:0:
256,192,41439,1,8,0:0:0:0:
256,192,41596,1,8,0:0:0:0:
256,192,41675,1,8,0:0:0:0:
256,192,41753,1,8,0:0:0:0:
256,192,41910,1,8,0:0:0:0:
256,192,42067,1,0,0:0:0:0:
256,192,42146,1,0,0:0:0:0:
256,192,42224,1,0,0:0:0:0:
256,192,42381,1,0,0:0:0:0:
256,192,42538,1,8,0:0:0:0:
256,192,42853,1,0,0:0:0:0:
256,192,43167,1,8,0:0:0:0:
256,192,43324,1,0,0:0:0:0:
256,192,43481,1,0,0:0:0:0:
256,192,43638,1,8,0:0:0:0:
256,192,43952,1,4,0:0:0:0:
256,192,44188,1,8,0:0:0:0:
256,192,44266,1,8,0:0:0:0:
256,192,44423,1,0,0:0:0:0:
256,192,44580,1,8,0:0:0:0:
256,192,44737,1,0,0:0:0:0:
256,192,44894,1,8,0:0:0:0:
256,192,45209,1,8,0:0:0:0:
256,192,45366,1,0,0:0:0:0:
256,192,45523,1,8,0:0:0:0:
256,192,45837,1,0,0:0:0:0:
256,192,45994,1,8,0:0:0:0:
256,192,46151,1,8,0:0:0:0:
256,192,46308,1,8,0:0:0:0:
256,192,46465,1,0,0:0:0:0:
256,192,46701,1,8,0:0:0:0:
256,192,46779,1,8,0:0:0:0:
256,192,46936,1,0,0:0:0:0:
256,192,47093,1,8,0:0:0:0:
256,192,47250,1,0,0:0:0:0:
256,192,47408,1,8,0:0:0:0:
256,192,47722,1,8,0:0:0:0:
256,192,47879,1,0,0:0:0:0:
256,192,48036,1,0,0:0:0:0:
256,192,48350,1,0,0:0:0:0:
256,192,48507,1,8,0:0:0:0:
256,192,48664,1,0,0:0:0:0:
256,192,48821,1,8,0:0:0:0:
256,192,48978,1,0,0:0:0:0:
256,192,49214,1,8,0:0:0:0:
256,192,49292,1,8,0:0:0:0:
256,192,49449,1,0,0:0:0:0:
256,192,49606,1,8,0:0:0:0:
256,192,49764,1,0,0:0:0:0:
256,192,49921,1,8,0:0:0:0:
256,192,50235,1,8,0:0:0:0:
256,192,50392,1,0,0:0:0:0:
256,192,50549,1,8,0:0:0:0:
256,192,50863,1,0,0:0:0:0:
256,192,51020,1,8,0:0:0:0:
256,192,51177,1,0,0:0:0:0:
256,192,51334,1,8,0:0:0:0:
256,192,51491,1,8,0:0:0:0:
256,192,51648,1,8,0:0:0:0:
256,192,51727,1,8,0:0:0:0:
256,192,51805,1,8,0:0:0:0:
256,192,51962,1,8,0:0:0:0:
256,192,52120,1,0,0:0:0:0:
256,192,52198,1,0,0:0:0:0:
256,192,52277,1,0,0:0:0:0:
256,192,52434,1,8,0:0:0:0:
256,192,52591,1,8,0:0:0:0:
256,192,52905,1,4,0:0:0:0:
256,192,53219,1,12,0:0:0:0:
256,192,53376,1,12,0:0:0:0:
256,192,53533,1,12,0:0:0:0:
256,192,53690,1,12,0:0:0:0:
256,192,54004,1,0,0:0:0:0:
256,192,54947,1,8,0:0:0:0:
256,192,55261,1,0,0:0:0:0:
256,192,55575,1,8,0:0:0:0:
256,192,55889,1,0,0:0:0:0:
256,192,56203,1,8,0:0:0:0:
256,192,56517,1,0,0:0:0:0:
256,192,58088,1,0,0:0:0:0:
256,192,58402,1,0,0:0:0:0:
256,192,58716,1,8,0:0:0:0:
256,192,59031,1,4,0:0:0:0:
256,192,59659,1,0,0:0:0:0:
256,192,60287,1,0,0:0:0:0:
256,192,60601,1,8,0:0:0:0:
256,192,60915,1,0,0:0:0:0:
256,192,61229,1,8,0:0:0:0:
256,192,61544,1,0,0:0:0:0:
256,192,62172,1,0,0:0:0:0:
256,192,62800,1,4,0:0:0:0:
256,192,63114,1,4,0:0:0:0:
256,192,63428,1,12,0:0:0:0:
256,192,63743,1,4,0:0:0:0:
256,192,64057,1,4,0:0:0:0:
256,192,64371,1,0,0:0:0:0:
256,192,64528,1,0,0:0:0:0:
256,192,64685,1,8,0:0:0:0:
256,192,64999,1,0,0:0:0:0:
256,192,65313,1,8,0:0:0:0:
256,192,65627,1,8,0:0:0:0:
256,192,65942,1,0,0:0:0:0:
256,192,66256,1,8,0:0:0:0:
256,192,66570,1,0,0:0:0:0:
256,192,66884,1,0,0:0:0:0:
256,192,67041,1,0,0:0:0:0:
256,192,67198,1,8,0:0:0:0:
256,192,67512,1,8,0:0:0:0:
256,192,67669,1,8,0:0:0:0:
256,192,67826,1,0,0:0:0:0:
256,192,67983,1,0,0:0:0:0:
256,192,68140,1,8,0:0:0:0:
256,192,68455,1,0,0:0:0:0:
256,192,68769,1,8,0:0:0:0:
256,192,69083,1,4,0:0:0:0:
256,192,69397,1,0,0:0:0:0:
256,192,69554,1,0,0:0:0:0:
256,192,69711,1,8,0:0:0:0:
256,192,70025,1,0,0:0:0:0:
256,192,70182,1,8,0:0:0:0:
256,192,70339,1,0,0:0:0:0:
256,192,70654,1,8,0:0:0:0:
256,192,70811,1,8,0:0:0:0:
256,192,70968,1,0,0:0:0:0:
256,192,71125,1,0,0:0:0:0:
256,192,71282,1,8,0:0:0:0:
256,192,71596,1,0,0:0:0:0:
256,192,72224,1,0,0:0:0:0:
256,192,72381,2,0,L|440:192,1,175
256,192,73010,1,4,0:0:0:0:
256,192,73324,1,12,0:0:0:0:
256,192,73481,1,12,0:0:0:0:
256,192,73638,1,12,0:0:0:0:
256,192,73795,1,12,0:0:0:0:
256,192,74109,1,4,0:0:0:0:
256,192,74266,1,8,0:0:0:0:
256,192,74580,1,8,0:0:0:0:
256,192,74737,1,0,0:0:0:0:
256,192,74894,1,8,0:0:0:0:
256,192,75209,1,8,0:0:0:0:
256,192,75366,1,0,0:0:0:0:
256,192,75523,1,8,0:0:0:0:
256,192,75837,1,8,0:0:0:0:
256,192,75994,1,8,0:0:0:0:
256,192,76072,1,8,0:0:0:0:
256,192,76151,1,8,0:0:0:0:
256,192,76308,1,8,0:0:0:0:
256,192,76622,1,0,0:0:0:0:
256,192,76779,1,8,0:0:0:0:
256,192,77093,1,8,0:0:0:0:
256,192,77250,1,0,0:0:0:0:
256,192,77408,1,8,0:0:0:0:
256,192,77722,1,8,0:0:0:0:
256,192,77879,1,0,0:0:0:0:
256,192,78036,1,8,0:0:0:0:
256,192,78350,1,8,0:0:0:0:
256,192,78507,1,8,0:0:0:0:
256,192,78586,1,8,0:0:0:0:
256,192,78664,1,8,0:0:0:0:
256,192,78821,1,8,0:0:0:0:
256,192,79135,1,4,0:0:0:0:
256,192,79292,1,8,0:0:0:0:
256,192,79606,1,8,0:0:0:0:
256,192,79764,1,0,0:0:0:0:
256,192,79921,1,8,0:0:0:0:
256,192,80235,1,8,0:0:0:0:
256,192,80392,1,4,0:0:0:0:
256,192,80549,1,8,0:0:0:0:
256,192,80863,1,8,0:0:0:0:
256,192,81177,1,8,0:0:0:0:
256,192,81334,1,8,0:0:0:0:
256,192,81491,1,8,0:0:0:0:
256,192,81648,1,4,0:0:0:0:
256,192,81962,1,4,0:0:0:0:
256,192,82277,1,4,0:0:0:0:
256,192,82434,1,8,0:0:0:0:
256,192,82591,1,8,0:0:0:0:
256,192,82748,1,4,0:0:0:0:
256,192,83062,1,0,0:0:0:0:
256,192,83376,1,8,0:0:0:0:
256,192,83533,1,8,0:0:0:0:
256,192,83690,1,8,0:0:0:0:
256,192,83847,1,8,0:0:0:0:
256,192,84319,1,4,0:0:0:0:
256,192,84633,1,12,0:0:0:0:
256,192,84790,1,12,0:0:0:0:
256,192,84947,1,12,0:0:0:0:
256,192,85104,1,12,0:0:0:0:
256,192,85418,12,0,86203,0:0:0:0:
256,192,86360,5,12,0:0:0:0:
256,192,86675,5,4,0:0:0:0:
256,192,86910,1,8,0:0:0:0:
256,192,86989,1,8,0:0:0:0:
256,192,87146,1,0,0:0:0:0:
256,192,87303,1,8,0:0:0:0:
256,192,87460,1,0,0:0:0:0:
256,192,87617,1,8,0:0:0:0:
256,192,87931,1,8,0:0:0:0:
256,192,88088,1,0,0:0:0:0:
256,192,88245,1,8,0:0:0:0:
256,192,88402,1,8,0:0:0:0:
256,192,88559,1,0,0:0:0:0:
256,192,88874,1,8,0:0:0:0:
256,192,89031,1,8,0:0:0:0:
256,192,89188,1,0,0:0:0:0:
256,192,89423,1,8,0:0:0:0:
256,192,89502,1,8,0:0:0:0:
256,192,89659,1,0,0:0:0:0:
256,192,89816,1,8,0:0:0:0:
256,192,89973,1,0,0:0:0:0:
256,192,90130,1,8,0:0:0:0:
256,192,90444,1,8,0:0:0:0:
256,192,90601,1,0,0:0:0:0:
256,192,90758,1,0,0:0:0:0:
256,192,90915,1,8,0:0:0:0:
256,192,91073,1,0,0:0:0:0:
256,192,91387,1,0,0:0:0:0:
256,192,91544,1,8,0:0:0:0:
256,192,91701,1,0,0:0:0:0:
256,192,91936,1,8,0:0:0:0:
256,192,92015,1,8,0:0:0:0:
256,192,92172,1,0,0:0:0:0:
256,192,92329,1,8,0:0:0:0:
256,192,92486,1,0,0:0:0:0:
256,192,92643,1,8,0:0:0:0:
256,192,92957,1,8,0:0:0:0:
256,192,93114,1,0,0:0:0:0:
256,192,93272,1,8,0:0:0:0:
256,192,93429,1,8,0:0:0:0:
256,192,93586,1,0,0:0:0:0:
256,192,93900,1,8,0:0:0:0:
256,192,94057,1,0,0:0:0:0:
256,192,94214,1,8,0:0:0:0:
256,192,94371,1,8,0:0:0:0:
256,192,94450,1,8,0:0:0:0:
256,192,94528,1,8,0:0:0:0:
256,192,94685,1,8,0:0:0:0:
256,192,94842,1,0,0:0:0:0:
256,192,94921,1,0,0:0:0:0:
256,192,94999,1,0,0:0:0:0:
256,192,95156,1,0,0:0:0:0:
256,192,95313,1,8,0:0:0:0:
256,192,95628,1,0,0:0:0:0:
256,192,95942,1,8,0:0:0:0:
256,192,96099,1,4,0:0:0:0:
256,192,96256,1,4,0:0:0:0:
256,192,96413,1,12,0:0:0:0:
256,192,96570,1,12,0:0:0:0:
256,192,96727,1,4,0:0:0:0:
256,192,97041,1,8,0:0:0:0:
256,192,97355,1,0,0:0:0:0:
256,192,97512,1,0,0:0:0:0:
256,192,97669,1,8,0:0:0:0:
256,192,97984,1,8,0:0:0:0:
256,192,98141,1,0,0:0:0:0:
256,192,98298,1,8,0:0:0:0:
256,192,98455,1,8,0:0:0:0:
256,192,98612,1,0,0:0:0:0:
256,192,98926,1,8,0:0:0:0:
256,192,99240,1,0,0:0:0:0:
256,192,99397,1,0,0:0:0:0:
256,192,99554,1,8,0:0:0:0:
256,192,99711,1,8,0:0:0:0:
256,192,99868,1,0,0:0:0:0:
256,192,100025,1,0,0:0:0:0:
256,192,100183,1,8,0:0:0:0:
256,192,100497,1,8,0:0:0:0:
256,192,100575,1,8,0:0:0:0:
256,192,100654,1,8,0:0:0:0:
256,192,100811,1,8,0:0:0:0:
256,192,100968,1,8,0:0:0:0:
256,192,101125,1,0,0:0:0:0:
256,192,101203,1,0,0:0:0:0:
256,192,101282,1,0,0:0:0:0:
256,192,101439,1,0,0:0:0:0:
256,192,101596,1,0,0:0:0:0:
256,192,101753,1,0,0:0:0:0:
256,192,101989,1,8,0:0:0:0:
256,192,102067,1,8,0:0:0:0:
256,192,102224,1,0,0:0:0:0:
256,192,102381,1,8,0:0:0:0:
256,192,102539,1,0,0:0:0:0:
256,192,102696,1,8,0:0:0:0:
256,192,103010,1,8,0:0:0:0:
256,192,103167,1,0,0:0:0:0:
256,192,103324,1,8,0:0:0:0:
256,192,103481,1,8,0:0:0:0:
256,192,103638,1,0,0:0:0:0:
256,192,103952,1,8,0:0:0:0:
256,192,104109,1,0,0:0:0:0:
256,192,104266,1,8,0:0:0:0:
256,192,104423,1,8,0:0:0:0:
256,192,104502,1,8,0:0:0:0:
256,192,104580,1,8,0:0:0:0:
256,192,104737,1,8,0:0:0:0:
256,192,104895,1,0,0:0:0:0:
256,192,104974,1,0,0:0:0:0:
256,192,105052,1,0,0:0:0:0:
256,192,105209,1,8,0:0:0:0:
256,192,105366,1,8,0:0:0:0:
256,192,105680,1,4,0:0:0:0:
256,192,105994,1,12,0:0:0:0:
256,192,106151,1,12,0:0:0:0:
256,192,106308,1,12,0:0:0:0:
256,192,106465,1,12,0:0:0:0:
256,192,106779,1,0,0:0:0:0:
