osu file format v13

[General]
AudioFilename: Hanatan_Drown_Eng_Subbed.mp3
AudioLeadIn: 0
PreviewTime: 109550
Countdown: 1
SampleSet: Soft
StackLeniency: 0.7
Mode: 0
LetterboxInBreaks: 1
WidescreenStoryboard: 1

[Editor]
Bookmarks: 66191,109691,158441,176066,219191,243191
DistanceSpacing: 0.9
BeatDivisor: 4
GridSize: 4
TimelineZoom: 1

[Metadata]
Title:Drown
TitleUnicode:Drown
Artist:yuyoyuppe feat. Hanatan
ArtistUnicode:yuyoyuppe feat. Hanatan
Creator:Kyshiro
Version:Normal
Source:
Tags:
BeatmapID:513774
BeatmapSetID:219354

[Difficulty]
HPDrainRate:4
CircleSize:3
OverallDifficulty:4
ApproachRate:4.5
SliderMultiplier:1.2
SliderTickRate:1

[Events]
//Background and Video events
0,0,"bg_.png",0,0
//Break Periods
2,38878,40790
2,158300,175040
//Storyboard Layer 0 (Background)
//Storyboard Layer 1 (Fail)
//Storyboard Layer 2 (Pass)
//Storyboard Layer 3 (Foreground)
//Storyboard Sound Samples
//Background Colour Transformations
3,100,163,162,255

[TimingPoints]
3054,375,3,2,0,50,1,0
3054,-125,3,2,0,20,0,0
42050,375,4,2,0,50,1,0
66425,-111.111111111111,4,2,0,50,0,0
109550,-100,4,2,0,50,0,1
133550,-111.111111111111,4,2,0,20,0,0
138050,-125,4,2,0,20,0,0
189800,-142.857142857143,4,2,0,20,0,0
193550,-125,4,2,0,20,0,0
195050,-100,4,2,0,50,0,1
218675,-100,4,2,0,50,0,0
219050,-100,4,2,0,50,0,1
243050,-100,4,2,0,50,0,0
246050,-100,4,2,0,40,0,0
246800,-100,4,2,0,30,0,0
247550,-100,4,2,0,20,0,0

[Colours]
Combo1 : 201,199,152
Combo2 : 90,112,107
Combo3 : 133,184,188

[HitObjects]
40,200,3054,6,0,P|112:172|212:236,1,192
279,163,4179,2,0,P|301:125|362:96,2,96,0|0|0,0:0|0:0|0:0,0:0:0:0:
370,191,5304,5,0,0:0:0:0:
442,127,5679,2,0,L|452:23,1,96
361,65,6429,2,0,P|314:38|165:57,1,192
148,137,7554,5,0,0:0:0:0:
55,110,7929,2,0,P|23:71|16:22,1,96
114,31,8679,2,0,L|87:229,1,192
143,299,9804,6,0,P|189:308|237:293,1,96
309,232,10554,1,0,0:0:0:0:
394,275,10929,2,0,L|412:374,2,96,0|0|0,0:0|0:0|0:0,0:0:0:0:
309,232,12054,6,0,P|304:196|424:109,1,192
504,88,13179,2,0,L|307:42,1,192
237,98,14304,6,0,P|225:140|235:193,1,96
319,147,15054,1,0,0:0:0:0:
318,242,15429,2,0,P|281:277|154:248,1,192
121,159,16554,6,0,L|107:63,1,96
199,91,17304,1,0,0:0:0:0:
258,166,17679,2,0,L|305:73,1,96
363,153,18429,1,0,0:0:0:0:
341,246,18804,6,0,L|438:224,1,96
496,298,19554,1,0,0:0:0:0:
417,353,19929,2,0,B|321:385|321:321|229:353,1,192
149,298,21054,6,0,P|126:257|131:208,1,96
212,159,21804,1,0,0:0:0:0:
124,118,22179,2,0,L|27:117,1,96
76,34,22929,2,0,L|270:36,1,192
360,61,24054,6,0,P|375:106|373:156,1,96
349,195,24616,2,0,P|334:240|336:290,1,96
375,315,25179,2,0,P|316:279|197:294,1,192
109,330,26304,1,0,0:0:0:0:
52,252,26679,6,0,L|43:196,1,48
63,160,27054,2,0,P|113:169|168:153,1,96
193,128,27616,2,0,P|243:118|301:132,1,96
317,162,28179,2,0,P|373:191|424:92,1,192
338,65,29304,5,0,0:0:0:0:
247,96,29679,2,0,L|199:90,1,48
161,119,30054,2,0,L|65:107,1,96
29,138,30616,2,0,P|17:176|35:234,1,96
71,255,31179,6,0,B|145:263|198:219|198:219|223:241|251:244,1,192
343,234,32304,2,0,P|369:203|378:144,1,96
295,101,33054,2,0,L|191:90,1,96
162,60,33616,1,0,0:0:0:0:
72,173,34179,6,0,P|63:221|30:264,2,96,0|0|0,0:0|0:0|0:0,0:0:0:0:
157,217,35304,2,0,L|171:324,1,96
252,263,36054,2,0,P|297:302|388:293,2,144,0|0|0,0:0|0:0|0:0,0:0:0:0:
334,214,37554,2,0,B|351:118|351:118|391:87,2,144,0|0|0,0:0|0:0|0:0,0:0:0:0:
32,95,42050,6,0,P|86:70|191:118,1,180
209,166,42800,2,0,L|218:289,1,120
247,330,43362,1,0,0:0:0:0:
350,300,43737,6,0,P|369:254|351:174,1,120
333,137,44300,2,0,P|323:105|325:67,1,60
342,28,44675,1,0,0:0:0:0:
429,91,45050,6,0,L|249:114,1,180
200,92,45800,2,0,P|154:78|81:93,1,120
55,136,46362,1,0,0:0:0:0:
142,202,46737,6,0,L|281:207,1,120
309,233,47300,2,0,P|332:266|338:287,1,60
373,324,47675,2,0,P|383:295|401:272,1,60
447,243,48050,5,0,0:0:0:0:
380,158,48425,1,0,0:0:0:0:
279,197,48800,2,0,L|158:183,1,120
118,149,49362,1,0,0:0:0:0:
177,58,49737,6,0,P|226:45|294:65,1,120
331,100,50300,2,0,L|393:96,1,60
439,120,50675,1,0,0:0:0:0:
363,197,51050,6,0,L|177:185,1,180
142,150,51800,2,0,P|123:111|119:83,2,60,0|0|0,0:0|0:0|0:0,0:0:0:0:
101,185,52362,6,0,P|107:231|83:301,2,120,0|0|0,0:0|0:0|0:0,0:0:0:0:
55,156,53300,1,0,0:0:0:0:
108,62,53675,1,0,0:0:0:0:
200,118,54050,6,0,P|276:84|367:104,1,180
402,145,54800,2,0,L|419:266,1,120
459,298,55362,1,0,0:0:0:0:
356,330,55737,6,0,P|306:350|233:337,1,120
196,311,56300,2,0,L|170:252,1,60
124,229,56675,2,0,L|98:170,1,60
53,145,57050,1,0,0:0:0:0:
178,42,57612,5,0,0:0:0:0:
178,42,57800,2,0,P|237:28|299:45,1,120
326,85,58362,1,0,0:0:0:0:
237,147,58737,6,0,L|105:142,1,120
79,181,59300,1,0,0:0:0:0:
136,272,59675,2,0,L|201:267,1,60
242,295,60050,6,0,P|290:282|415:328,1,180
463,317,60800,2,0,P|475:256|461:193,1,120
424,162,61362,1,0,0:0:0:0:
320,191,61737,6,0,L|192:183,1,120
153,156,62300,2,0,P|136:123|135:89,1,60
137,46,62675,1,0,0:0:0:0:
42,97,63050,6,0,L|50:285,1,180
25,325,63800,1,0,0:0:0:0:
131,341,64175,2,0,P|168:325|194:321,1,60
240,313,64550,6,0,P|290:312|363:336,1,120
404,357,65112,1,0,0:0:0:0:
447,325,65300,2,0,P|458:290|460:260,1,60
426,224,65675,2,0,P|415:189|413:159,1,60
435,116,66050,5,0,0:0:0:0:
349,49,66425,1,0,0:0:0:0:
349,49,66612,2,0,P|290:77|232:74,1,107.999996704102
200,66,67175,2,0,L|145:51,1,53.9999983520508
103,71,67550,5,0,0:0:0:0:
68,105,67737,2,0,P|81:150|73:221,1,107.999996704102
49,251,68300,1,0,0:0:0:0:
122,314,68675,1,0,0:0:0:0:
188,243,69050,6,0,P|232:228|296:243,1,107.999996704102
333,263,69612,2,0,P|384:275|435:260,1,107.999996704102,0|0,0:0|0:0,0:0:0:0:
462,219,70175,1,0,0:0:0:0:
381,164,70550,5,0,0:0:0:0:
381,164,70737,2,0,L|273:156,1,107.999996704102
232,128,71300,2,0,P|214:85|232:16,1,107.999996704102
310,72,72050,6,0,P|378:60|462:105,2,161.999995056153,0|0|0,0:0|0:0|0:0,0:0:0:0:
334,166,73550,1,0,0:0:0:0:
334,166,73737,2,0,P|339:201|336:231,2,53.9999983520508,0|0|0,0:0|0:0|0:0,0:0:0:0:
285,158,74300,2,0,P|246:169|164:171,1,107.999996704102
84,150,75050,6,0,L|79:262,1,107.999996704102
44,292,75612,1,0,0:0:0:0:
118,353,75987,1,0,0:0:0:0:
118,353,76175,2,0,P|183:329|276:343,1,161.999995056153
354,288,77112,1,0,0:0:0:0:
354,288,77300,2,0,L|382:173,1,107.999996704102
306,118,78050,6,0,L|321:60,2,53.9999983520508,0|0|0,0:0|0:0|0:0,0:0:0:0:
274,154,78612,2,0,P|216:174|163:162,1,107.999996704102
137,131,79175,1,0,0:0:0:0:
212,69,79550,6,0,L|330:65,1,107.999996704102
378,143,80300,1,0,0:0:0:0:
453,81,80675,1,0,0:0:0:0:
500,165,81050,6,0,P|502:221|467:275,1,107.999996704102
429,273,81612,2,0,L|306:260,1,107.999996704102
279,286,82175,1,0,0:0:0:0:
219,209,82550,2,0,P|171:158|73:133,2,161.999995056153,0|0|0,0:0|0:0|0:0,0:0:0:0:
274,129,84050,6,0,P|300:88|416:45,1,161.999995056153
449,45,84800,1,0,0:0:0:0:
493,131,85175,1,0,0:0:0:0:
493,131,85362,2,0,P|488:186|462:240,1,107.999996704102
374,265,86112,5,0,0:0:0:0:
374,265,86300,2,0,L|249:252,1,107.999996704102
189,194,87050,2,0,P|97:168|29:198,2,161.999995056153,0|0|0,0:0|0:0|0:0,0:0:0:0:
276,151,88550,2,0,P|292:107|277:39,2,107.999996704102,0|0|0,0:0|0:0|0:0,0:0:0:0:
195,95,89675,1,0,0:0:0:0:
189,194,90050,6,0,P|241:242|342:222,1,161.999995056153
363,201,90800,1,0,0:0:0:0:
449,245,91175,1,0,0:0:0:0:
449,245,91362,2,0,L|468:362,1,107.999996704102
368,347,92112,1,0,0:0:0:0:
368,347,92300,2,0,P|326:332|259:344,1,107.999996704102
192,275,93050,6,0,P|149:189|87:148,1,161.999995056153
50,137,93800,1,0,0:0:0:0:
173,60,94362,2,0,L|288:46,2,107.999996704102,0|0|0,0:0|0:0|0:0,0:0:0:0:
135,28,95300,1,0,0:0:0:0:
38,40,95675,1,0,0:0:0:0:
50,137,96050,6,0,P|104:163|159:162,1,107.999996704102
231,109,96800,2,0,P|284:111|332:135,1,107.999996704102,0|0,0:0|0:0,0:0:0:0:
349,181,97362,1,0,0:0:0:0:
442,153,97737,2,0,B|463:48|463:48|504:9,1,161.999995056153,0|0,0:0|0:0,0:0:0:0:
309,34,99050,6,0,P|243:72|157:60,1,161.999995056153
118,36,99800,1,0,0:0:0:0:
40,94,100175,1,0,0:0:0:0:
108,162,100550,1,0,0:0:0:0:
108,162,100737,2,0,L|238:153,1,107.999996704102
260,136,101300,2,0,P|327:114|374:128,1,107.999996704102
322,211,102050,6,0,P|276:256|172:253,1,161.999995056153
144,227,102800,2,0,P|130:174|83:133,1,107.999996704102
48,224,103550,2,0,L|31:344,2,107.999996704102,0|0|0,0:0|0:0|0:0,0:0:0:0:
1,138,104675,1,0,0:0:0:0:
46,52,105050,6,0,P|125:28|203:66,1,161.999995056153
232,89,105800,2,0,P|269:108|341:103,1,107.999996704102
426,76,106550,2,0,B|437:185|437:185|467:238,1,161.999995056153
494,267,107300,1,0,0:0:0:0:
401,296,107675,2,0,P|361:296|342:301,1,53.9999983520508
259,72,109550,6,0,P|188:52|195:178,1,240
294,173,110675,1,0,0:0:0:0:
243,268,111050,2,0,L|125:292,1,120
36,230,111800,2,0,P|22:190|42:113,1,120
131,59,112550,6,0,L|249:83,1,120
302,80,113112,2,0,P|334:54|349:27,1,60
408,125,113675,1,0,0:0:0:0:
408,125,113862,2,0,P|394:172|409:245,2,120,0|0|0,0:0|0:0|0:0,0:0:0:0:
444,84,114800,1,0,0:0:0:0:
344,38,115175,1,0,0:0:0:0:
284,128,115550,6,0,L|156:119,1,120
87,195,116300,2,0,P|75:246|101:318,1,120
140,337,116862,1,0,0:0:0:0:
247,349,117237,2,0,L|372:343,1,120
416,364,117800,1,0,0:0:0:0:
487,283,118175,1,0,0:0:0:0:
394,226,118550,6,0,P|335:240|238:170,2,180,0|0|0,0:0|0:0|0:0,0:0:0:0:
340,131,120050,2,0,B|292:131|256:103|256:103|225:138|174:153|117:138,1,240
35,213,121175,2,0,P|28:251|30:283,1,60
69,308,121550,6,0,L|194:300,1,120
239,319,122112,2,0,P|264:345|280:375,1,60
329,271,122675,2,0,P|350:236|374:216,1,60
410,196,123050,1,0,0:0:0:0:
357,101,123425,1,0,0:0:0:0:
265,158,123800,2,0,L|141:148,1,120
59,82,124550,6,0,P|112:45|228:77,1,180
259,103,125300,2,0,P|317:128|382:117,1,120
411,84,125862,1,0,0:0:0:0:
471,173,126237,2,0,L|452:306,1,120
411,325,126800,1,0,0:0:0:0:
321,264,127175,2,0,P|307:231|305:203,1,60
306,153,127550,6,0,P|262:225|162:240,2,180,0|0|0,0:0|0:0|0:0,0:0:0:0:
198,136,129050,2,0,L|77:114,1,120
30,136,129612,2,0,P|32:173|23:200,1,60
109,263,130175,2,0,P|106:292|113:321,1,60
149,362,130550,6,0,P|212:376|273:354,1,120
293,315,131112,2,0,L|333:198,1,120
379,175,131675,1,0,0:0:0:0:
300,100,132050,2,0,P|229:150|133:124,2,180,0|0|0,0:0|0:0|0:0,0:0:0:0:
207,42,133550,1,0,0:0:0:0:
256,192,133925,12,0,136550,0:0:0:0:
36,92,138050,6,0,P|102:72|176:114,2,144,0|0|0,0:0|0:0|0:0,0:0:0:0:
96,166,139550,2,0,L|119:259,1,96
154,292,140112,2,0,P|206:306|258:294,1,96
284,268,140675,1,0,0:0:0:0:
345,194,141050,6,0,L|361:40,2,144,0|0|0,0:0|0:0|0:0,0:0:0:0:
417,256,142550,2,0,P|377:211|250:189,1,192,0|0,0:0|0:0,0:0:0:0:
174,246,143675,1,0,0:0:0:0:
164,150,144050,2,0,L|137:53,1,96
52,15,144800,2,0,L|26:107,1,96
27,203,145550,6,0,P|73:195|123:214,1,96
148,248,146112,1,0,0:0:0:0:
236,211,146487,2,0,L|286:125,1,96
315,91,147050,2,0,P|370:67|458:106,2,144,0|0|0,0:0|0:0|0:0,0:0:0:0:
380,161,148550,6,0,P|379:207|402:258,1,96
437,280,149112,2,0,P|332:259|292:266,1,144
211,220,150050,2,0,P|166:236|51:227,2,144,0|0|0,0:0|0:0|0:0,0:0:0:0:
278,151,151550,6,0,L|296:46,1,96
334,30,152112,2,0,P|393:28|455:80,1,144
368,121,153050,2,0,L|205:98,2,144,0|0|0,0:0|0:0|0:0,0:0:0:0:
424,198,154550,6,0,P|438:239|429:298,1,96
391,316,155112,2,0,L|289:303,1,96
256,331,155675,1,0,0:0:0:0:
156,227,156237,2,0,P|143:193|130:174,2,48,0|0|0,0:0|0:0|0:0,0:0:0:0:
43,220,176300,6,0,P|97:235|149:227,1,96
214,175,177050,2,0,L|247:71,2,96,0|0|0,0:0|0:0|0:0,0:0:0:0:
225,270,178175,1,0,0:0:0:0:
296,333,178550,6,0,P|353:344|442:299,1,144
451,268,179300,2,0,P|457:230|441:165,1,96
358,132,180050,1,0,0:0:0:0:
280,188,180425,1,0,0:0:0:0:
194,145,180800,1,0,0:0:0:0:
92,307,181550,6,0,P|152:324|203:313,1,96
227,297,182112,2,0,L|276:198,1,96
314,194,182675,1,0,0:0:0:0:
242,130,183050,2,0,P|194:143|141:129,1,96
193,48,183800,2,0,P|256:33|350:66,2,144,0|0|0,0:0|0:0|0:0,0:0:0:0:
96,52,185300,6,0,P|104:118|95:152,1,96
40,224,186050,2,0,P|30:270|38:317,1,96
128,350,186800,2,0,L|278:334,1,144
314,313,187550,6,0,P|345:325|416:323,1,96
456,242,188300,1,0,0:0:0:0:
375,189,188675,2,0,L|270:170,2,96,0|0|0,0:0|0:0|0:0,0:0:0:0:
461,146,189800,6,0,L|487:19,2,125.999996154785,0|0|0,0:0|0:0|0:0,0:0:0:0:
375,91,191300,2,0,P|323:63|214:71,1,167.999994873047
201,87,193550,6,0,P|172:147|162:237,1,144,0|0,0:0|0:0,0:0:0:0:
143,262,194300,2,0,P|88:281|35:270,1,96
81,172,195050,6,0,L|270:156,1,180
304,188,195800,1,0,0:0:0:0:
401,142,196175,1,0,0:0:0:0:
476,218,196550,2,0,P|489:270|463:339,2,120,0|0|0,0:0|0:0|0:0,0:0:0:0:
401,142,197675,1,0,0:0:0:0:
304,188,198050,6,0,L|178:182,1,120
135,159,198612,2,0,P|119:111|136:40,1,120
175,10,199175,1,0,0:0:0:0:
231,101,199550,1,0,0:0:0:0:
135,159,199925,2,0,L|16:150,2,120,0|0|0,0:0|0:0|0:0,0:0:0:0:
232,204,201050,6,0,P|314:189|393:249,1,180,0|0,0:0|0:0,0:0:0:0:
401,294,201800,1,0,0:0:0:0:
293,300,202175,1,0,0:0:0:0:
185,306,202550,2,0,P|138:263|139:143,1,180
174,116,203300,1,0,0:0:0:0:
267,170,203675,1,0,0:0:0:0:
349,99,204050,6,0,B|387:107|409:134|409:134|436:106|471:94|510:96,2,180,0|0|0,0:0|0:0|0:0,0:0:0:0:
329,205,205550,2,0,P|252:216|169:162,1,180
156,110,206300,2,0,L|152:42,1,60
109,17,206675,1,0,0:0:0:0:
34,95,207050,6,0,P|21:148|45:216,1,120
144,236,207800,2,0,L|268:230,1,120
367,201,208550,2,0,P|430:190|498:209,2,120,0|0|0,0:0|0:0|0:0,0:0:0:0:
285,130,209675,2,0,P|279:93|289:67,1,60
323,33,210050,6,0,P|388:22|436:46,2,120,0|0|0,0:0|0:0|0:0,0:0:0:0:
216,48,211175,1,0,0:0:0:0:
216,48,211362,2,0,L|97:39,1,120
26,121,212112,1,0,0:0:0:0:
26,121,212300,2,0,P|17:165|50:231,1,120,0|0,0:0|0:0,0:0:0:0:
148,187,213050,6,0,P|227:161|310:220,2,180,0|0|0,0:0|0:0|0:0,0:0:0:0:
218,263,214550,2,0,L|243:72,2,180,0|0|0,0:0|0:0|0:0,0:0:0:0:
111,285,216050,6,0,P|81:240|79:172,1,120
104,128,216612,2,0,P|115:93|116:59,1,60
217,30,217175,1,0,0:0:0:0:
281,116,217550,2,0,P|346:142|446:86,2,180,0|0|0,0:0|0:0|0:0,0:0:0:0:
352,34,219050,6,0,B|256:2|256:66|164:34,1,192,0|0,0:0|0:0,0:0:0:0:
121,36,219800,2,0,P|102:84|113:155,1,120
148,189,220362,1,0,0:0:0:0:
249,152,220737,2,0,P|318:140|370:160,1,120
401,195,221300,2,0,L|412:323,1,120
305,292,222050,6,0,P|270:326|134:328,1,180
113,289,222800,1,0,0:0:0:0:
202,224,223175,1,0,0:0:0:0:
202,224,223362,1,0,0:0:0:0:
100,187,223737,2,0,P|86:136|110:66,1,120
151,45,224300,2,0,L|276:34,1,120
373,67,225050,6,0,P|413:136|379:232,1,180
333,244,225800,2,0,L|204:231,1,120
169,262,226362,1,0,0:0:0:0:
118,166,226737,2,0,P|117:113|75:48,1,120
32,40,227300,1,0,0:0:0:0:
1,143,227675,1,0,0:0:0:0:
43,242,228050,6,0,L|230:220,1,180
264,187,228800,2,0,P|312:169|386:191,1,120
411,225,229362,2,0,L|433:356,2,120,0|0|0,0:0|0:0|0:0,0:0:0:0:
448,185,230300,2,0,P|471:138|466:68,1,120
366,112,231050,6,0,P|328:92|198:118,1,180,0|0,0:0|0:0,0:0:0:0:
172,163,231800,2,0,B|189:283|189:283|173:348,1,180
85,279,232737,2,0,P|66:241|76:161,1,120
104,121,233300,1,0,0:0:0:0:
193,181,233675,1,0,0:0:0:0:
273,108,234050,6,0,L|461:95,1,180
496,126,234800,1,0,0:0:0:0:
479,232,235175,1,0,0:0:0:0:
479,232,235362,2,0,P|426:254|359:237,1,120,0|0,0:0|0:0,0:0:0:0:
290,164,236112,1,0,0:0:0:0:
290,164,236299,2,0,P|237:142|170:159,1,120,0|0,0:0|0:0,0:0:0:0:
114,242,237050,6,0,L|88:370,2,120,0|0|0,0:0|0:0|0:0,0:0:0:0:
64,145,238175,1,0,0:0:0:0:
134,63,238550,2,0,P|190:83|310:39,1,180
339,10,239300,1,0,0:0:0:0:
433,61,239675,1,0,0:0:0:0:
370,148,240050,6,0,P|347:202|386:313,1,180
433,334,240800,1,0,0:0:0:0:
331,370,241175,2,0,L|267:361,1,60
232,323,241550,2,0,P|182:312|105:337,1,120
37,256,242300,1,0,0:0:0:0:
106,172,242675,1,0,0:0:0:0:
203,219,243050,1,0,0:0:0:0:
256,192,243425,12,0,247550,0:0:0:0:
