osu file format v9

[General]
AudioFilename: THE EVENING STAR.mp3
AudioLeadIn: 0
PreviewTime: 84540
Countdown: 0
SampleSet: Normal
StackLeniency: 0.7
Mode: 0
LetterboxInBreaks: 1

[Editor]
DistanceSpacing: 2
BeatDivisor: 4
GridSize: 8

[Metadata]
Title:THE EVENING STAR
Artist:yurika
Creator:y u z u k i
Version:Hard
Source:SOUND HOLIC
Tags:touhou 8STYLE yakumo yukari

[Difficulty]
HPDrainRate:6
CircleSize:4
OverallDifficulty:6
ApproachRate:7
SliderMultiplier:1.39999990463257
SliderTickRate:1

[Events]
//Background and Video events
0,0,"BG.jpg"
//Break Periods
2,36956,47321
2,108818,119177
//Storyboard Layer 0 (Background)
//Storyboard Layer 1 (Fail)
//Storyboard Layer 2 (Pass)
//Storyboard Layer 3 (Foreground)
//Storyboard Sound Samples
//Background Colour Transformations
3,100,163,162,255

[TimingPoints]
2265,359.281437125748,4,1,1,81,1,0
23700,-200,4,1,1,81,0,0
24418,-100,4,1,1,81,0,0
49568,-100,4,2,1,71,0,0
84598,-200,4,2,1,81,0,0
84598,-200,4,2,1,70,0,0
85316,-100,4,2,1,80,0,0
85496,-100,4,1,1,80,0,0
85618,-100,4,1,1,80,0,1
108612,-100,4,1,1,80,0,0
121424,-100,4,2,1,71,0,0
156454,-200,4,2,1,70,0,0
157173,-100,4,2,1,81,0,0
157173,-100,4,2,1,81,0,0
157352,-100,4,1,1,81,0,0
157474,-100,4,1,1,81,0,1
180468,-100,4,1,1,81,0,0

[Colours]
Combo1 : 210,168,89
Combo2 : 223,68,72
Combo3 : 167,99,192

[HitObjects]
256,192,23642,1,0
256,192,23732,1,0
256,192,23821,2,0,B|256:128,2,52.4999964237214
168,192,24540,2,0,B|152:224|152:264,1,69.9999952316285
344,192,24899,2,0,B|360:160|360:120,1,69.9999952316285
408,48,25259,6,0,B|464:96|472:144,2,104.999992847443
256,128,26157,2,0,B|248:88|256:56,2,69.9999952316285,0|8|0
168,136,26696,6,0,B|120:136|56:176,2,104.999992847443
256,280,27594,2,0,B|248:320|256:352,2,69.9999952316285,0|8|0
328,224,28133,6,0,B|368:176|376:128,2,104.999992847443
328,224,28851,1,0
288,96,29121,1,0
160,56,29390,1,0
120,136,29570,6,0,B|88:168|72:200,1,69.9999952316285,0|0
120,272,29929,2,0,B|152:240|168:208,1,69.9999952316285,0|0
240,176,30288,2,0,B|264:248|248:296,2,104.999992847443,0|4|0
312,120,31007,6,0,B|368:80|416:80,2,104.999992847443
312,120,31905,2,0,B|336:168|336:184,2,69.9999952316285,0|8|0
224,144,32444,6,0,B|200:72|176:48,2,104.999992847443
144,304,33342,2,0,B|176:280|192:240,2,69.9999952316285,0|8|0
232,320,33881,6,0,B|304:328|344:360,2,104.999992847443
280,240,34600,2,0,B|208:232|168:200,2,104.999992847443,0|0|0
272,152,35318,5,0
272,152,35498,1,0
192,112,35678,1,0
192,112,35857,1,0
112,80,36037,5,0
152,216,36217,1,0
272,152,36396,1,4
312,288,36577,1,0
432,224,36756,1,4
256,192,48253,12,4,49330
80,176,49690,6,0,B|112:248|112:312,1,139.999990463257,0|8
144,224,50229,1,0
176,136,50408,2,0,B|200:72|256:24,2,139.999990463257,0|8|0
176,136,51486,5,8
232,208,51666,1,0
296,144,51845,2,0,B|320:176|320:216,1,69.9999952316285
168,288,52205,2,0,B|144:256|144:216,1,69.9999952316285,8|0
176,136,52564,6,0,B|232:88|256:24,1,139.999990463257,0|8
336,72,53103,1,0
384,152,53282,2,0,B|448:184|480:256,2,139.999990463257,0|8|0
256,288,54360,5,0
256,288,54720,1,0
256,288,55079,1,8
256,288,55438,6,0,B|216:232|320:176|256:88,1,209.999985694886,0|0
176,128,56157,2,0,B|136:64|104:40,2,104.999992847443,0|0|0
176,128,56875,2,0,B|112:168|80:248,1,139.999990463257,0|8
128,312,57414,1,0
208,272,57594,1,0
280,328,57773,2,0,B|312:352|352:360,2,69.9999952316285,0|8|0
288,240,58312,6,0,B|336:176|344:104,1,139.999990463257,0|8
304,32,58851,1,0
216,56,59031,1,0
216,56,59121,1,0
216,56,59211,2,0,B|168:40|144:40,2,69.9999952316285,0|8|0
160,128,59750,6,0,B|152:208|104:272,1,139.999990463257,0|8
192,304,60288,2,0,B|256:336,1,69.9999952316285
312,264,60648,2,0,B|248:232,2,69.9999952316285,0|8|0
336,176,61187,6,0,B|392:136|472:128,1,139.999990463257,0|8
416,56,61726,1,0
328,80,61905,2,0,B|264:24|184:24,2,139.999990463257,0|8|0
200,184,62983,5,8
240,104,63163,1,0
152,120,63342,1,0
200,184,63522,1,0
112,216,63702,2,0,B|73:223|44:238,1,69.9999952316285,8|0
112,296,64061,6,0,B|172:345|247:359,1,139.999990463257,0|8
235,359,64600,1,0
240,272,64779,2,0,B|273:205|333:167,2,139.999990463257,0|8|0
256,96,65857,5,8
256,96,66217,1,0
256,96,66576,1,8
256,96,66935,6,0,B|144:110|63:189,1,209.999985694886,0|0
69,184,67654,2,0,B|109:248|141:272,2,104.999992847443,8|0|0
48,96,68372,2,0,B|120:88|192:48,1,139.999990463257,0|8
264,80,68911,1,0
312,160,69091,1,0
312,160,69270,2,0,B|344:136|384:128,2,69.9999952316285,0|8|0
240,216,69809,6,0,B|184:272|168:352,1,139.999990463257,0|8
168,248,70348,1,0
128,168,70528,1,0
128,168,70618,1,0
128,168,70708,2,0,B|80:152|56:152,2,69.9999952316285,0|8|0
136,80,71247,6,0,B|128:40|136:8,1,69.9999952316285,4|0
216,56,71606,2,0,B|224:104|216:128,1,69.9999952316285,4|0
232,216,71965,1,0
264,304,72145,1,0
344,344,72324,1,4
344,344,72414,1,0
344,344,72504,1,0
432,320,72684,6,0,B|472:248|472:184,1,139.999990463257,0|8
432,104,73223,1,0
344,88,73402,2,0,B|288:48|216:32,1,139.999990463257,0|8
272,104,73941,1,0
200,160,74121,6,0,B|176:200|168:232,1,69.9999952316285
232,288,74480,2,0,B|256:256|264:224,1,69.9999952316285,8|0
170,223,74839,2,0,B|202:151|274:95,1,139.999990463257,0|8
328,56,75378,1,0
392,120,75558,6,0,B|416:184|392:264,1,139.999990463257,0|8
312,216,76097,1,0
256,144,76276,2,0,B|216:88|128:64,1,139.999990463257,0|8
152,160,76815,1,0
72,120,76995,1,0
72,120,77175,2,0,B|8:96,2,69.9999952316285,0|8|0
40,208,77714,5,8
88,304,77893,1,0
168,232,78073,1,8
216,328,78253,1,0
304,296,78432,6,0,B|360:248|440:240,1,139.999990463257,0|8
344,224,78971,1,0
264,176,79151,2,0,B|280:104|256:32,1,139.999990463257,0|8
344,64,79690,1,0
376,152,79869,6,0,B|296:152|232:184,1,139.999990463257,0|8
176,248,80408,1,0
96,200,80588,1,0
80,184,80678,1,0
64,168,80767,1,0
120,96,80947,2,0,B|96:72|88:32,1,69.9999952316285,8|0
120,96,81306,6,0,B|192:80|264:104,1,139.999990463257,0|8
328,40,81845,2,0,B|360:56|384:88,2,69.9999952316285,0|0|0
257,102,82384,1,8
280,192,82564,1,0
256,192,82744,12,4,84181
224,120,84540,5,0
224,120,84720,2,0,B|184:176|176:216,1,104.999992847443,0|8
200,304,85438,1,0
272,248,85618,6,0,B|312:304|384:336,1,139.999990463257,4|8
432,256,86157,2,0,B|472:264,2,34.9999976158143
448,168,86516,1,0
400,88,86696,1,8
312,120,86875,1,0
336,208,87055,6,0,B|352:280|328:352,1,139.999990463257,0|8
256,288,87594,2,0,B|192:248|120:248,1,139.999990463257
124,249,88133,2,0,B|113:209|113:177,1,69.9999952316285,8|0
144,96,88492,5,4
208,160,88672,1,0
288,128,88851,1,8
368,88,89031,2,0,B|392:168|376:232,1,139.999990463257
288,240,89570,2,0,B|280:288|288:320,1,69.9999952316285,8|0
192,312,89929,6,0,B|128:352|40:352,1,139.999990463257,0|8
104,272,90468,1,0
64,192,90648,2,0,B|48:160|48:120,1,69.9999952316285
136,120,91007,2,0,B|144:80|168:48,1,69.9999952316285,8|0
232,112,91366,5,4
136,120,91546,1,0
192,192,91726,1,8
232,112,91905,2,0,B|296:64|368:56,1,139.999990463257,0|0
432,112,92444,1,8
456,200,92624,1,0
400,272,92803,6,0,B|384:344,1,69.9999952316285
320,272,93163,2,0,B|336:200,1,69.9999952316285,8|0
248,240,93522,2,0,B|264:168,1,69.9999952316285
176,184,93881,2,0,B|160:256,2,69.9999952316285,8|0|0
128,112,94420,5,0
128,112,94510,1,0
128,112,94600,1,8
200,56,94779,2,0,B|264:24|336:24,2,139.999990463257
248,136,95678,5,4
312,200,95857,1,0
272,280,96037,1,4
344,336,96217,2,0,B|400:272|456:256,1,139.999990463257,0|0
464,168,96756,2,0,B|416:160|384:144,1,69.9999952316285,0|0
392,56,97115,6,0,B|344:48|312:64,2,69.9999952316285,4|0|8
323,60,97654,2,0,B|273:113|257:193,1,139.999990463257
248,96,98193,1,8
168,48,98372,1,0
160,136,98552,6,0,B|88:136|24:176,1,139.999990463257,0|8
88,240,99091,2,0,B|160:248|224:288,1,139.999990463257
296,240,99630,2,0,B|296:280|312:312,1,69.9999952316285,8|0
392,344,99989,5,4
384,256,100169,1,0
309,307,100348,1,8
309,307,100528,2,0,B|245:339|165:339,1,139.999990463257
160,248,101067,1,8
160,248,101426,5,0
96,184,101606,2,0,B|80:128|88:96,1,69.9999952316285,0|8
208,128,101965,2,0,B|216:88|208:56,1,69.9999952316285
312,136,102324,2,0,B|344:112|384:104,2,69.9999952316285,0|8|0
312,136,102863,6,0,B|344:200|344:288,1,139.999990463257,4|8
376,360,103402,1,0
440,296,103582,1,0
344,272,103762,1,0
264,320,103941,2,0,B|216:320|184:344,1,69.9999952316285,8|0
144,264,104300,5,0
80,200,104480,1,0
144,264,104660,1,8
80,200,104839,1,0
160,168,105019,2,0,B|104:128|88:48,1,139.999990463257,0|8
176,64,105558,1,0
264,32,105738,5,0
304,112,105917,1,0
304,112,106007,1,0
304,112,106097,1,4
392,120,106276,2,0,B|416:200|400:272,2,139.999990463257
256,192,107175,12,4,108612
256,192,120109,12,4,121186
432,208,121546,6,0,B|400:136|400:72,1,139.999990463257,0|8
312,80,122085,1,0
256,136,122264,2,0,B|192:112|144:56,2,139.999990463257,0|8|0
256,136,123342,5,8
192,200,123522,1,0
280,224,123702,1,0
256,136,123881,1,0
192,200,124061,2,0,B|160:232|152:264,1,69.9999952316285,8|0
232,304,124420,6,0,B|312:304|392:336,1,139.999990463257,0|8
440,272,124959,1,0
368,216,125139,2,0,B|392:136|432:88,2,139.999990463257,0|8|0
256,96,126216,5,0
256,96,126576,1,0
256,96,126935,1,8
256,96,127294,6,0,B|296:152|192:208|256:296,1,209.999985694886
336,256,128013,2,0,B|376:320|408:344,2,104.999992847443,0|0|0
336,256,128731,2,0,B|400:216|432:136,1,139.999990463257,0|8
392,64,129270,1,0
304,96,129450,1,0
224,56,129629,2,0,B|192:32|152:24,2,69.9999952316285,0|8|0
192,144,130168,6,0,B|144:208|136:280,1,139.999990463257,0|8
200,336,130707,1,0
240,256,130887,1,0
240,256,130977,1,0
240,256,131067,2,0,B|288:272|312:272,2,69.9999952316285,0|8|0
304,192,131606,5,0
384,152,131785,1,0
328,80,131965,1,8
328,80,132144,2,0,B|264:48,1,69.9999952316285
208,112,132504,2,0,B|272:144,2,69.9999952316285,0|8|0
136,168,133043,6,0,B|120:200|120:248,1,69.9999952316285,8|0
128,328,133402,2,0,B|160:344|200:352,1,69.9999952316285,8|0
193,352,133941,5,0
200,264,134121,1,8
288,280,134300,1,0
288,280,134660,5,0
376,304,134839,1,8
368,216,135019,1,0
296,160,135199,6,0,B|280:120|288:88,1,69.9999952316285,0|8
216,224,135558,2,0,B|232:264|224:296,1,69.9999952316285,8|0
136,264,135917,6,0,B|120:216|128:184,2,69.9999952316285,8|0|8
216,224,136456,1,0
216,224,136815,5,0
224,136,136995,1,8
312,112,137175,1,0
312,112,137534,5,0
368,184,137714,1,8
312,256,137893,1,0
216,224,138073,6,0,B|144:256,1,69.9999952316285,0|8
88,192,138432,2,0,B|160:160,1,69.9999952316285,4|0
152,72,138791,6,0,B|256:32|368:80,1,209.999985694886
356,75,139510,2,0,B|320:144|320:184,2,104.999992847443,0|0|0
416,144,140229,2,0,B|464:208|472:280,1,139.999990463257,0|8
384,272,140767,1,0
296,272,140947,1,0
296,272,141126,2,0,B|264:296|224:304,2,69.9999952316285,0|8|0
296,184,141665,6,0,B|240:128|224:48,1,139.999990463257,0|8
229,67,142204,1,0
168,136,142384,1,0
160,152,142474,1,0
152,168,142564,2,0,B|128:200|120:232,2,69.9999952316285,0|8|0
200,240,143103,6,0,B|224:272|272:288,1,69.9999952316285,4|0
312,144,143462,2,0,B|288:112|240:96,1,69.9999952316285,4|0
256,192,143821,1,0
336,240,144001,1,0
360,328,144180,1,4
360,328,144270,1,0
360,328,144360,1,0
448,296,144540,6,0,B|408:224|408:160,1,139.999990463257,0|8
448,80,145079,1,0
368,40,145258,2,0,B|312:80|240:96,1,139.999990463257,0|8
184,168,145797,1,0
104,128,145977,6,0,B|88:168|96:200,1,69.9999952316285
184,168,146336,2,0,B|200:128|192:96,1,69.9999952316285,8|0
104,128,146696,2,0,B|80:184|96:280,1,139.999990463257,0|8
152,336,147234,1,0
168,248,147414,6,0,B|256:264|304:320,1,139.999990463257,0|8
240,232,147953,1,0
272,144,148133,2,0,B|336:120|416:128,1,139.999990463257,0|8
409,127,148672,1,8
376,216,148851,6,0,B|360:256|352:304,1,69.9999952316285
408,128,149211,2,0,B|424:88|432:40,1,69.9999952316285,8|0
344,88,149570,1,0
256,120,149750,1,0
232,208,149929,1,8
168,272,150109,1,0
104,192,150288,6,0,B|64:128|64:48,1,139.999990463257,0|8
64,60,150827,1,0
160,96,151007,2,0,B|200:160|200:232,1,139.999990463257,0|8
201,229,151546,1,0
288,240,151726,2,0,B|352:272,1,69.9999952316285
344,184,152085,2,0,B|280:152,1,69.9999952316285,8|0
360,104,152444,2,0,B|392:120,2,34.9999976158143
272,80,152803,2,0,B|296:56|304:16,1,69.9999952316285,8|0
272,80,153162,6,0,B|200:64|128:88,1,139.999990463257,0|8
64,144,153702,1,0
136,200,153881,2,0,B|112:240|104:304,2,104.999992847443,0|0|0
256,192,154600,12,4,156037
288,264,156396,5,0
288,264,156576,2,0,B|328:208|336:168,1,104.999992847443
304,96,157294,1,0
232,136,157474,6,0,B|192:80|120:48,1,139.999990463257,4|8
88,136,158013,2,0,B|72:168,2,34.9999976158143
136,216,158372,1,0
128,304,158552,1,8
208,256,158731,1,0
288,216,158911,6,0,B|272:144|296:72,1,139.999990463257,0|8
376,120,159450,2,0,B|392:192|368:264,1,139.999990463257,0|0
284,286,159989,2,0,B|276:246|292:206,1,69.9999952316285,8|0
208,256,160348,5,4
120,272,160528,1,0
32,288,160707,1,8
72,208,160887,2,0,B|48:128|64:64,1,139.999990463257
144,104,161426,2,0,B|152:56|144:24,1,69.9999952316285,8|0
232,72,161785,6,0,B|296:32|384:32,1,139.999990463257,0|8
416,112,162324,1,0
328,128,162504,2,0,B|344:160|344:200,1,69.9999952316285,0|0
184,256,162863,2,0,B|168:224|168:184,1,69.9999952316285,8|0
256,200,163222,5,4
296,280,163402,1,0
224,336,163582,1,8
184,256,163761,2,0,B|120:304|48:312,1,139.999990463257
80,224,164300,1,8
120,144,164480,1,0
208,136,164659,6,0,B|224:64,1,69.9999952316285
304,112,165019,2,0,B|360:64,1,69.9999952316285,8|0
416,136,165378,2,0,B|488:136,1,69.9999952316285
456,224,165738,1,8
456,224,166097,5,4
384,272,166276,1,0
384,272,166366,1,0
384,272,166456,1,8
320,328,166635,2,0,B|256:360|184:360,2,139.999990463257
272,256,167534,1,4
216,192,167713,1,0
248,112,167893,5,4
184,56,168073,2,0,B|128:120|72:136,1,139.999990463257
32,208,168612,2,0,B|80:216|112:232,1,69.9999952316285,8|0
112,312,168971,6,0,B|160:320|192:304,2,69.9999952316285,4|0|8
182,309,169510,2,0,B|232:256|248:176,1,139.999990463257
264,272,170049,1,8
304,352,170228,1,0
368,288,170408,6,0,B|360:240|368:208,2,69.9999952316285,0|0|8
448,248,170947,2,0,B|464:176|448:104,1,139.999990463257
360,112,171486,2,0,B|360:72|344:40,1,69.9999952316285,8|0
280,88,171845,6,0,B|280:128|296:168,2,69.9999952316285,4|0|8
280,88,172384,2,0,B|208:56|128:40,1,139.999990463257
152,136,172923,1,8
152,136,173282,5,0
152,136,173462,2,0,B|136:184|144:216,1,69.9999952316285,0|8
224,248,173821,2,0,B|240:200|232:176,1,69.9999952316285,0|0
320,208,174181,2,0,B|360:200|400:216,2,69.9999952316285,0|8|0
352,120,174720,6,0,B|296:80|216:80,1,139.999990463257,4|8
152,32,175258,1,0
88,88,175438,1,0
168,112,175618,1,0
88,88,175797,2,0,B|72:128|80:168,1,69.9999952316285,8|0
120,240,176157,5,0
200,288,176336,1,0
248,208,176516,1,8
328,248,176696,1,0
392,184,176875,1,0
392,184,177235,1,8
392,184,177594,5,4
312,144,177773,1,0
312,144,177863,1,0
312,144,177953,1,0
224,112,178133,2,0,B|216:72,1,34.9999976158143
144,136,178402,2,0,B|152:176,1,34.9999976158143
64,192,178672,1,0
64,192,178851,1,0
256,192,179031,12,4,180468
