osu file format v9

[General]
AudioFilename: THE EVENING STAR.mp3
AudioLeadIn: 0
PreviewTime: 84540
Countdown: 0
SampleSet: Soft
StackLeniency: 0.7
Mode: 0
LetterboxInBreaks: 1

[Editor]
DistanceSpacing: 1
BeatDivisor: 2
GridSize: 16

[Metadata]
Title:THE EVENING STAR
Artist:yurika
Creator:y u z u k i
Version:Easy
Source:SOUND HOLIC
Tags:touhou 8STYLE yakumo yukari

[Difficulty]
HPDrainRate:2
CircleSize:3
OverallDifficulty:2
ApproachRate:2
SliderMultiplier:0.79999990463257
SliderTickRate:1

[Events]
//Background and Video events
0,0,"BG.jpg"
//Break Periods
2,108818,119954
//Storyboard Layer 0 (Background)
//Storyboard Layer 1 (Fail)
//Storyboard Layer 2 (Pass)
//Storyboard Layer 3 (Foreground)
//Storyboard Sound Samples
//Background Colour Transformations
3,100,163,162,255

[TimingPoints]
2265,359.281437125748,4,2,1,81,1,0
85618,-100,4,2,1,81,0,1
108612,-100,4,2,1,81,0,0
157474,-100,4,2,1,81,0,1
180468,-100,4,2,1,81,0,0

[Colours]
Combo1 : 216,172,90
Combo2 : 220,67,71
Combo3 : 170,109,197

[HitObjects]
176,192,49690,2,0,B|144:240|192:320|160:352,2,159.999980926514
176,192,51845,1,0
256,192,52205,1,8
336,192,52564,2,0,B|368:144|320:64|352:32,2,159.999980926514
256,48,54720,5,0
176,80,55079,1,8
96,112,55438,2,0,B|64:192|96:272,2,159.999980926514
240,192,57594,6,0,B|320:192,1,79.999990463257,0|8
400,192,58312,2,0,B|432:112|400:32,2,159.999980926514
256,112,60468,1,0
256,192,60827,1,8
256,272,61187,6,0,B|424:272,2,159.999980926514,0|0|0
112,192,63342,1,0
192,192,63702,1,8
272,192,64061,2,0,B|312:104|264:24,2,159.999980926514
432,192,66217,6,0,B|432:280,2,79.999990463257,0|8|0
288,272,67654,1,0
128,272,68372,1,0
208,144,69091,1,0
208,224,69450,1,8
280,184,69809,6,0,B|440:184,2,159.999980926514
416,96,71965,2,0,B|336:96,1,79.999990463257,0|8
256,96,72684,5,0
96,96,73402,1,0
176,240,74121,1,0
256,240,74480,2,0,B|256:336,1,79.999990463257,8|0
256,160,75558,5,0
416,160,76276,1,0
416,80,76636,1,0
336,80,76995,2,0,B|256:80,1,79.999990463257,0|8
208,144,77714,2,0,B|128:144,1,79.999990463257,0|8
128,224,78432,5,0
288,224,79151,1,0
448,224,79869,1,0
368,224,80229,1,8
368,144,80588,2,0,B|368:64,2,79.999990463257,0|8|0
208,144,82025,2,0,B|208:224,1,79.999990463257,0|8
256,192,82744,12,4,84181
176,192,84899,5,0
256,192,85259,1,0
336,192,85618,2,0,B|336:96,1,79.999990463257,0|8
416,112,86336,2,0,B|416:32,2,79.999990463257,0|8|0
416,272,87773,1,0
336,272,88133,1,8
256,272,88492,6,0,B|160:272,1,79.999990463257,0|8
176,192,89211,2,0,B|96:192,1,79.999990463257,0|8
96,112,89929,2,0,B|256:112,1,159.999980926514
240,272,91366,5,0
320,272,91726,1,8
400,272,92085,2,0,B|400:192,1,79.999990463257,0|8
400,112,92803,2,0,B|320:80|240:112,1,159.999980926514
96,32,94241,2,0,B|64:112|96:192,2,159.999980926514
176,64,96037,5,8
256,96,96396,1,0
336,128,96756,1,8
416,160,97115,6,0,B|464:240|400:336,2,159.999980926514
256,112,99270,1,0
256,192,99630,1,8
256,272,99989,6,0,B|256:352,1,79.999990463257,0|8
336,320,100708,2,0,B|336:240,2,79.999990463257,0|8|0
448,208,102145,2,0,B|448:128,1,79.999990463257,0|8
368,96,102863,2,0,B|368:176,3,79.999990463257,0|8|0|8
368,256,104300,5,0
304,304,104660,1,8
240,256,105019,2,0,B|192:192,1,79.999990463257,0|8
112,192,105738,2,0,B|80:112|112:32,1,159.999980926514
192,32,106815,1,8
240,96,107175,2,0,B|320:96,1,79.999990463257,0|8
320,176,107893,2,0,B|400:176,1,79.999990463257,0|8
400,256,108612,1,4
336,192,121546,6,0,B|368:144|320:64|352:32,2,159.999980926514
336,192,123701,1,0
256,192,124061,1,8
176,192,124420,2,0,B|144:240|192:320|160:352,2,159.999980926514
256,336,126576,5,0
336,304,126935,1,8
416,272,127294,2,0,B|448:192|416:112,2,159.999980926514
272,192,129450,6,0,B|192:192,1,79.999990463257,0|8
112,192,130168,2,0,B|80:272|112:352,2,159.999980926514
256,272,132324,1,0
256,192,132683,1,8
256,112,133043,6,0,B|88:112,2,159.999980926514,0|0|0
400,192,135198,1,0
320,192,135558,1,8
240,192,135917,2,0,B|200:280|248:360,2,159.999980926514
80,192,138073,6,0,B|80:104,2,79.999990463257,0|8|0
224,112,139510,1,0
384,112,140228,1,0
304,240,140947,1,0
304,160,141306,1,8
232,200,141665,6,0,B|72:200,2,159.999980926514
96,288,143821,2,0,B|176:288,1,79.999990463257,0|8
256,288,144540,5,0
416,288,145258,1,0
336,144,145977,1,0
256,144,146336,2,0,B|256:48,1,79.999990463257,0|0
256,224,147414,5,0
96,224,148132,1,0
96,304,148492,1,8
176,304,148851,2,0,B|256:304,1,79.999990463257,0|8
304,240,149570,2,0,B|384:240,1,79.999990463257,0|8
384,160,150288,5,0
224,160,151007,1,0
64,160,151725,1,0
144,160,152085,1,8
144,240,152444,2,0,B|144:320,2,79.999990463257,0|8|0
304,240,153881,2,0,B|304:160,1,79.999990463257,0|8
256,192,154600,12,4,156037
336,192,156755,5,0
256,192,157115,1,0
176,192,157474,6,0,B|176:288,1,79.999990463257,0|8
96,272,158192,2,0,B|96:352,2,79.999990463257,0|8|0
96,112,159629,1,0
176,112,159989,1,8
256,112,160348,6,0,B|352:112,1,79.999990463257,0|8
336,192,161067,2,0,B|416:192,1,79.999990463257,0|8
416,272,161785,2,0,B|256:272,1,159.999980926514
272,112,163222,5,0
192,112,163582,1,8
112,112,163941,2,0,B|112:192,1,79.999990463257,0|8
112,272,164659,2,0,B|192:304|272:272,1,159.999980926514
416,352,166097,2,0,B|448:272|416:192,2,159.999980926514
336,320,167893,5,8
256,288,168252,1,0
176,256,168612,1,8
96,224,168971,6,0,B|48:144|112:48,2,159.999980926514
256,272,171126,1,0
256,192,171486,1,8
256,112,171845,6,0,B|256:32,1,79.999990463257,0|8
176,64,172564,2,0,B|176:144,2,79.999990463257,0|8|0
64,176,174001,2,0,B|64:256,1,79.999990463257,0|8
144,288,174720,2,0,B|144:208,3,79.999990463257,0|8|0|8
144,128,176156,5,0
208,80,176516,1,8
272,128,176875,2,0,B|320:192,1,79.999990463257,0|8
400,192,177594,2,0,B|432:272|400:352,1,159.999980926514
320,352,178671,1,8
272,288,179031,2,0,B|192:288,1,79.999990463257,0|8
192,208,179749,2,0,B|112:208,1,79.999990463257,0|8
112,128,180468,5,4
