osu file format v14

[General]
AudioFilename: Yung Lean - Kyoto.mp3
AudioLeadIn: 0
PreviewTime: -1
Countdown: 1
SampleSet: Normal
StackLeniency: 0.7
Mode: 0
LetterboxInBreaks: 1
WidescreenStoryboard: 0

[Editor]
DistanceSpacing: 0.8
BeatDivisor: 8
GridSize: 16
TimelineZoom: 1.8

[Metadata]
Title:kyoto
TitleUnicode:kyoto
Artist:yung lean
ArtistUnicode:yung lean
Creator:filsdelama
Version:emotional
Source:fzfz
Tags:zfzfz
BeatmapID:736011
BeatmapSetID:332447

[Difficulty]
HPDrainRate:7
CircleSize:5
OverallDifficulty:6
ApproachRate:9
SliderMultiplier:1.9
SliderTickRate:1

[Events]
//Background and Video events
//Break Periods
2,100846,102097
//Storyboard Layer 0 (Background)
//Storyboard Layer 1 (Fail)
//Storyboard Layer 2 (Pass)
//Storyboard Layer 3 (Foreground)
//Storyboard Sound Samples

[TimingPoints]
53479,512.689054088695,4,1,0,100,1,0

[HitObjects]
192,80,53478,6,0,P|176:160|208:192,1,95
192,192,53863,2,0,B|208:240|208:240|304:272,1,142.5
320,288,54376,1,0,0:0:0:0:
352,272,54504,2,0,P|384:192|368:160,1,95
304,48,55017,1,0,0:0:0:0:
208,144,55273,1,0,0:0:0:0:
160,96,55401,1,0,0:0:0:0:
96,112,55529,6,0,L|64:208,1,95
368,304,56042,2,0,L|400:208,1,95
368,160,56426,1,0,0:0:0:0:
320,208,56555,2,0,P|272:192|272:128,1,95
256,96,56939,1,0,0:0:0:0:
256,32,57067,2,0,L|144:32,1,95
48,160,57580,6,0,P|64:208|176:256,1,142.5
176,256,58093,2,0,L|208:160,1,95
240,112,58477,2,0,L|288:112,1,47.5,0|0,0:0|0:0,0:0:0:0:
416,192,58862,1,0,0:0:0:0:
368,304,59118,2,0,L|288:336,1,47.5
256,288,59374,2,0,L|192:272,1,47.5
128,256,59631,6,0,P|112:208|160:144,1,95
144,112,60015,1,0,0:0:0:0:
208,80,60143,1,0,0:0:0:0:
256,128,60272,1,0,0:0:0:0:
304,80,60400,2,0,L|368:128,1,47.5
400,144,60656,2,0,P|448:96|448:32,2,95,0|0|0,0:0|0:0|0:0,0:0:0:0:
272,224,61425,1,0,0:0:0:0:
256,240,61553,1,0,0:0:0:0:
240,256,61682,6,0,B|192:240|192:240|160:208,1,95,0|0,0:0|0:0,0:0:0:0:
112,160,62066,1,0,0:0:0:0:
128,96,62194,2,0,P|176:80|240:96,1,95
400,176,62707,6,0,P|384:224|352:240,2,63.3333333333333,0|0|0,0:0|0:0|0:0,0:0:0:0:
400,112,63220,2,0,P|352:80|256:112,1,158.333333333333
240,128,63732,6,0,L|176:96,2,63.3333333333333,0|0|0,0:0|0:0|0:0,0:0:0:0:
304,160,64245,1,0,0:0:0:0:
224,272,64416,1,0,0:0:0:0:
144,160,64587,1,0,0:0:0:0:
224,48,64758,1,0,0:0:0:0:
224,128,64929,2,0,L|224:208,1,63.3333333333333,0|0,0:0|0:0,0:0:0:0:
160,240,65270,2,0,P|192:272|288:240,1,158.333333333333
304,224,65783,5,0,0:0:0:0:
336,160,65954,1,0,0:0:0:0:
176,64,66296,2,0,P|144:96|128:160,1,95
272,336,66808,2,0,L|272:240,1,95
240,112,67321,1,0,0:0:0:0:
400,128,67577,5,0,0:0:0:0:
304,192,67834,2,0,B|256:208|256:208|128:144,1,190
48,64,68603,2,0,L|144:64,2,95,0|0|0,0:0|0:0|0:0,0:0:0:0:
32,160,69372,2,0,B|64:224|64:224|144:256,1,158.333333333333
160,256,69885,6,0,L|240:192,1,95
256,64,70397,1,0,0:0:0:0:
320,112,70525,1,0,0:0:0:0:
400,96,70654,1,0,0:0:0:0:
400,208,70910,2,0,L|320:256|320:256,2,47.5,0|0|0,0:0|0:0|0:0,0:0:0:0:
480,160,71423,2,0,L|480:272,1,95
400,112,71935,2,0,L|400:16,1,95
272,32,72448,2,0,L|272:144,1,95
336,208,72961,2,0,P|304:256|176:256,1,190
48,176,73730,1,0,0:0:0:0:
160,64,73986,5,0,0:0:0:0:
160,144,74114,1,0,0:0:0:0:
240,96,74242,2,0,L|288:96,2,47.5,0|0|0,0:0|0:0|0:0,0:0:0:0:
32,96,74755,1,0,0:0:0:0:
144,256,75011,2,0,P|96:256|48:224,2,95,0|0|0,0:0|0:0|0:0,0:0:0:0:
336,240,75780,1,0,0:0:0:0:
384,192,75909,1,0,0:0:0:0:
336,144,76037,6,0,L|240:144,1,95
80,144,76550,2,0,L|176:144,1,95
208,80,77062,1,0,0:0:0:0:
208,224,77319,1,0,0:0:0:0:
304,272,77575,2,0,L|336:320,2,47.5
352,208,77959,1,0,0:0:0:0:
304,144,78088,6,0,P|288:176|240:192,2,71.25,0|0|0,0:0|0:0|0:0,0:0:0:0:
368,64,78600,2,0,B|288:48|288:48|208:80,1,166.25
176,112,79113,1,0,0:0:0:0:
64,208,79369,1,0,0:0:0:0:
128,320,79626,2,0,L|32:368,1,95
176,272,80138,6,0,P|208:256|256:304,1,95
384,224,80651,2,0,P|426:239|461:210,1,95
304,32,81164,1,0,0:0:0:0:
304,144,81420,1,0,0:0:0:0:
304,32,81676,2,0,L|240:112,1,95
128,192,82189,6,0,P|112:240|128:288,1,95
240,208,82702,1,0,0:0:0:0:
192,304,82958,1,0,0:0:0:0:
176,48,83214,2,0,P|144:32|112:80,2,95
272,80,83983,1,0,0:0:0:0:
208,160,84240,2,0,L|192:208|176:256,1,95
160,320,84624,2,0,L|208:336,1,47.5
224,336,84881,2,0,P|304:336|336:304,1,118.75
320,288,85265,2,0,P|304:240|320:192,1,95
352,16,85778,2,0,P|368:64|352:112,1,95
208,48,86291,5,0,0:0:0:0:
96,96,86547,1,0,0:0:0:0:
96,96,86675,1,0,0:0:0:0:
192,240,86931,1,0,0:0:0:0:
192,320,87060,1,0,0:0:0:0:
80,272,87316,2,0,P|96:208|240:160,1,213.75
320,256,88085,5,0,0:0:0:0:
416,352,88341,2,0,P|432:288|432:240,1,95
400,192,88726,1,0,0:0:0:0:
304,80,88982,2,0,L|288:128,1,47.5
288,240,89367,2,0,B|256:288|256:336|256:336|208:288|144:288,1,213.75
96,240,90136,5,0,0:0:0:0:
80,176,90264,1,0,0:0:0:0:
144,192,90392,2,0,L|176:240,1,47.5
208,160,90648,2,0,L|208:112,1,47.5
208,32,90905,1,0,0:0:0:0:
272,80,91033,2,0,P|288:112|288:144,1,47.5
304,240,91417,2,0,B|336:224|352:256|352:256|368:144,2,166.25
240,288,92443,5,0,0:0:0:0:
176,160,92699,1,0,0:0:0:0:
112,288,92956,1,0,0:0:0:0:
64,128,93468,2,0,L|64:96|64:80,1,47.5
144,128,93725,2,0,L|144:64,1,47.5
96,288,93981,1,0,0:0:0:0:
240,64,94494,5,0,0:0:0:0:
304,96,94622,2,0,L|256:144,1,47.5
240,192,94878,2,0,P|272:208|336:208,1,95
400,176,95263,2,0,L|416:128,2,47.5
416,304,95775,1,0,0:0:0:0:
304,256,96032,2,0,B|288:208|288:208|288:144,2,95
256,192,97057,12,4,100646,0:0:0:0:
128,160,102697,6,0,P|192:176|288:160,1,142.5
224,80,103466,1,0,0:0:0:0:
144,80,103594,1,0,0:0:0:0:
128,160,103722,2,0,P|176:176|272:176,1,142.5
368,32,104491,1,0,0:0:0:0:
416,96,104619,1,0,0:0:0:0:
464,32,104747,6,0,P|496:64|496:128,2,95
368,160,105516,2,0,L|336:112,1,47.5
336,32,105773,2,0,B|288:32|288:32|256:96,1,118.75
256,192,106285,2,0,P|192:208|176:176,1,95
144,64,106798,5,0,0:0:0:0:
144,64,106862,1,0,0:0:0:0:
32,128,107055,1,0,0:0:0:0:
32,240,107311,2,0,B|112:224|128:192|128:192|160:288,1,190
272,336,108080,2,0,L|320:368,2,47.5
224,256,108593,2,0,L|240:208,1,47.5
272,144,108849,6,0,P|336:144|384:256,1,190
320,336,109618,1,0,0:0:0:0:
224,272,109874,2,0,P|160:272|112:176,1,166.25
112,160,110451,6,0,L|112:80,1,71.25
256,16,110900,2,0,L|256:144,1,118.75
336,208,111412,1,0,0:0:0:0:
272,304,111669,1,0,0:0:0:0:
176,240,111925,2,0,L|160:272,1,23.75
160,304,112053,2,0,P|96:304|96:224,1,142.5
