osu file format v13

[General]
AudioFilename: Yun-chi --Wonderful Wonder World-----------.mp3
AudioLeadIn: 0
PreviewTime: 195257
Countdown: 0
SampleSet: Soft
StackLeniency: 0.7
Mode: 3
LetterboxInBreaks: 0
SpecialStyle: 1
WidescreenStoryboard: 1

[Editor]
DistanceSpacing: 1
BeatDivisor: 8
GridSize: 8
TimelineZoom: 1

[Metadata]
Title:Wonderful Wonder World*
TitleUnicode:Wonderful Wonder World*
Artist:yun*chi
ArtistUnicode:yun*chi
Creator:Mysticalia
Version:Wonder World
Source:
Tags:Log Horizon ED
BeatmapID:626255
BeatmapSetID:276205

[Difficulty]
HPDrainRate:8
CircleSize:7
OverallDifficulty:8
ApproachRate:5
SliderMultiplier:1.4
SliderTickRate:1

[Events]
//Background and Video events
0,0,"LH.jpg",0,0
//Break Periods
//Storyboard Layer 0 (Background)
//Storyboard Layer 1 (Fail)
//Storyboard Layer 2 (Pass)
//Storyboard Layer 3 (Foreground)
//Storyboard Sound Samples

[TimingPoints]
90,469.153178512784,4,2,0,0,1,0
62018,-100,4,2,0,0,0,1
93920,-100,4,2,0,0,0,0
150219,-100,4,2,0,0,0,1
180244,-100,4,2,0,0,0,0
221530,-100,4,2,0,0,0,1
251556,-100,4,2,0,0,0,0

[HitObjects]
182,192,90,128,0,559:0:0:0:0:
329,192,559,128,0,911:0:0:0:0:
182,192,911,1,0,0:0:0:0:
329,192,1028,128,0,1497:0:0:0:0:
182,192,1497,128,0,1732:0:0:0:0:
109,192,1732,1,0,0:0:0:0:
256,192,1849,1,0,0:0:0:0:
329,192,1966,128,0,2201:0:0:0:0:
182,192,2201,128,0,2435:0:0:0:0:
36,192,2435,128,0,3843:0:0:0:0:
182,192,2670,128,0,3139:0:0:0:0:
109,192,3139,128,0,3374:0:0:0:0:
402,192,3374,128,0,3608:0:0:0:0:
109,192,3608,1,0,0:0:0:0:
182,192,3725,1,0,0:0:0:0:
256,192,3843,1,0,0:0:0:0:
329,192,3843,1,0,0:0:0:0:
109,192,3843,128,0,4077:0:0:0:0:
475,192,3843,128,0,4312:0:0:0:0:
402,192,3843,1,0,0:0:0:0:
36,192,4077,128,0,4312:0:0:0:0:
256,192,4077,1,0,0:0:0:0:
109,192,4312,128,0,4664:0:0:0:0:
182,192,4312,1,0,0:0:0:0:
256,192,4429,1,0,0:0:0:0:
329,192,4546,1,0,0:0:0:0:
36,192,4664,1,0,0:0:0:0:
402,192,4664,1,0,0:0:0:0:
475,192,4781,128,0,5016:0:0:0:0:
329,192,4781,1,0,0:0:0:0:
256,192,4898,1,0,0:0:0:0:
402,192,5016,128,0,5250:0:0:0:0:
182,192,5016,1,0,0:0:0:0:
109,192,5133,1,0,0:0:0:0:
475,192,5250,128,0,5485:0:0:0:0:
36,192,5250,1,0,0:0:0:0:
109,192,5367,1,0,0:0:0:0:
402,192,5485,128,0,5719:0:0:0:0:
182,192,5485,1,0,0:0:0:0:
109,192,5602,1,0,0:0:0:0:
475,192,5719,128,0,5954:0:0:0:0:
36,192,5719,128,0,5954:0:0:0:0:
329,192,5954,128,0,6188:0:0:0:0:
109,192,5954,128,0,6188:0:0:0:0:
36,192,6188,128,0,6423:0:0:0:0:
402,192,6423,128,0,6892:0:0:0:0:
109,192,6423,128,0,6658:0:0:0:0:
182,192,6658,128,0,6892:0:0:0:0:
256,192,6892,128,0,7127:0:0:0:0:
36,192,6892,128,0,7127:0:0:0:0:
402,192,7127,128,0,7361:0:0:0:0:
182,192,7127,128,0,7361:0:0:0:0:
256,192,7361,128,0,7596:0:0:0:0:
36,192,7361,128,0,7596:0:0:0:0:
475,192,7596,128,0,8065:0:0:0:0:
109,192,7596,1,0,0:0:0:0:
402,192,8065,128,0,8417:0:0:0:0:
109,192,8065,1,0,0:0:0:0:
182,192,8182,1,0,0:0:0:0:
109,192,8300,1,0,0:0:0:0:
329,192,8417,1,0,0:0:0:0:
36,192,8417,1,0,0:0:0:0:
182,192,8534,128,0,8769:0:0:0:0:
109,192,8534,1,0,0:0:0:0:
36,192,8769,128,0,9003:0:0:0:0:
109,192,9003,128,0,9238:0:0:0:0:
402,192,9003,1,0,0:0:0:0:
329,192,9121,1,0,0:0:0:0:
182,192,9238,128,0,9473:0:0:0:0:
402,192,9238,1,0,0:0:0:0:
329,192,9355,1,0,0:0:0:0:
475,192,9473,128,0,9707:0:0:0:0:
36,192,9473,128,0,9707:0:0:0:0:
329,192,9707,128,0,9942:0:0:0:0:
109,192,9707,128,0,9942:0:0:0:0:
182,192,9942,128,0,10176:0:0:0:0:
402,192,10176,128,0,10411:0:0:0:0:
256,192,10176,1,0,0:0:0:0:
36,192,10176,128,0,10645:0:0:0:0:
329,192,10411,128,0,10645:0:0:0:0:
256,192,10645,128,0,10880:0:0:0:0:
475,192,10880,128,0,11115:0:0:0:0:
182,192,10880,1,0,0:0:0:0:
402,192,11115,128,0,11349:0:0:0:0:
109,192,11115,1,0,0:0:0:0:
182,192,11349,1,0,0:0:0:0:
256,192,11349,1,0,0:0:0:0:
329,192,11349,1,0,0:0:0:0:
36,192,11349,128,0,11818:0:0:0:0:
109,192,11818,1,0,0:0:0:0:
402,192,11818,128,0,12170:0:0:0:0:
329,192,12053,1,0,0:0:0:0:
256,192,12170,1,0,0:0:0:0:
329,192,12287,1,0,0:0:0:0:
182,192,12287,128,0,12522:0:0:0:0:
256,192,12405,1,0,0:0:0:0:
36,192,12522,128,0,12757:0:0:0:0:
329,192,12522,1,0,0:0:0:0:
402,192,12757,1,0,0:0:0:0:
109,192,12757,128,0,12991:0:0:0:0:
475,192,12874,1,0,0:0:0:0:
182,192,12991,128,0,13226:0:0:0:0:
402,192,12991,1,0,0:0:0:0:
329,192,13109,1,0,0:0:0:0:
256,192,13226,1,0,0:0:0:0:
475,192,13226,128,0,13460:0:0:0:0:
36,192,13226,128,0,13460:0:0:0:0:
329,192,13460,128,0,13930:0:0:0:0:
109,192,13460,128,0,13695:0:0:0:0:
256,192,13460,1,0,0:0:0:0:
182,192,13578,1,0,0:0:0:0:
256,192,13695,1,0,0:0:0:0:
36,192,13695,128,0,13930:0:0:0:0:
402,192,13930,128,0,14399:0:0:0:0:
475,192,13930,128,0,14399:0:0:0:0:
182,192,13930,1,0,0:0:0:0:
109,192,14047,1,0,0:0:0:0:
36,192,14164,1,0,0:0:0:0:
109,192,14281,1,0,0:0:0:0:
256,192,14399,128,0,14633:0:0:0:0:
182,192,14399,1,0,0:0:0:0:
109,192,14516,1,0,0:0:0:0:
402,192,14633,128,0,14868:0:0:0:0:
36,192,14633,1,0,0:0:0:0:
109,192,14751,1,0,0:0:0:0:
329,192,14868,128,0,15102:0:0:0:0:
182,192,14868,1,0,0:0:0:0:
109,192,14985,1,0,0:0:0:0:
36,192,15102,1,0,0:0:0:0:
182,192,15102,1,0,0:0:0:0:
256,192,15102,128,0,15572:0:0:0:0:
109,192,15220,1,0,0:0:0:0:
36,192,15337,1,0,0:0:0:0:
36,192,15572,1,0,0:0:0:0:
182,192,15572,1,0,0:0:0:0:
402,192,15572,128,0,16041:0:0:0:0:
182,192,15806,1,0,0:0:0:0:
109,192,15923,1,0,0:0:0:0:
36,192,16041,1,0,0:0:0:0:
182,192,16041,1,0,0:0:0:0:
256,192,16041,128,0,16510:0:0:0:0:
109,192,16275,1,0,0:0:0:0:
36,192,16510,1,0,0:0:0:0:
182,192,16510,1,0,0:0:0:0:
329,192,16510,128,0,16744:0:0:0:0:
402,192,16744,128,0,16979:0:0:0:0:
36,192,16744,1,0,0:0:0:0:
109,192,16862,1,0,0:0:0:0:
36,192,16979,1,0,0:0:0:0:
182,192,16979,1,0,0:0:0:0:
329,192,16979,1,0,0:0:0:0:
475,192,16979,128,0,17214:0:0:0:0:
36,192,17214,1,0,0:0:0:0:
329,192,17214,128,0,17683:0:0:0:0:
256,192,17214,1,0,0:0:0:0:
109,192,17331,1,0,0:0:0:0:
182,192,17331,1,0,0:0:0:0:
256,192,17390,1,0,0:0:0:0:
36,192,17390,1,0,0:0:0:0:
109,192,17448,1,0,0:0:0:0:
182,192,17448,1,0,0:0:0:0:
36,192,17565,1,0,0:0:0:0:
256,192,17565,1,0,0:0:0:0:
256,192,17683,1,0,0:0:0:0:
475,192,17683,128,0,18152:0:0:0:0:
402,192,17683,1,0,0:0:0:0:
36,192,17683,1,0,0:0:0:0:
109,192,17917,1,0,0:0:0:0:
256,192,17917,1,0,0:0:0:0:
182,192,18035,1,0,0:0:0:0:
36,192,18035,1,0,0:0:0:0:
109,192,18152,1,0,0:0:0:0:
256,192,18152,1,0,0:0:0:0:
402,192,18152,128,0,18386:0:0:0:0:
182,192,18269,1,0,0:0:0:0:
36,192,18269,1,0,0:0:0:0:
256,192,18328,1,0,0:0:0:0:
109,192,18328,1,0,0:0:0:0:
329,192,18386,128,0,18621:0:0:0:0:
182,192,18386,1,0,0:0:0:0:
36,192,18386,1,0,0:0:0:0:
109,192,18504,1,0,0:0:0:0:
256,192,18504,1,0,0:0:0:0:
402,192,18621,128,0,18856:0:0:0:0:
475,192,18856,128,0,20732:0:0:0:0:
36,192,18856,128,0,20732:0:0:0:0:
182,192,18856,1,0,0:0:0:0:
329,192,18856,1,0,0:0:0:0:
182,192,20263,1,0,0:0:0:0:
256,192,20380,1,0,0:0:0:0:
329,192,20498,1,0,0:0:0:0:
402,192,20615,1,0,0:0:0:0:
329,192,20732,128,0,22609:0:0:0:0:
182,192,20732,128,0,22609:0:0:0:0:
109,192,20732,1,0,0:0:0:0:
402,192,20850,1,0,0:0:0:0:
109,192,20967,1,0,0:0:0:0:
402,192,21084,1,0,0:0:0:0:
256,192,21201,1,0,0:0:0:0:
402,192,21319,1,0,0:0:0:0:
256,192,21436,1,0,0:0:0:0:
402,192,21553,1,0,0:0:0:0:
475,192,21671,1,0,0:0:0:0:
402,192,21788,1,0,0:0:0:0:
475,192,21905,1,0,0:0:0:0:
402,192,22022,1,0,0:0:0:0:
109,192,22140,1,0,0:0:0:0:
36,192,22257,1,0,0:0:0:0:
109,192,22374,1,0,0:0:0:0:
36,192,22492,1,0,0:0:0:0:
109,192,22609,128,0,24485:0:0:0:0:
402,192,22609,1,0,0:0:0:0:
329,192,23195,1,0,0:0:0:0:
256,192,23254,1,0,0:0:0:0:
182,192,23313,1,0,0:0:0:0:
182,192,23782,1,0,0:0:0:0:
256,192,23840,1,0,0:0:0:0:
329,192,23899,1,0,0:0:0:0:
402,192,24016,1,0,0:0:0:0:
475,192,24134,1,0,0:0:0:0:
402,192,24251,1,0,0:0:0:0:
475,192,24368,1,0,0:0:0:0:
182,192,24485,128,0,25424:0:0:0:0:
256,192,24485,128,0,26362:0:0:0:0:
36,192,24485,1,0,0:0:0:0:
329,192,24485,1,0,0:0:0:0:
402,192,24603,1,0,0:0:0:0:
475,192,24720,1,0,0:0:0:0:
402,192,24837,1,0,0:0:0:0:
329,192,24955,1,0,0:0:0:0:
475,192,25072,1,0,0:0:0:0:
402,192,25131,1,0,0:0:0:0:
329,192,25189,1,0,0:0:0:0:
402,192,25424,128,0,26362:0:0:0:0:
36,192,25424,128,0,26362:0:0:0:0:
475,192,25893,1,0,0:0:0:0:
329,192,26010,1,0,0:0:0:0:
475,192,26128,1,0,0:0:0:0:
329,192,26245,1,0,0:0:0:0:
109,192,26362,128,0,28239:0:0:0:0:
475,192,26362,1,0,0:0:0:0:
182,192,26362,1,0,0:0:0:0:
475,192,26831,1,0,0:0:0:0:
402,192,26890,1,0,0:0:0:0:
329,192,26949,1,0,0:0:0:0:
256,192,27066,1,0,0:0:0:0:
182,192,27183,1,0,0:0:0:0:
256,192,27300,1,0,0:0:0:0:
329,192,27418,1,0,0:0:0:0:
402,192,27535,1,0,0:0:0:0:
475,192,27652,1,0,0:0:0:0:
329,192,27770,1,0,0:0:0:0:
402,192,27887,1,0,0:0:0:0:
475,192,28004,1,0,0:0:0:0:
402,192,28121,1,0,0:0:0:0:
36,192,28239,128,0,29177:0:0:0:0:
329,192,28239,128,0,30115:0:0:0:0:
256,192,28239,1,0,0:0:0:0:
109,192,28825,1,0,0:0:0:0:
182,192,28884,1,0,0:0:0:0:
256,192,28942,1,0,0:0:0:0:
402,192,29177,128,0,30115:0:0:0:0:
36,192,29646,1,0,0:0:0:0:
109,192,29763,1,0,0:0:0:0:
36,192,29881,1,0,0:0:0:0:
109,192,29998,1,0,0:0:0:0:
182,192,30115,128,0,31992:0:0:0:0:
256,192,30115,1,0,0:0:0:0:
36,192,30115,128,0,31992:0:0:0:0:
475,192,30584,1,0,0:0:0:0:
402,192,30643,1,0,0:0:0:0:
329,192,30702,1,0,0:0:0:0:
256,192,30819,1,0,0:0:0:0:
329,192,30936,1,0,0:0:0:0:
402,192,31054,1,0,0:0:0:0:
475,192,31171,1,0,0:0:0:0:
402,192,31288,1,0,0:0:0:0:
329,192,31347,1,0,0:0:0:0:
256,192,31405,1,0,0:0:0:0:
329,192,31523,1,0,0:0:0:0:
402,192,31640,1,0,0:0:0:0:
329,192,31757,1,0,0:0:0:0:
402,192,31875,1,0,0:0:0:0:
109,192,31992,128,0,33869:0:0:0:0:
256,192,31992,128,0,32930:0:0:0:0:
475,192,31992,1,0,0:0:0:0:
402,192,32930,128,0,33869:0:0:0:0:
182,192,33869,1,0,0:0:0:0:
329,192,33869,1,0,0:0:0:0:
36,192,33869,1,0,0:0:0:0:
475,192,33869,128,0,35745:0:0:0:0:
256,192,34103,1,0,0:0:0:0:
182,192,34338,1,0,0:0:0:0:
329,192,34338,1,0,0:0:0:0:
36,192,34338,1,0,0:0:0:0:
109,192,34455,1,0,0:0:0:0:
256,192,34572,1,0,0:0:0:0:
36,192,34572,1,0,0:0:0:0:
109,192,34690,1,0,0:0:0:0:
182,192,34807,1,0,0:0:0:0:
329,192,34807,1,0,0:0:0:0:
36,192,34807,1,0,0:0:0:0:
109,192,34924,1,0,0:0:0:0:
256,192,35041,1,0,0:0:0:0:
36,192,35041,1,0,0:0:0:0:
109,192,35159,1,0,0:0:0:0:
329,192,35276,1,0,0:0:0:0:
182,192,35276,1,0,0:0:0:0:
36,192,35276,1,0,0:0:0:0:
109,192,35393,1,0,0:0:0:0:
256,192,35511,1,0,0:0:0:0:
36,192,35511,1,0,0:0:0:0:
109,192,35628,1,0,0:0:0:0:
36,192,35745,1,0,0:0:0:0:
402,192,35745,128,0,37622:0:0:0:0:
182,192,35745,1,0,0:0:0:0:
329,192,35745,1,0,0:0:0:0:
256,192,35980,1,0,0:0:0:0:
36,192,36214,1,0,0:0:0:0:
182,192,36214,1,0,0:0:0:0:
329,192,36214,1,0,0:0:0:0:
109,192,36332,1,0,0:0:0:0:
256,192,36449,1,0,0:0:0:0:
36,192,36449,1,0,0:0:0:0:
109,192,36566,1,0,0:0:0:0:
36,192,36683,1,0,0:0:0:0:
182,192,36683,1,0,0:0:0:0:
329,192,36683,1,0,0:0:0:0:
109,192,36801,1,0,0:0:0:0:
256,192,36918,1,0,0:0:0:0:
36,192,36918,1,0,0:0:0:0:
109,192,37035,1,0,0:0:0:0:
36,192,37153,1,0,0:0:0:0:
329,192,37153,1,0,0:0:0:0:
182,192,37153,1,0,0:0:0:0:
109,192,37270,1,0,0:0:0:0:
256,192,37387,1,0,0:0:0:0:
36,192,37387,1,0,0:0:0:0:
109,192,37504,1,0,0:0:0:0:
329,192,37622,128,0,39498:0:0:0:0:
182,192,37622,1,0,0:0:0:0:
36,192,37622,1,0,0:0:0:0:
475,192,37622,1,0,0:0:0:0:
109,192,37856,1,0,0:0:0:0:
182,192,38091,1,0,0:0:0:0:
36,192,38091,1,0,0:0:0:0:
475,192,38091,1,0,0:0:0:0:
402,192,38208,1,0,0:0:0:0:
109,192,38325,1,0,0:0:0:0:
475,192,38325,1,0,0:0:0:0:
402,192,38443,1,0,0:0:0:0:
36,192,38560,1,0,0:0:0:0:
182,192,38560,1,0,0:0:0:0:
475,192,38560,1,0,0:0:0:0:
402,192,38677,1,0,0:0:0:0:
109,192,38795,1,0,0:0:0:0:
475,192,38795,1,0,0:0:0:0:
402,192,38912,1,0,0:0:0:0:
475,192,39029,1,0,0:0:0:0:
182,192,39029,1,0,0:0:0:0:
36,192,39029,1,0,0:0:0:0:
402,192,39147,1,0,0:0:0:0:
475,192,39264,1,0,0:0:0:0:
109,192,39264,1,0,0:0:0:0:
402,192,39381,1,0,0:0:0:0:
182,192,39498,128,0,40437:0:0:0:0:
256,192,39498,1,0,0:0:0:0:
475,192,39498,1,0,0:0:0:0:
36,192,39498,1,0,0:0:0:0:
402,192,39733,1,0,0:0:0:0:
329,192,39968,1,0,0:0:0:0:
475,192,39968,1,0,0:0:0:0:
256,192,40085,1,0,0:0:0:0:
329,192,40143,1,0,0:0:0:0:
402,192,40202,1,0,0:0:0:0:
109,192,40437,128,0,41375:0:0:0:0:
36,192,40437,1,0,0:0:0:0:
329,192,40437,1,0,0:0:0:0:
475,192,40437,1,0,0:0:0:0:
256,192,40554,1,0,0:0:0:0:
329,192,40613,1,0,0:0:0:0:
402,192,40671,1,0,0:0:0:0:
475,192,40906,1,0,0:0:0:0:
402,192,41023,1,0,0:0:0:0:
329,192,41082,1,0,0:0:0:0:
475,192,41140,1,0,0:0:0:0:
256,192,41140,1,0,0:0:0:0:
182,192,41258,1,0,0:0:0:0:
475,192,41375,1,0,0:0:0:0:
329,192,41375,1,0,0:0:0:0:
256,192,41375,128,0,43252:0:0:0:0:
36,192,41375,1,0,0:0:0:0:
402,192,41610,1,0,0:0:0:0:
475,192,41844,1,0,0:0:0:0:
329,192,41844,1,0,0:0:0:0:
182,192,41844,1,0,0:0:0:0:
36,192,41961,1,0,0:0:0:0:
109,192,42020,1,0,0:0:0:0:
402,192,42079,1,0,0:0:0:0:
182,192,42079,1,0,0:0:0:0:
109,192,42196,1,0,0:0:0:0:
475,192,42313,1,0,0:0:0:0:
329,192,42313,1,0,0:0:0:0:
182,192,42313,1,0,0:0:0:0:
109,192,42431,1,0,0:0:0:0:
402,192,42548,1,0,0:0:0:0:
36,192,42548,1,0,0:0:0:0:
109,192,42665,1,0,0:0:0:0:
475,192,42782,1,0,0:0:0:0:
329,192,42782,1,0,0:0:0:0:
182,192,42782,1,0,0:0:0:0:
109,192,42900,1,0,0:0:0:0:
402,192,43017,1,0,0:0:0:0:
36,192,43017,1,0,0:0:0:0:
109,192,43134,1,0,0:0:0:0:
182,192,43252,1,0,0:0:0:0:
329,192,43252,1,0,0:0:0:0:
402,192,43252,128,0,45128:0:0:0:0:
36,192,43252,1,0,0:0:0:0:
256,192,43486,1,0,0:0:0:0:
182,192,43721,1,0,0:0:0:0:
329,192,43721,1,0,0:0:0:0:
109,192,43838,1,0,0:0:0:0:
256,192,43955,1,0,0:0:0:0:
36,192,43955,1,0,0:0:0:0:
182,192,44014,1,0,0:0:0:0:
109,192,44073,1,0,0:0:0:0:
182,192,44190,1,0,0:0:0:0:
329,192,44190,1,0,0:0:0:0:
36,192,44190,1,0,0:0:0:0:
256,192,44424,1,0,0:0:0:0:
182,192,44659,1,0,0:0:0:0:
329,192,44659,1,0,0:0:0:0:
256,192,44894,1,0,0:0:0:0:
182,192,45011,1,0,0:0:0:0:
36,192,45128,128,0,47005:0:0:0:0:
109,192,45128,128,0,46067:0:0:0:0:
475,192,45128,1,0,0:0:0:0:
256,192,45128,1,0,0:0:0:0:
329,192,45597,1,0,0:0:0:0:
475,192,45597,1,0,0:0:0:0:
182,192,46067,128,0,47005:0:0:0:0:
329,192,46067,1,0,0:0:0:0:
256,192,46301,1,0,0:0:0:0:
402,192,46301,1,0,0:0:0:0:
329,192,46418,1,0,0:0:0:0:
475,192,46418,1,0,0:0:0:0:
402,192,46477,1,0,0:0:0:0:
256,192,46477,1,0,0:0:0:0:
329,192,46536,1,0,0:0:0:0:
475,192,46536,1,0,0:0:0:0:
256,192,46653,1,0,0:0:0:0:
402,192,46653,1,0,0:0:0:0:
256,192,47005,1,0,0:0:0:0:
109,192,47005,128,0,47239:0:0:0:0:
475,192,47005,128,0,48881:0:0:0:0:
182,192,47239,1,0,0:0:0:0:
36,192,47357,1,0,0:0:0:0:
182,192,47474,1,0,0:0:0:0:
329,192,47474,1,0,0:0:0:0:
109,192,47709,1,0,0:0:0:0:
402,192,47709,128,0,47943:0:0:0:0:
182,192,47943,1,0,0:0:0:0:
329,192,48060,1,0,0:0:0:0:
182,192,48178,1,0,0:0:0:0:
36,192,48412,128,0,48647:0:0:0:0:
256,192,48412,1,0,0:0:0:0:
402,192,48412,1,0,0:0:0:0:
182,192,48530,1,0,0:0:0:0:
109,192,48647,1,0,0:0:0:0:
402,192,48764,1,0,0:0:0:0:
109,192,48881,1,0,0:0:0:0:
256,192,48881,128,0,50758:0:0:0:0:
329,192,49116,1,0,0:0:0:0:
475,192,49233,1,0,0:0:0:0:
329,192,49351,1,0,0:0:0:0:
36,192,49351,1,0,0:0:0:0:
182,192,49351,1,0,0:0:0:0:
475,192,49468,1,0,0:0:0:0:
329,192,49585,1,0,0:0:0:0:
36,192,49585,128,0,50054:0:0:0:0:
475,192,49820,1,0,0:0:0:0:
402,192,49937,1,0,0:0:0:0:
329,192,50054,1,0,0:0:0:0:
182,192,50172,1,0,0:0:0:0:
109,192,50289,1,0,0:0:0:0:
475,192,50289,128,0,50758:0:0:0:0:
402,192,50289,1,0,0:0:0:0:
36,192,50406,1,0,0:0:0:0:
109,192,50523,1,0,0:0:0:0:
182,192,50641,1,0,0:0:0:0:
36,192,50758,128,0,52635:0:0:0:0:
329,192,50758,128,0,50993:0:0:0:0:
109,192,50993,1,0,0:0:0:0:
182,192,51110,1,0,0:0:0:0:
109,192,51227,1,0,0:0:0:0:
256,192,51227,1,0,0:0:0:0:
402,192,51227,1,0,0:0:0:0:
475,192,51462,1,0,0:0:0:0:
182,192,51462,128,0,52166:0:0:0:0:
402,192,51579,1,0,0:0:0:0:
329,192,51696,1,0,0:0:0:0:
402,192,51814,1,0,0:0:0:0:
475,192,51931,1,0,0:0:0:0:
402,192,52048,1,0,0:0:0:0:
109,192,52166,1,0,0:0:0:0:
329,192,52166,1,0,0:0:0:0:
475,192,52166,1,0,0:0:0:0:
256,192,52283,1,0,0:0:0:0:
329,192,52400,1,0,0:0:0:0:
402,192,52517,1,0,0:0:0:0:
475,192,52635,128,0,52987:0:0:0:0:
109,192,52635,1,0,0:0:0:0:
329,192,52987,1,0,0:0:0:0:
402,192,53104,1,0,0:0:0:0:
109,192,53104,1,0,0:0:0:0:
256,192,53104,1,0,0:0:0:0:
475,192,53221,1,0,0:0:0:0:
402,192,53338,1,0,0:0:0:0:
36,192,53338,128,0,53808:0:0:0:0:
329,192,53456,1,0,0:0:0:0:
256,192,53573,1,0,0:0:0:0:
182,192,53690,1,0,0:0:0:0:
256,192,53808,1,0,0:0:0:0:
182,192,53925,1,0,0:0:0:0:
109,192,54042,1,0,0:0:0:0:
256,192,54042,1,0,0:0:0:0:
329,192,54042,128,0,54277:0:0:0:0:
36,192,54159,1,0,0:0:0:0:
109,192,54277,1,0,0:0:0:0:
256,192,54277,1,0,0:0:0:0:
402,192,54277,1,0,0:0:0:0:
182,192,54394,1,0,0:0:0:0:
36,192,54511,1,0,0:0:0:0:
109,192,54511,1,0,0:0:0:0:
402,192,54511,128,0,54746:0:0:0:0:
475,192,54511,1,0,0:0:0:0:
182,192,54746,1,0,0:0:0:0:
329,192,54863,1,0,0:0:0:0:
182,192,54980,1,0,0:0:0:0:
402,192,55215,128,0,55450:0:0:0:0:
256,192,55215,1,0,0:0:0:0:
329,192,55450,1,0,0:0:0:0:
182,192,55567,1,0,0:0:0:0:
329,192,55684,1,0,0:0:0:0:
109,192,55919,1,0,0:0:0:0:
402,192,55919,1,0,0:0:0:0:
256,192,55919,1,0,0:0:0:0:
36,192,56153,1,0,0:0:0:0:
182,192,56153,1,0,0:0:0:0:
329,192,56271,1,0,0:0:0:0:
475,192,56271,1,0,0:0:0:0:
36,192,56388,1,0,0:0:0:0:
182,192,56388,128,0,56622:0:0:0:0:
256,192,56622,1,0,0:0:0:0:
402,192,56740,1,0,0:0:0:0:
256,192,56857,1,0,0:0:0:0:
109,192,56857,1,0,0:0:0:0:
182,192,56974,1,0,0:0:0:0:
109,192,57092,1,0,0:0:0:0:
256,192,57092,128,0,57795:0:0:0:0:
475,192,57326,1,0,0:0:0:0:
402,192,57443,1,0,0:0:0:0:
329,192,57561,1,0,0:0:0:0:
402,192,57678,1,0,0:0:0:0:
329,192,57795,1,0,0:0:0:0:
36,192,57795,1,0,0:0:0:0:
109,192,58030,1,0,0:0:0:0:
402,192,58030,1,0,0:0:0:0:
182,192,58264,1,0,0:0:0:0:
329,192,58264,1,0,0:0:0:0:
36,192,58264,1,0,0:0:0:0:
475,192,58264,128,0,58499:0:0:0:0:
109,192,58499,1,0,0:0:0:0:
256,192,58499,1,0,0:0:0:0:
402,192,58499,128,0,58734:0:0:0:0:
182,192,58616,1,0,0:0:0:0:
109,192,58734,1,0,0:0:0:0:
256,192,58734,1,0,0:0:0:0:
36,192,58968,5,0,0:0:0:0:
182,192,58968,1,0,0:0:0:0:
329,192,58968,128,0,59203:0:0:0:0:
109,192,59086,1,0,0:0:0:0:
256,192,59086,1,0,0:0:0:0:
182,192,59203,1,0,0:0:0:0:
36,192,59203,1,0,0:0:0:0:
402,192,59203,128,0,59437:0:0:0:0:
36,192,59437,1,0,0:0:0:0:
329,192,59437,1,0,0:0:0:0:
109,192,59555,1,0,0:0:0:0:
402,192,59555,1,0,0:0:0:0:
182,192,59672,128,0,60141:0:0:0:0:
475,192,59672,1,0,0:0:0:0:
256,192,59672,1,0,0:0:0:0:
402,192,59907,1,0,0:0:0:0:
109,192,59907,1,0,0:0:0:0:
36,192,60141,5,0,0:0:0:0:
475,192,60141,1,0,0:0:0:0:
256,192,60141,128,0,60493:0:0:0:0:
402,192,60258,1,0,0:0:0:0:
109,192,60258,1,0,0:0:0:0:
475,192,60376,1,0,0:0:0:0:
36,192,60376,1,0,0:0:0:0:
182,192,60376,1,0,0:0:0:0:
402,192,60493,1,0,0:0:0:0:
109,192,60493,1,0,0:0:0:0:
329,192,60493,128,0,60845:0:0:0:0:
475,192,60610,1,0,0:0:0:0:
36,192,60610,1,0,0:0:0:0:
182,192,60610,1,0,0:0:0:0:
402,192,60728,1,0,0:0:0:0:
109,192,60728,1,0,0:0:0:0:
36,192,60845,1,0,0:0:0:0:
475,192,60845,1,0,0:0:0:0:
182,192,60845,1,0,0:0:0:0:
256,192,60845,128,0,61314:0:0:0:0:
109,192,61079,128,0,61314:0:0:0:0:
329,192,61197,128,0,61314:0:0:0:0:
402,192,61314,1,0,0:0:0:0:
475,192,61549,1,0,0:0:0:0:
329,192,61549,1,0,0:0:0:0:
402,192,61666,1,0,0:0:0:0:
256,192,61666,1,0,0:0:0:0:
329,192,61783,1,0,0:0:0:0:
182,192,61783,1,0,0:0:0:0:
256,192,61900,1,0,0:0:0:0:
109,192,61900,1,0,0:0:0:0:
182,192,62018,1,0,0:0:0:0:
475,192,62018,1,0,0:0:0:0:
329,192,62018,1,0,0:0:0:0:
36,192,62018,128,0,62252:0:0:0:0:
109,192,62252,1,0,0:0:0:0:
402,192,62370,1,0,0:0:0:0:
109,192,62487,1,0,0:0:0:0:
256,192,62487,1,0,0:0:0:0:
475,192,62487,1,0,0:0:0:0:
402,192,62604,1,0,0:0:0:0:
109,192,62721,1,0,0:0:0:0:
182,192,62839,1,0,0:0:0:0:
256,192,62956,1,0,0:0:0:0:
402,192,62956,1,0,0:0:0:0:
475,192,63073,1,0,0:0:0:0:
402,192,63191,1,0,0:0:0:0:
329,192,63308,1,0,0:0:0:0:
182,192,63425,128,0,63660:0:0:0:0:
256,192,63425,1,0,0:0:0:0:
109,192,63425,1,0,0:0:0:0:
329,192,63542,1,0,0:0:0:0:
402,192,63660,1,0,0:0:0:0:
475,192,63777,1,0,0:0:0:0:
36,192,63894,128,0,64129:0:0:0:0:
109,192,63894,1,0,0:0:0:0:
402,192,63894,1,0,0:0:0:0:
329,192,64012,1,0,0:0:0:0:
256,192,64129,1,0,0:0:0:0:
329,192,64246,1,0,0:0:0:0:
256,192,64363,1,0,0:0:0:0:
36,192,64363,1,0,0:0:0:0:
182,192,64363,1,0,0:0:0:0:
329,192,64481,1,0,0:0:0:0:
256,192,64598,1,0,0:0:0:0:
36,192,64598,1,0,0:0:0:0:
329,192,64715,1,0,0:0:0:0:
402,192,64833,1,0,0:0:0:0:
109,192,64833,1,0,0:0:0:0:
182,192,64833,1,0,0:0:0:0:
475,192,64950,1,0,0:0:0:0:
402,192,65067,1,0,0:0:0:0:
109,192,65067,1,0,0:0:0:0:
475,192,65185,1,0,0:0:0:0:
402,192,65302,1,0,0:0:0:0:
182,192,65302,1,0,0:0:0:0:
256,192,65302,1,0,0:0:0:0:
36,192,65302,1,0,0:0:0:0:
329,192,65419,1,0,0:0:0:0:
402,192,65536,1,0,0:0:0:0:
182,192,65536,1,0,0:0:0:0:
329,192,65654,1,0,0:0:0:0:
256,192,65771,1,0,0:0:0:0:
402,192,65771,1,0,0:0:0:0:
329,192,66006,1,0,0:0:0:0:
109,192,66006,1,0,0:0:0:0:
182,192,66123,1,0,0:0:0:0:
256,192,66240,1,0,0:0:0:0:
402,192,66240,1,0,0:0:0:0:
109,192,66240,1,0,0:0:0:0:
329,192,66475,1,0,0:0:0:0:
36,192,66475,128,0,66709:0:0:0:0:
256,192,66709,1,0,0:0:0:0:
109,192,66709,1,0,0:0:0:0:
182,192,66944,1,0,0:0:0:0:
402,192,66944,1,0,0:0:0:0:
329,192,67061,1,0,0:0:0:0:
109,192,67178,1,0,0:0:0:0:
256,192,67178,1,0,0:0:0:0:
36,192,67178,1,0,0:0:0:0:
182,192,67413,1,0,0:0:0:0:
329,192,67530,1,0,0:0:0:0:
402,192,67648,1,0,0:0:0:0:
109,192,67648,1,0,0:0:0:0:
475,192,67648,128,0,67882:0:0:0:0:
329,192,67882,1,0,0:0:0:0:
109,192,67882,1,0,0:0:0:0:
256,192,67999,1,0,0:0:0:0:
182,192,68117,1,0,0:0:0:0:
36,192,68117,1,0,0:0:0:0:
402,192,68117,1,0,0:0:0:0:
256,192,68234,1,0,0:0:0:0:
329,192,68351,1,0,0:0:0:0:
109,192,68351,1,0,0:0:0:0:
256,192,68469,1,0,0:0:0:0:
182,192,68586,1,0,0:0:0:0:
475,192,68586,1,0,0:0:0:0:
36,192,68820,128,0,69055:0:0:0:0:
329,192,68820,1,0,0:0:0:0:
182,192,68820,1,0,0:0:0:0:
109,192,69055,1,0,0:0:0:0:
402,192,69055,1,0,0:0:0:0:
256,192,69055,1,0,0:0:0:0:
182,192,69290,1,0,0:0:0:0:
256,192,69407,1,0,0:0:0:0:
329,192,69524,128,0,69759:0:0:0:0:
36,192,69524,1,0,0:0:0:0:
256,192,69759,1,0,0:0:0:0:
109,192,69759,1,0,0:0:0:0:
329,192,69876,1,0,0:0:0:0:
109,192,69993,1,0,0:0:0:0:
256,192,69993,1,0,0:0:0:0:
402,192,69993,1,0,0:0:0:0:
182,192,70228,1,0,0:0:0:0:
329,192,70228,1,0,0:0:0:0:
256,192,70345,128,0,70580:0:0:0:0:
402,192,70462,1,0,0:0:0:0:
475,192,70697,1,0,0:0:0:0:
109,192,70697,1,0,0:0:0:0:
256,192,70697,1,0,0:0:0:0:
402,192,70814,1,0,0:0:0:0:
329,192,70932,1,0,0:0:0:0:
36,192,70932,1,0,0:0:0:0:
182,192,70932,1,0,0:0:0:0:
256,192,71166,1,0,0:0:0:0:
109,192,71166,1,0,0:0:0:0:
182,192,71283,1,0,0:0:0:0:
109,192,71401,1,0,0:0:0:0:
36,192,71401,1,0,0:0:0:0:
329,192,71401,128,0,71635:0:0:0:0:
182,192,71635,1,0,0:0:0:0:
402,192,71635,1,0,0:0:0:0:
329,192,71753,1,0,0:0:0:0:
475,192,71870,1,0,0:0:0:0:
36,192,71870,1,0,0:0:0:0:
256,192,71870,1,0,0:0:0:0:
182,192,72105,1,0,0:0:0:0:
402,192,72105,1,0,0:0:0:0:
256,192,72222,1,0,0:0:0:0:
475,192,72222,128,0,72456:0:0:0:0:
182,192,72339,1,0,0:0:0:0:
109,192,72574,1,0,0:0:0:0:
256,192,72574,1,0,0:0:0:0:
475,192,72574,1,0,0:0:0:0:
109,192,72808,1,0,0:0:0:0:
256,192,72808,1,0,0:0:0:0:
402,192,72808,1,0,0:0:0:0:
329,192,73043,1,0,0:0:0:0:
402,192,73160,1,0,0:0:0:0:
256,192,73277,1,0,0:0:0:0:
36,192,73277,1,0,0:0:0:0:
475,192,73277,128,0,73747:0:0:0:0:
182,192,73512,1,0,0:0:0:0:
329,192,73747,1,0,0:0:0:0:
109,192,73747,1,0,0:0:0:0:
109,192,73981,128,0,74450:0:0:0:0:
329,192,73981,128,0,74450:0:0:0:0:
475,192,73981,1,0,0:0:0:0:
256,192,74216,1,0,0:0:0:0:
36,192,74450,1,0,0:0:0:0:
182,192,74450,1,0,0:0:0:0:
36,192,74685,1,0,0:0:0:0:
182,192,74685,1,0,0:0:0:0:
256,192,74685,1,0,0:0:0:0:
182,192,74919,1,0,0:0:0:0:
329,192,74919,1,0,0:0:0:0:
475,192,74919,128,0,75389:0:0:0:0:
36,192,75154,1,0,0:0:0:0:
109,192,75271,1,0,0:0:0:0:
182,192,75389,1,0,0:0:0:0:
329,192,75389,1,0,0:0:0:0:
36,192,75389,1,0,0:0:0:0:
256,192,75506,1,0,0:0:0:0:
109,192,75506,1,0,0:0:0:0:
36,192,75565,1,0,0:0:0:0:
182,192,75565,1,0,0:0:0:0:
256,192,75623,1,0,0:0:0:0:
109,192,75623,1,0,0:0:0:0:
402,192,75623,1,0,0:0:0:0:
329,192,75740,1,0,0:0:0:0:
402,192,75858,1,0,0:0:0:0:
36,192,75858,1,0,0:0:0:0:
475,192,75858,128,0,76092:0:0:0:0:
109,192,76092,1,0,0:0:0:0:
402,192,76092,1,0,0:0:0:0:
329,192,76210,1,0,0:0:0:0:
36,192,76210,1,0,0:0:0:0:
402,192,76327,1,0,0:0:0:0:
109,192,76327,1,0,0:0:0:0:
256,192,76327,1,0,0:0:0:0:
329,192,76444,1,0,0:0:0:0:
36,192,76444,1,0,0:0:0:0:
256,192,76561,1,0,0:0:0:0:
402,192,76561,1,0,0:0:0:0:
109,192,76561,1,0,0:0:0:0:
329,192,76679,1,0,0:0:0:0:
182,192,76679,1,0,0:0:0:0:
256,192,76796,1,0,0:0:0:0:
109,192,76796,1,0,0:0:0:0:
182,192,76913,1,0,0:0:0:0:
36,192,76913,1,0,0:0:0:0:
109,192,77031,1,0,0:0:0:0:
256,192,77031,1,0,0:0:0:0:
402,192,77031,1,0,0:0:0:0:
475,192,77031,1,0,0:0:0:0:
36,192,77265,1,0,0:0:0:0:
329,192,77265,1,0,0:0:0:0:
109,192,77382,1,0,0:0:0:0:
182,192,77500,1,0,0:0:0:0:
329,192,77500,1,0,0:0:0:0:
475,192,77500,1,0,0:0:0:0:
256,192,77617,1,0,0:0:0:0:
329,192,77734,1,0,0:0:0:0:
402,192,77852,1,0,0:0:0:0:
256,192,77969,1,0,0:0:0:0:
475,192,77969,1,0,0:0:0:0:
182,192,78204,1,0,0:0:0:0:
402,192,78204,1,0,0:0:0:0:
329,192,78321,1,0,0:0:0:0:
256,192,78438,1,0,0:0:0:0:
109,192,78438,1,0,0:0:0:0:
36,192,78438,1,0,0:0:0:0:
182,192,78673,1,0,0:0:0:0:
475,192,78673,128,0,78907:0:0:0:0:
329,192,78790,1,0,0:0:0:0:
402,192,78907,128,0,79142:0:0:0:0:
109,192,78907,1,0,0:0:0:0:
256,192,78907,1,0,0:0:0:0:
182,192,79142,1,0,0:0:0:0:
256,192,79259,1,0,0:0:0:0:
329,192,79376,1,0,0:0:0:0:
475,192,79376,1,0,0:0:0:0:
109,192,79376,1,0,0:0:0:0:
475,192,79611,1,0,0:0:0:0:
182,192,79611,1,0,0:0:0:0:
329,192,79728,1,0,0:0:0:0:
402,192,79846,1,0,0:0:0:0:
256,192,79846,1,0,0:0:0:0:
329,192,79963,1,0,0:0:0:0:
182,192,80080,1,0,0:0:0:0:
402,192,80080,1,0,0:0:0:0:
256,192,80315,1,0,0:0:0:0:
109,192,80315,1,0,0:0:0:0:
329,192,80315,128,0,80549:0:0:0:0:
182,192,80549,1,0,0:0:0:0:
36,192,80549,1,0,0:0:0:0:
402,192,80549,128,0,80784:0:0:0:0:
109,192,80784,1,0,0:0:0:0:
256,192,80784,1,0,0:0:0:0:
182,192,81018,1,0,0:0:0:0:
329,192,81018,1,0,0:0:0:0:
256,192,81136,1,0,0:0:0:0:
329,192,81253,1,0,0:0:0:0:
182,192,81253,1,0,0:0:0:0:
475,192,81253,1,0,0:0:0:0:
329,192,81488,1,0,0:0:0:0:
475,192,81488,1,0,0:0:0:0:
36,192,81488,128,0,81722:0:0:0:0:
256,192,81722,1,0,0:0:0:0:
109,192,81722,1,0,0:0:0:0:
329,192,81957,1,0,0:0:0:0:
475,192,81957,1,0,0:0:0:0:
256,192,82191,1,0,0:0:0:0:
109,192,82191,1,0,0:0:0:0:
402,192,82191,1,0,0:0:0:0:
329,192,82426,1,0,0:0:0:0:
182,192,82426,1,0,0:0:0:0:
402,192,82543,1,0,0:0:0:0:
475,192,82660,1,0,0:0:0:0:
36,192,82660,1,0,0:0:0:0:
109,192,82660,1,0,0:0:0:0:
402,192,82778,1,0,0:0:0:0:
475,192,82895,1,0,0:0:0:0:
182,192,82895,1,0,0:0:0:0:
402,192,83012,1,0,0:0:0:0:
109,192,83012,1,0,0:0:0:0:
475,192,83130,1,0,0:0:0:0:
36,192,83130,1,0,0:0:0:0:
182,192,83130,1,0,0:0:0:0:
402,192,83247,1,0,0:0:0:0:
475,192,83364,1,0,0:0:0:0:
109,192,83364,1,0,0:0:0:0:
475,192,83599,1,0,0:0:0:0:
36,192,83599,1,0,0:0:0:0:
182,192,83599,1,0,0:0:0:0:
402,192,83833,128,0,84068:0:0:0:0:
109,192,83833,1,0,0:0:0:0:
256,192,83833,1,0,0:0:0:0:
182,192,84068,1,0,0:0:0:0:
329,192,84068,1,0,0:0:0:0:
256,192,84185,1,0,0:0:0:0:
182,192,84302,1,0,0:0:0:0:
109,192,84420,1,0,0:0:0:0:
402,192,84537,128,0,84772:0:0:0:0:
36,192,84537,1,0,0:0:0:0:
256,192,84537,1,0,0:0:0:0:
329,192,84772,1,0,0:0:0:0:
109,192,84772,1,0,0:0:0:0:
182,192,84889,128,0,85124:0:0:0:0:
109,192,85006,1,0,0:0:0:0:
329,192,85006,1,0,0:0:0:0:
402,192,85241,1,0,0:0:0:0:
256,192,85241,1,0,0:0:0:0:
475,192,85358,128,0,85593:0:0:0:0:
329,192,85475,1,0,0:0:0:0:
182,192,85475,1,0,0:0:0:0:
256,192,85710,1,0,0:0:0:0:
402,192,85710,128,0,85945:0:0:0:0:
109,192,85710,1,0,0:0:0:0:
329,192,85945,1,0,0:0:0:0:
182,192,85945,1,0,0:0:0:0:
36,192,85945,1,0,0:0:0:0:
109,192,86179,1,0,0:0:0:0:
256,192,86179,1,0,0:0:0:0:
329,192,86179,1,0,0:0:0:0:
182,192,86296,1,0,0:0:0:0:
402,192,86296,1,0,0:0:0:0:
109,192,86414,1,0,0:0:0:0:
256,192,86414,1,0,0:0:0:0:
475,192,86414,128,0,86648:0:0:0:0:
402,192,86648,1,0,0:0:0:0:
475,192,86766,1,0,0:0:0:0:
36,192,86883,1,0,0:0:0:0:
182,192,86883,1,0,0:0:0:0:
256,192,87000,1,0,0:0:0:0:
329,192,87117,1,0,0:0:0:0:
109,192,87117,1,0,0:0:0:0:
402,192,87235,128,0,87469:0:0:0:0:
182,192,87352,1,0,0:0:0:0:
329,192,87352,1,0,0:0:0:0:
475,192,87352,1,0,0:0:0:0:
256,192,87587,1,0,0:0:0:0:
402,192,87587,1,0,0:0:0:0:
36,192,87821,1,0,0:0:0:0:
109,192,87821,1,0,0:0:0:0:
329,192,87821,1,0,0:0:0:0:
256,192,88056,1,0,0:0:0:0:
402,192,88056,1,0,0:0:0:0:
182,192,88173,1,0,0:0:0:0:
109,192,88290,1,0,0:0:0:0:
329,192,88290,1,0,0:0:0:0:
475,192,88290,128,0,92044:0:0:0:0:
182,192,88525,1,0,0:0:0:0:
256,192,88525,1,0,0:0:0:0:
36,192,88759,1,0,0:0:0:0:
109,192,88759,1,0,0:0:0:0:
329,192,88759,128,0,88994:0:0:0:0:
36,192,88994,1,0,0:0:0:0:
402,192,88994,128,0,89463:0:0:0:0:
182,192,88994,1,0,0:0:0:0:
109,192,89229,1,0,0:0:0:0:
182,192,89463,1,0,0:0:0:0:
256,192,89463,1,0,0:0:0:0:
182,192,89698,1,0,0:0:0:0:
256,192,89698,1,0,0:0:0:0:
329,192,89698,1,0,0:0:0:0:
182,192,89932,1,0,0:0:0:0:
256,192,89932,1,0,0:0:0:0:
402,192,89932,1,0,0:0:0:0:
329,192,90167,1,0,0:0:0:0:
109,192,90167,1,0,0:0:0:0:
402,192,90167,1,0,0:0:0:0:
182,192,90401,1,0,0:0:0:0:
329,192,90401,1,0,0:0:0:0:
36,192,90519,1,0,0:0:0:0:
256,192,90519,1,0,0:0:0:0:
329,192,90577,1,0,0:0:0:0:
109,192,90577,1,0,0:0:0:0:
402,192,90636,1,0,0:0:0:0:
182,192,90636,1,0,0:0:0:0:
256,192,90871,1,0,0:0:0:0:
329,192,90871,1,0,0:0:0:0:
182,192,91105,1,0,0:0:0:0:
402,192,91105,1,0,0:0:0:0:
329,192,91223,1,0,0:0:0:0:
109,192,91223,1,0,0:0:0:0:
256,192,91340,1,0,0:0:0:0:
36,192,91340,1,0,0:0:0:0:
402,192,91340,1,0,0:0:0:0:
329,192,91457,1,0,0:0:0:0:
256,192,91516,1,0,0:0:0:0:
182,192,91574,1,0,0:0:0:0:
402,192,91574,1,0,0:0:0:0:
109,192,91633,1,0,0:0:0:0:
329,192,91633,1,0,0:0:0:0:
36,192,91692,1,0,0:0:0:0:
256,192,91692,1,0,0:0:0:0:
182,192,91809,1,0,0:0:0:0:
109,192,91809,1,0,0:0:0:0:
36,192,92044,128,0,92513:0:0:0:0:
182,192,92044,1,0,0:0:0:0:
329,192,92044,1,0,0:0:0:0:
402,192,92044,1,0,0:0:0:0:
256,192,92278,1,0,0:0:0:0:
329,192,92513,1,0,0:0:0:0:
182,192,92513,128,0,92630:0:0:0:0:
109,192,92630,128,0,92747:0:0:0:0:
182,192,92747,128,0,92865:0:0:0:0:
256,192,92865,128,0,93216:0:0:0:0:
36,192,92982,1,0,0:0:0:0:
109,192,92982,1,0,0:0:0:0:
402,192,92982,1,0,0:0:0:0:
329,192,93099,1,0,0:0:0:0:
109,192,93216,1,0,0:0:0:0:
475,192,93216,1,0,0:0:0:0:
36,192,93451,1,0,0:0:0:0:
109,192,93451,1,0,0:0:0:0:
402,192,93451,128,0,93568:0:0:0:0:
329,192,93568,128,0,93686:0:0:0:0:
182,192,93568,1,0,0:0:0:0:
109,192,93686,1,0,0:0:0:0:
402,192,93686,128,0,93803:0:0:0:0:
182,192,93803,1,0,0:0:0:0:
329,192,93803,128,0,93920:0:0:0:0:
256,192,93920,1,0,0:0:0:0:
36,192,93920,1,0,0:0:0:0:
475,192,93920,128,0,94155:0:0:0:0:
109,192,94155,1,0,0:0:0:0:
182,192,94155,1,0,0:0:0:0:
256,192,94389,128,0,94624:0:0:0:0:
36,192,94389,1,0,0:0:0:0:
402,192,94389,1,0,0:0:0:0:
109,192,94624,1,0,0:0:0:0:
329,192,94624,128,0,94741:0:0:0:0:
402,192,94741,128,0,94858:0:0:0:0:
475,192,94858,128,0,95093:0:0:0:0:
182,192,94858,1,0,0:0:0:0:
36,192,94858,1,0,0:0:0:0:
402,192,95093,128,0,95210:0:0:0:0:
329,192,95210,128,0,95445:0:0:0:0:
36,192,95328,1,0,0:0:0:0:
182,192,95328,1,0,0:0:0:0:
256,192,95328,1,0,0:0:0:0:
109,192,95445,128,0,95562:0:0:0:0:
256,192,95562,128,0,95679:0:0:0:0:
182,192,95679,128,0,95797:0:0:0:0:
109,192,95797,128,0,95914:0:0:0:0:
329,192,95797,1,0,0:0:0:0:
475,192,95797,1,0,0:0:0:0:
36,192,95914,128,0,96031:0:0:0:0:
109,192,96031,128,0,96149:0:0:0:0:
402,192,96031,1,0,0:0:0:0:
182,192,96149,128,0,96266:0:0:0:0:
329,192,96266,128,0,96383:0:0:0:0:
475,192,96266,1,0,0:0:0:0:
36,192,96266,1,0,0:0:0:0:
256,192,96383,128,0,96500:0:0:0:0:
329,192,96500,128,0,96618:0:0:0:0:
109,192,96500,1,0,0:0:0:0:
402,192,96618,128,0,96735:0:0:0:0:
182,192,96735,128,0,96852:0:0:0:0:
36,192,96735,1,0,0:0:0:0:
475,192,96735,1,0,0:0:0:0:
256,192,96852,128,0,96970:0:0:0:0:
329,192,96970,128,0,97087:0:0:0:0:
109,192,96970,1,0,0:0:0:0:
402,192,97087,128,0,97204:0:0:0:0:
475,192,97204,128,0,97321:0:0:0:0:
182,192,97204,1,0,0:0:0:0:
36,192,97204,1,0,0:0:0:0:
329,192,97321,128,0,97439:0:0:0:0:
402,192,97439,128,0,97556:0:0:0:0:
109,192,97439,1,0,0:0:0:0:
256,192,97556,128,0,97673:0:0:0:0:
182,192,97673,128,0,97791:0:0:0:0:
329,192,97673,1,0,0:0:0:0:
475,192,97673,1,0,0:0:0:0:
36,192,97791,128,0,97908:0:0:0:0:
109,192,97908,128,0,98025:0:0:0:0:
402,192,97908,1,0,0:0:0:0:
182,192,98025,128,0,98143:0:0:0:0:
256,192,98143,128,0,98260:0:0:0:0:
329,192,98143,1,0,0:0:0:0:
475,192,98143,1,0,0:0:0:0:
36,192,98143,1,0,0:0:0:0:
109,192,98260,128,0,98377:0:0:0:0:
182,192,98377,128,0,98494:0:0:0:0:
402,192,98377,1,0,0:0:0:0:
256,192,98494,128,0,98612:0:0:0:0:
475,192,98494,1,0,0:0:0:0:
329,192,98612,128,0,98729:0:0:0:0:
402,192,98612,1,0,0:0:0:0:
109,192,98612,1,0,0:0:0:0:
182,192,98729,128,0,98846:0:0:0:0:
256,192,98846,128,0,98964:0:0:0:0:
36,192,98846,1,0,0:0:0:0:
329,192,98964,128,0,99081:0:0:0:0:
402,192,99081,128,0,99198:0:0:0:0:
109,192,99081,1,0,0:0:0:0:
182,192,99081,1,0,0:0:0:0:
475,192,99081,1,0,0:0:0:0:
256,192,99198,128,0,99315:0:0:0:0:
475,192,99315,128,0,99433:0:0:0:0:
182,192,99315,1,0,0:0:0:0:
402,192,99433,128,0,99550:0:0:0:0:
109,192,99433,1,0,0:0:0:0:
329,192,99550,1,0,0:0:0:0:
256,192,99550,1,0,0:0:0:0:
182,192,99550,1,0,0:0:0:0:
36,192,99550,128,0,100019:0:0:0:0:
109,192,99667,1,0,0:0:0:0:
182,192,99785,1,0,0:0:0:0:
256,192,99902,1,0,0:0:0:0:
182,192,100019,128,0,100371:0:0:0:0:
329,192,100019,1,0,0:0:0:0:
402,192,100019,1,0,0:0:0:0:
475,192,100019,1,0,0:0:0:0:
256,192,100254,1,0,0:0:0:0:
109,192,100371,128,0,100488:0:0:0:0:
329,192,100488,128,0,100957:0:0:0:0:
36,192,100488,1,0,0:0:0:0:
402,192,100488,1,0,0:0:0:0:
256,192,100723,1,0,0:0:0:0:
475,192,100957,128,0,101075:0:0:0:0:
182,192,100957,1,0,0:0:0:0:
109,192,100957,1,0,0:0:0:0:
36,192,100957,1,0,0:0:0:0:
256,192,101075,128,0,101192:0:0:0:0:
402,192,101192,128,0,101309:0:0:0:0:
109,192,101192,1,0,0:0:0:0:
36,192,101309,1,0,0:0:0:0:
329,192,101309,128,0,101427:0:0:0:0:
109,192,101427,1,0,0:0:0:0:
182,192,101427,128,0,101544:0:0:0:0:
475,192,101427,1,0,0:0:0:0:
36,192,101544,128,0,101661:0:0:0:0:
109,192,101661,128,0,101778:0:0:0:0:
182,192,101778,128,0,101896:0:0:0:0:
329,192,101896,1,0,0:0:0:0:
475,192,101896,1,0,0:0:0:0:
402,192,101896,1,0,0:0:0:0:
256,192,101896,128,0,102013:0:0:0:0:
109,192,102013,128,0,102130:0:0:0:0:
182,192,102130,128,0,102248:0:0:0:0:
329,192,102248,128,0,102365:0:0:0:0:
402,192,102365,1,0,0:0:0:0:
475,192,102365,128,0,102482:0:0:0:0:
109,192,102365,1,0,0:0:0:0:
256,192,102482,128,0,102599:0:0:0:0:
329,192,102599,128,0,102717:0:0:0:0:
109,192,102599,1,0,0:0:0:0:
402,192,102717,128,0,102834:0:0:0:0:
36,192,102834,128,0,102951:0:0:0:0:
182,192,102834,1,0,0:0:0:0:
256,192,102834,1,0,0:0:0:0:
475,192,102834,1,0,0:0:0:0:
109,192,102951,128,0,103069:0:0:0:0:
182,192,103069,128,0,103186:0:0:0:0:
402,192,103069,1,0,0:0:0:0:
109,192,103186,128,0,103303:0:0:0:0:
475,192,103303,128,0,103772:0:0:0:0:
256,192,103303,1,0,0:0:0:0:
329,192,103303,1,0,0:0:0:0:
256,192,103538,1,0,0:0:0:0:
402,192,103538,1,0,0:0:0:0:
256,192,103772,1,0,0:0:0:0:
36,192,103772,128,0,104124:0:0:0:0:
329,192,103772,1,0,0:0:0:0:
256,192,104007,1,0,0:0:0:0:
402,192,104007,1,0,0:0:0:0:
109,192,104124,128,0,104242:0:0:0:0:
475,192,104242,128,0,104476:0:0:0:0:
256,192,104242,1,0,0:0:0:0:
329,192,104242,1,0,0:0:0:0:
256,192,104476,1,0,0:0:0:0:
36,192,104476,128,0,104711:0:0:0:0:
402,192,104476,1,0,0:0:0:0:
109,192,104711,128,0,104945:0:0:0:0:
256,192,104711,1,0,0:0:0:0:
329,192,104711,1,0,0:0:0:0:
256,192,104945,1,0,0:0:0:0:
182,192,104945,128,0,105180:0:0:0:0:
402,192,104945,1,0,0:0:0:0:
329,192,105063,1,0,0:0:0:0:
402,192,105180,1,0,0:0:0:0:
256,192,105180,1,0,0:0:0:0:
475,192,105180,128,0,105414:0:0:0:0:
329,192,105297,1,0,0:0:0:0:
182,192,105297,1,0,0:0:0:0:
256,192,105414,1,0,0:0:0:0:
109,192,105414,1,0,0:0:0:0:
36,192,105414,128,0,105649:0:0:0:0:
182,192,105532,1,0,0:0:0:0:
329,192,105532,1,0,0:0:0:0:
256,192,105590,1,0,0:0:0:0:
402,192,105590,1,0,0:0:0:0:
109,192,105649,128,0,105884:0:0:0:0:
329,192,105649,1,0,0:0:0:0:
475,192,105649,1,0,0:0:0:0:
402,192,105766,1,0,0:0:0:0:
256,192,105766,1,0,0:0:0:0:
182,192,105884,128,0,106118:0:0:0:0:
329,192,105884,1,0,0:0:0:0:
475,192,105884,1,0,0:0:0:0:
36,192,106118,128,0,106353:0:0:0:0:
475,192,106118,1,0,0:0:0:0:
256,192,106118,1,0,0:0:0:0:
402,192,106235,1,0,0:0:0:0:
329,192,106235,1,0,0:0:0:0:
109,192,106353,128,0,106470:0:0:0:0:
475,192,106353,1,0,0:0:0:0:
256,192,106353,1,0,0:0:0:0:
182,192,106470,128,0,106587:0:0:0:0:
402,192,106470,1,0,0:0:0:0:
329,192,106470,1,0,0:0:0:0:
36,192,106587,128,0,106705:0:0:0:0:
475,192,106587,1,0,0:0:0:0:
256,192,106587,1,0,0:0:0:0:
182,192,106705,128,0,106822:0:0:0:0:
402,192,106705,1,0,0:0:0:0:
329,192,106705,1,0,0:0:0:0:
109,192,106822,128,0,107056:0:0:0:0:
475,192,106822,128,0,107056:0:0:0:0:
256,192,106822,128,0,107056:0:0:0:0:
329,192,107056,1,0,0:0:0:0:
402,192,107056,1,0,0:0:0:0:
36,192,107056,128,0,108933:0:0:0:0:
182,192,107291,1,0,0:0:0:0:
256,192,107526,1,0,0:0:0:0:
182,192,107760,1,0,0:0:0:0:
256,192,107995,1,0,0:0:0:0:
182,192,108229,1,0,0:0:0:0:
402,192,108229,1,0,0:0:0:0:
475,192,108347,1,0,0:0:0:0:
256,192,108464,1,0,0:0:0:0:
402,192,108464,1,0,0:0:0:0:
329,192,108581,1,0,0:0:0:0:
182,192,108698,1,0,0:0:0:0:
402,192,108698,1,0,0:0:0:0:
475,192,108816,1,0,0:0:0:0:
402,192,108933,128,0,110810:0:0:0:0:
109,192,108933,1,0,0:0:0:0:
182,192,109168,1,0,0:0:0:0:
256,192,109402,1,0,0:0:0:0:
36,192,109402,1,0,0:0:0:0:
329,192,109519,1,0,0:0:0:0:
109,192,109519,1,0,0:0:0:0:
182,192,109637,1,0,0:0:0:0:
256,192,109637,1,0,0:0:0:0:
329,192,109754,1,0,0:0:0:0:
109,192,109754,1,0,0:0:0:0:
256,192,109871,1,0,0:0:0:0:
36,192,109871,1,0,0:0:0:0:
329,192,109989,1,0,0:0:0:0:
182,192,110106,1,0,0:0:0:0:
256,192,110106,1,0,0:0:0:0:
329,192,110223,1,0,0:0:0:0:
256,192,110340,1,0,0:0:0:0:
36,192,110340,1,0,0:0:0:0:
329,192,110458,1,0,0:0:0:0:
109,192,110458,1,0,0:0:0:0:
182,192,110575,1,0,0:0:0:0:
256,192,110575,1,0,0:0:0:0:
329,192,110692,1,0,0:0:0:0:
109,192,110692,1,0,0:0:0:0:
256,192,110810,128,0,112686:0:0:0:0:
36,192,110810,1,0,0:0:0:0:
109,192,111044,1,0,0:0:0:0:
36,192,111279,1,0,0:0:0:0:
329,192,111279,1,0,0:0:0:0:
402,192,111396,1,0,0:0:0:0:
109,192,111513,1,0,0:0:0:0:
475,192,111513,1,0,0:0:0:0:
402,192,111631,1,0,0:0:0:0:
36,192,111748,1,0,0:0:0:0:
475,192,111748,1,0,0:0:0:0:
402,192,111865,1,0,0:0:0:0:
109,192,111983,1,0,0:0:0:0:
329,192,111983,1,0,0:0:0:0:
402,192,112100,1,0,0:0:0:0:
36,192,112217,1,0,0:0:0:0:
329,192,112217,1,0,0:0:0:0:
402,192,112334,1,0,0:0:0:0:
109,192,112452,1,0,0:0:0:0:
475,192,112452,1,0,0:0:0:0:
402,192,112569,1,0,0:0:0:0:
329,192,112686,128,0,113625:0:0:0:0:
182,192,112686,1,0,0:0:0:0:
109,192,112921,1,0,0:0:0:0:
182,192,113155,1,0,0:0:0:0:
182,192,113273,1,0,0:0:0:0:
36,192,113390,1,0,0:0:0:0:
256,192,113390,1,0,0:0:0:0:
109,192,113507,1,0,0:0:0:0:
256,192,113507,1,0,0:0:0:0:
182,192,113625,128,0,114563:0:0:0:0:
402,192,113625,1,0,0:0:0:0:
36,192,113625,1,0,0:0:0:0:
109,192,113742,1,0,0:0:0:0:
475,192,113859,1,0,0:0:0:0:
36,192,113859,1,0,0:0:0:0:
109,192,113976,1,0,0:0:0:0:
402,192,114094,1,0,0:0:0:0:
36,192,114094,1,0,0:0:0:0:
402,192,114211,1,0,0:0:0:0:
109,192,114211,1,0,0:0:0:0:
475,192,114328,1,0,0:0:0:0:
36,192,114328,1,0,0:0:0:0:
109,192,114446,1,0,0:0:0:0:
402,192,114446,1,0,0:0:0:0:
329,192,114563,128,0,116439:0:0:0:0:
36,192,114563,1,0,0:0:0:0:
475,192,114563,1,0,0:0:0:0:
109,192,114797,1,0,0:0:0:0:
256,192,114797,1,0,0:0:0:0:
182,192,115032,1,0,0:0:0:0:
475,192,115032,1,0,0:0:0:0:
182,192,115149,1,0,0:0:0:0:
402,192,115149,1,0,0:0:0:0:
256,192,115267,1,0,0:0:0:0:
475,192,115267,1,0,0:0:0:0:
256,192,115384,1,0,0:0:0:0:
402,192,115384,1,0,0:0:0:0:
36,192,115501,1,0,0:0:0:0:
475,192,115501,1,0,0:0:0:0:
109,192,115736,1,0,0:0:0:0:
256,192,115736,1,0,0:0:0:0:
475,192,115736,1,0,0:0:0:0:
402,192,115853,1,0,0:0:0:0:
182,192,115970,1,0,0:0:0:0:
475,192,115970,1,0,0:0:0:0:
402,192,116088,1,0,0:0:0:0:
256,192,116205,1,0,0:0:0:0:
475,192,116205,1,0,0:0:0:0:
402,192,116322,1,0,0:0:0:0:
182,192,116322,1,0,0:0:0:0:
475,192,116439,1,0,0:0:0:0:
36,192,116439,128,0,117378:0:0:0:0:
109,192,116439,1,0,0:0:0:0:
182,192,116674,1,0,0:0:0:0:
256,192,116909,1,0,0:0:0:0:
256,192,117026,1,0,0:0:0:0:
329,192,117143,1,0,0:0:0:0:
329,192,117261,1,0,0:0:0:0:
402,192,117378,128,0,118316:0:0:0:0:
256,192,117378,1,0,0:0:0:0:
109,192,117612,1,0,0:0:0:0:
182,192,117847,1,0,0:0:0:0:
182,192,117964,1,0,0:0:0:0:
109,192,118082,1,0,0:0:0:0:
109,192,118199,1,0,0:0:0:0:
182,192,118316,128,0,120193:0:0:0:0:
36,192,118316,1,0,0:0:0:0:
329,192,118316,1,0,0:0:0:0:
109,192,118551,1,0,0:0:0:0:
36,192,118785,1,0,0:0:0:0:
256,192,118785,1,0,0:0:0:0:
329,192,118903,1,0,0:0:0:0:
36,192,118903,1,0,0:0:0:0:
109,192,119020,1,0,0:0:0:0:
402,192,119020,1,0,0:0:0:0:
475,192,119137,1,0,0:0:0:0:
36,192,119254,1,0,0:0:0:0:
256,192,119254,1,0,0:0:0:0:
329,192,119372,1,0,0:0:0:0:
109,192,119489,1,0,0:0:0:0:
402,192,119489,1,0,0:0:0:0:
475,192,119606,1,0,0:0:0:0:
36,192,119724,1,0,0:0:0:0:
256,192,119724,1,0,0:0:0:0:
329,192,119841,1,0,0:0:0:0:
36,192,119841,1,0,0:0:0:0:
109,192,119958,1,0,0:0:0:0:
402,192,119958,1,0,0:0:0:0:
475,192,120075,1,0,0:0:0:0:
402,192,120193,128,0,122069:0:0:0:0:
36,192,120193,128,0,121131:0:0:0:0:
256,192,120193,1,0,0:0:0:0:
329,192,120193,1,0,0:0:0:0:
329,192,120427,1,0,0:0:0:0:
256,192,120662,1,0,0:0:0:0:
256,192,120779,1,0,0:0:0:0:
329,192,120896,1,0,0:0:0:0:
329,192,121014,1,0,0:0:0:0:
109,192,121131,128,0,122069:0:0:0:0:
256,192,121131,1,0,0:0:0:0:
329,192,121366,1,0,0:0:0:0:
256,192,121600,1,0,0:0:0:0:
329,192,121835,1,0,0:0:0:0:
256,192,122069,1,0,0:0:0:0:
475,192,122069,1,0,0:0:0:0:
182,192,122069,128,0,123946:0:0:0:0:
109,192,122304,1,0,0:0:0:0:
256,192,122538,1,0,0:0:0:0:
36,192,122538,1,0,0:0:0:0:
329,192,122656,1,0,0:0:0:0:
402,192,122773,1,0,0:0:0:0:
109,192,122773,1,0,0:0:0:0:
329,192,122890,1,0,0:0:0:0:
256,192,123008,1,0,0:0:0:0:
402,192,123008,1,0,0:0:0:0:
475,192,123008,1,0,0:0:0:0:
329,192,123125,1,0,0:0:0:0:
402,192,123242,1,0,0:0:0:0:
109,192,123242,1,0,0:0:0:0:
329,192,123359,1,0,0:0:0:0:
256,192,123477,1,0,0:0:0:0:
36,192,123477,1,0,0:0:0:0:
402,192,123477,1,0,0:0:0:0:
329,192,123594,1,0,0:0:0:0:
402,192,123711,1,0,0:0:0:0:
109,192,123711,1,0,0:0:0:0:
329,192,123829,1,0,0:0:0:0:
256,192,123946,1,0,0:0:0:0:
402,192,123946,1,0,0:0:0:0:
36,192,123946,128,0,125823:0:0:0:0:
329,192,124181,1,0,0:0:0:0:
256,192,124415,1,0,0:0:0:0:
109,192,124415,1,0,0:0:0:0:
402,192,124650,1,0,0:0:0:0:
182,192,124650,1,0,0:0:0:0:
329,192,124650,1,0,0:0:0:0:
475,192,124767,1,0,0:0:0:0:
256,192,124884,1,0,0:0:0:0:
402,192,124884,1,0,0:0:0:0:
475,192,125002,1,0,0:0:0:0:
402,192,125119,1,0,0:0:0:0:
329,192,125119,1,0,0:0:0:0:
475,192,125236,1,0,0:0:0:0:
109,192,125353,1,0,0:0:0:0:
256,192,125353,1,0,0:0:0:0:
402,192,125353,1,0,0:0:0:0:
475,192,125471,1,0,0:0:0:0:
182,192,125588,1,0,0:0:0:0:
402,192,125588,1,0,0:0:0:0:
329,192,125705,1,0,0:0:0:0:
256,192,125823,128,0,127699:0:0:0:0:
109,192,125823,1,0,0:0:0:0:
402,192,125823,1,0,0:0:0:0:
329,192,126057,1,0,0:0:0:0:
402,192,126292,1,0,0:0:0:0:
109,192,126292,1,0,0:0:0:0:
475,192,126292,1,0,0:0:0:0:
36,192,126409,1,0,0:0:0:0:
182,192,126526,1,0,0:0:0:0:
475,192,126526,1,0,0:0:0:0:
36,192,126644,1,0,0:0:0:0:
402,192,126761,1,0,0:0:0:0:
109,192,126761,1,0,0:0:0:0:
475,192,126761,1,0,0:0:0:0:
36,192,126878,1,0,0:0:0:0:
329,192,126995,1,0,0:0:0:0:
475,192,126995,1,0,0:0:0:0:
36,192,127113,1,0,0:0:0:0:
402,192,127230,1,0,0:0:0:0:
109,192,127230,1,0,0:0:0:0:
475,192,127230,1,0,0:0:0:0:
36,192,127347,1,0,0:0:0:0:
182,192,127465,1,0,0:0:0:0:
475,192,127465,1,0,0:0:0:0:
36,192,127582,1,0,0:0:0:0:
329,192,127699,128,0,128637:0:0:0:0:
109,192,127699,1,0,0:0:0:0:
475,192,127699,1,0,0:0:0:0:
36,192,127934,1,0,0:0:0:0:
475,192,128168,1,0,0:0:0:0:
109,192,128168,1,0,0:0:0:0:
256,192,128168,1,0,0:0:0:0:
36,192,128286,1,0,0:0:0:0:
182,192,128403,1,0,0:0:0:0:
256,192,128403,1,0,0:0:0:0:
109,192,128462,1,0,0:0:0:0:
36,192,128520,1,0,0:0:0:0:
402,192,128637,128,0,129576:0:0:0:0:
475,192,128637,1,0,0:0:0:0:
256,192,128637,1,0,0:0:0:0:
109,192,128637,1,0,0:0:0:0:
329,192,128872,1,0,0:0:0:0:
109,192,129107,1,0,0:0:0:0:
256,192,129107,1,0,0:0:0:0:
475,192,129107,1,0,0:0:0:0:
36,192,129224,1,0,0:0:0:0:
109,192,129341,1,0,0:0:0:0:
182,192,129341,1,0,0:0:0:0:
36,192,129458,1,0,0:0:0:0:
109,192,129576,128,0,131452:0:0:0:0:
256,192,129576,1,0,0:0:0:0:
475,192,129576,1,0,0:0:0:0:
402,192,129810,1,0,0:0:0:0:
475,192,130045,1,0,0:0:0:0:
256,192,130045,1,0,0:0:0:0:
36,192,130045,1,0,0:0:0:0:
182,192,130162,1,0,0:0:0:0:
329,192,130280,1,0,0:0:0:0:
36,192,130280,1,0,0:0:0:0:
182,192,130397,1,0,0:0:0:0:
475,192,130514,1,0,0:0:0:0:
256,192,130514,1,0,0:0:0:0:
36,192,130514,1,0,0:0:0:0:
182,192,130631,1,0,0:0:0:0:
402,192,130749,1,0,0:0:0:0:
36,192,130749,1,0,0:0:0:0:
182,192,130866,1,0,0:0:0:0:
256,192,130983,1,0,0:0:0:0:
475,192,130983,1,0,0:0:0:0:
36,192,130983,1,0,0:0:0:0:
182,192,131101,1,0,0:0:0:0:
329,192,131218,1,0,0:0:0:0:
36,192,131218,1,0,0:0:0:0:
182,192,131335,1,0,0:0:0:0:
36,192,131452,128,0,133329:0:0:0:0:
402,192,131452,1,0,0:0:0:0:
475,192,131452,1,0,0:0:0:0:
402,192,131687,1,0,0:0:0:0:
402,192,131922,1,0,0:0:0:0:
475,192,131922,1,0,0:0:0:0:
109,192,131922,1,0,0:0:0:0:
182,192,132039,1,0,0:0:0:0:
256,192,132156,1,0,0:0:0:0:
475,192,132156,1,0,0:0:0:0:
329,192,132273,1,0,0:0:0:0:
402,192,132391,1,0,0:0:0:0:
475,192,132391,1,0,0:0:0:0:
402,192,132625,1,0,0:0:0:0:
402,192,132860,1,0,0:0:0:0:
475,192,132860,1,0,0:0:0:0:
475,192,133094,1,0,0:0:0:0:
109,192,133329,128,0,135206:0:0:0:0:
182,192,133329,128,0,134267:0:0:0:0:
256,192,133329,1,0,0:0:0:0:
402,192,133329,1,0,0:0:0:0:
402,192,133798,1,0,0:0:0:0:
256,192,133798,1,0,0:0:0:0:
329,192,134267,128,0,135206:0:0:0:0:
256,192,134267,1,0,0:0:0:0:
402,192,134267,1,0,0:0:0:0:
475,192,134502,1,0,0:0:0:0:
256,192,134502,1,0,0:0:0:0:
402,192,134619,1,0,0:0:0:0:
182,192,134619,1,0,0:0:0:0:
256,192,134678,1,0,0:0:0:0:
475,192,134678,1,0,0:0:0:0:
182,192,134736,1,0,0:0:0:0:
402,192,134736,1,0,0:0:0:0:
475,192,134854,1,0,0:0:0:0:
256,192,134854,1,0,0:0:0:0:
36,192,135206,128,0,135440:0:0:0:0:
256,192,135206,1,0,0:0:0:0:
475,192,135206,1,0,0:0:0:0:
182,192,135440,1,0,0:0:0:0:
329,192,135557,1,0,0:0:0:0:
182,192,135675,1,0,0:0:0:0:
475,192,135675,1,0,0:0:0:0:
109,192,135909,128,0,136144:0:0:0:0:
256,192,136144,1,0,0:0:0:0:
402,192,136261,1,0,0:0:0:0:
182,192,136261,1,0,0:0:0:0:
256,192,136378,1,0,0:0:0:0:
36,192,136613,1,0,0:0:0:0:
329,192,136613,1,0,0:0:0:0:
475,192,136613,1,0,0:0:0:0:
109,192,136730,1,0,0:0:0:0:
182,192,136848,1,0,0:0:0:0:
256,192,136965,1,0,0:0:0:0:
329,192,137082,128,0,137317:0:0:0:0:
475,192,137082,128,0,137551:0:0:0:0:
36,192,137082,1,0,0:0:0:0:
256,192,137317,1,0,0:0:0:0:
182,192,137434,1,0,0:0:0:0:
109,192,137551,1,0,0:0:0:0:
402,192,137551,1,0,0:0:0:0:
36,192,137669,1,0,0:0:0:0:
109,192,137786,1,0,0:0:0:0:
475,192,137786,128,0,138138:0:0:0:0:
182,192,137903,1,0,0:0:0:0:
256,192,138021,1,0,0:0:0:0:
36,192,138138,1,0,0:0:0:0:
329,192,138138,1,0,0:0:0:0:
109,192,138255,1,0,0:0:0:0:
402,192,138255,1,0,0:0:0:0:
475,192,138372,1,0,0:0:0:0:
182,192,138490,128,0,138959:0:0:0:0:
256,192,138490,1,0,0:0:0:0:
402,192,138490,1,0,0:0:0:0:
329,192,138607,1,0,0:0:0:0:
256,192,138724,1,0,0:0:0:0:
329,192,138842,1,0,0:0:0:0:
36,192,138959,128,0,139193:0:0:0:0:
402,192,138959,1,0,0:0:0:0:
256,192,138959,1,0,0:0:0:0:
109,192,139193,1,0,0:0:0:0:
182,192,139311,1,0,0:0:0:0:
256,192,139428,1,0,0:0:0:0:
475,192,139428,1,0,0:0:0:0:
402,192,139663,128,0,139897:0:0:0:0:
36,192,139663,128,0,139897:0:0:0:0:
329,192,139897,1,0,0:0:0:0:
182,192,139897,1,0,0:0:0:0:
256,192,140014,1,0,0:0:0:0:
109,192,140014,1,0,0:0:0:0:
182,192,140132,1,0,0:0:0:0:
36,192,140132,1,0,0:0:0:0:
109,192,140366,128,0,140601:0:0:0:0:
256,192,140366,1,0,0:0:0:0:
402,192,140366,1,0,0:0:0:0:
182,192,140601,1,0,0:0:0:0:
182,192,140718,1,0,0:0:0:0:
256,192,140835,1,0,0:0:0:0:
36,192,140835,128,0,141305:0:0:0:0:
329,192,140953,1,0,0:0:0:0:
402,192,141070,1,0,0:0:0:0:
475,192,141187,1,0,0:0:0:0:
256,192,141305,1,0,0:0:0:0:
109,192,141305,1,0,0:0:0:0:
329,192,141422,1,0,0:0:0:0:
402,192,141539,1,0,0:0:0:0:
256,192,141539,128,0,142008:0:0:0:0:
475,192,141656,1,0,0:0:0:0:
36,192,141774,1,0,0:0:0:0:
109,192,141891,1,0,0:0:0:0:
182,192,142008,1,0,0:0:0:0:
256,192,142126,1,0,0:0:0:0:
475,192,142243,1,0,0:0:0:0:
329,192,142243,1,0,0:0:0:0:
402,192,142360,1,0,0:0:0:0:
256,192,142360,1,0,0:0:0:0:
329,192,142477,1,0,0:0:0:0:
182,192,142477,1,0,0:0:0:0:
475,192,142477,1,0,0:0:0:0:
256,192,142595,1,0,0:0:0:0:
109,192,142595,1,0,0:0:0:0:
182,192,142712,1,0,0:0:0:0:
329,192,142712,1,0,0:0:0:0:
36,192,142712,128,0,142947:0:0:0:0:
402,192,142712,1,0,0:0:0:0:
109,192,142947,1,0,0:0:0:0:
402,192,143064,1,0,0:0:0:0:
109,192,143181,1,0,0:0:0:0:
256,192,143181,1,0,0:0:0:0:
329,192,143416,128,0,143650:0:0:0:0:
36,192,143650,1,0,0:0:0:0:
475,192,143768,1,0,0:0:0:0:
36,192,143885,1,0,0:0:0:0:
109,192,144120,1,0,0:0:0:0:
402,192,144120,1,0,0:0:0:0:
182,192,144354,1,0,0:0:0:0:
329,192,144354,1,0,0:0:0:0:
256,192,144471,1,0,0:0:0:0:
182,192,144589,1,0,0:0:0:0:
329,192,144589,1,0,0:0:0:0:
475,192,144589,128,0,145058:0:0:0:0:
402,192,144706,1,0,0:0:0:0:
329,192,144823,1,0,0:0:0:0:
256,192,144941,1,0,0:0:0:0:
182,192,145058,1,0,0:0:0:0:
329,192,145058,1,0,0:0:0:0:
109,192,145175,1,0,0:0:0:0:
36,192,145292,1,0,0:0:0:0:
402,192,145292,128,0,145996:0:0:0:0:
109,192,145410,1,0,0:0:0:0:
182,192,145527,1,0,0:0:0:0:
256,192,145644,1,0,0:0:0:0:
182,192,145762,1,0,0:0:0:0:
109,192,145879,1,0,0:0:0:0:
475,192,145996,128,0,146231:0:0:0:0:
36,192,145996,1,0,0:0:0:0:
256,192,145996,1,0,0:0:0:0:
109,192,146113,1,0,0:0:0:0:
329,192,146231,128,0,146465:0:0:0:0:
36,192,146231,1,0,0:0:0:0:
109,192,146289,1,0,0:0:0:0:
182,192,146465,1,0,0:0:0:0:
402,192,146465,128,0,148342:0:0:0:0:
36,192,146465,128,0,146817:0:0:0:0:
475,192,146465,1,0,0:0:0:0:
256,192,146700,1,0,0:0:0:0:
109,192,146817,1,0,0:0:0:0:
329,192,146817,1,0,0:0:0:0:
256,192,146934,1,0,0:0:0:0:
182,192,147169,1,0,0:0:0:0:
36,192,147169,1,0,0:0:0:0:
329,192,147169,128,0,147638:0:0:0:0:
109,192,147286,1,0,0:0:0:0:
256,192,147286,1,0,0:0:0:0:
182,192,147404,1,0,0:0:0:0:
36,192,147404,1,0,0:0:0:0:
109,192,147638,1,0,0:0:0:0:
182,192,147755,1,0,0:0:0:0:
36,192,147755,1,0,0:0:0:0:
329,192,147873,128,0,148342:0:0:0:0:
109,192,147873,1,0,0:0:0:0:
256,192,147873,1,0,0:0:0:0:
182,192,148107,1,0,0:0:0:0:
36,192,148107,1,0,0:0:0:0:
475,192,148342,128,0,148694:0:0:0:0:
36,192,148342,1,0,0:0:0:0:
256,192,148342,1,0,0:0:0:0:
329,192,148459,1,0,0:0:0:0:
109,192,148459,1,0,0:0:0:0:
402,192,148576,1,0,0:0:0:0:
182,192,148576,1,0,0:0:0:0:
329,192,148694,1,0,0:0:0:0:
256,192,148694,128,0,149046:0:0:0:0:
109,192,148694,1,0,0:0:0:0:
36,192,148811,1,0,0:0:0:0:
402,192,148811,1,0,0:0:0:0:
109,192,148928,1,0,0:0:0:0:
475,192,148928,1,0,0:0:0:0:
182,192,149046,1,0,0:0:0:0:
402,192,149046,1,0,0:0:0:0:
329,192,149046,128,0,149515:0:0:0:0:
109,192,149280,128,0,149515:0:0:0:0:
256,192,149397,128,0,149515:0:0:0:0:
402,192,149515,1,0,0:0:0:0:
475,192,149749,1,0,0:0:0:0:
256,192,149749,1,0,0:0:0:0:
402,192,149867,1,0,0:0:0:0:
182,192,149867,1,0,0:0:0:0:
329,192,149984,1,0,0:0:0:0:
109,192,149984,1,0,0:0:0:0:
256,192,150101,1,0,0:0:0:0:
36,192,150101,1,0,0:0:0:0:
329,192,150219,1,0,0:0:0:0:
475,192,150219,1,0,0:0:0:0:
182,192,150219,1,0,0:0:0:0:
109,192,150219,128,0,150453:0:0:0:0:
256,192,150453,1,0,0:0:0:0:
329,192,150570,1,0,0:0:0:0:
402,192,150688,1,0,0:0:0:0:
182,192,150688,1,0,0:0:0:0:
36,192,150688,1,0,0:0:0:0:
475,192,150805,1,0,0:0:0:0:
402,192,150922,1,0,0:0:0:0:
109,192,150922,1,0,0:0:0:0:
329,192,151040,1,0,0:0:0:0:
256,192,151157,1,0,0:0:0:0:
36,192,151157,128,0,151391:0:0:0:0:
182,192,151391,1,0,0:0:0:0:
109,192,151626,1,0,0:0:0:0:
329,192,151626,1,0,0:0:0:0:
475,192,151626,1,0,0:0:0:0:
402,192,151861,1,0,0:0:0:0:
256,192,151978,1,0,0:0:0:0:
109,192,152095,128,0,152330:0:0:0:0:
329,192,152095,1,0,0:0:0:0:
256,192,152212,1,0,0:0:0:0:
182,192,152330,1,0,0:0:0:0:
256,192,152447,1,0,0:0:0:0:
329,192,152564,1,0,0:0:0:0:
36,192,152564,1,0,0:0:0:0:
182,192,152564,1,0,0:0:0:0:
256,192,152682,1,0,0:0:0:0:
182,192,152799,1,0,0:0:0:0:
109,192,152916,1,0,0:0:0:0:
402,192,153033,1,0,0:0:0:0:
36,192,153033,128,0,153268:0:0:0:0:
182,192,153268,1,0,0:0:0:0:
329,192,153268,1,0,0:0:0:0:
36,192,153503,1,0,0:0:0:0:
256,192,153503,1,0,0:0:0:0:
475,192,153503,1,0,0:0:0:0:
402,192,153737,1,0,0:0:0:0:
109,192,153854,1,0,0:0:0:0:
256,192,153972,128,0,154206:0:0:0:0:
36,192,153972,1,0,0:0:0:0:
182,192,154206,1,0,0:0:0:0:
329,192,154324,1,0,0:0:0:0:
109,192,154441,1,0,0:0:0:0:
256,192,154441,1,0,0:0:0:0:
402,192,154558,1,0,0:0:0:0:
36,192,154675,1,0,0:0:0:0:
475,192,154793,1,0,0:0:0:0:
402,192,154910,1,0,0:0:0:0:
182,192,154910,1,0,0:0:0:0:
109,192,155027,1,0,0:0:0:0:
329,192,155145,1,0,0:0:0:0:
256,192,155145,1,0,0:0:0:0:
182,192,155262,1,0,0:0:0:0:
256,192,155379,1,0,0:0:0:0:
36,192,155379,1,0,0:0:0:0:
475,192,155379,1,0,0:0:0:0:
329,192,155496,1,0,0:0:0:0:
402,192,155614,1,0,0:0:0:0:
109,192,155614,128,0,155731:0:0:0:0:
475,192,155731,1,0,0:0:0:0:
182,192,155731,128,0,155848:0:0:0:0:
402,192,155848,1,0,0:0:0:0:
256,192,155848,128,0,156083:0:0:0:0:
329,192,156083,1,0,0:0:0:0:
182,192,156083,1,0,0:0:0:0:
402,192,156200,1,0,0:0:0:0:
109,192,156200,1,0,0:0:0:0:
256,192,156200,128,0,156318:0:0:0:0:
475,192,156318,1,0,0:0:0:0:
329,192,156318,1,0,0:0:0:0:
36,192,156318,1,0,0:0:0:0:
329,192,156552,1,0,0:0:0:0:
109,192,156552,1,0,0:0:0:0:
256,192,156552,128,0,156669:0:0:0:0:
402,192,156669,1,0,0:0:0:0:
475,192,156787,1,0,0:0:0:0:
36,192,156787,1,0,0:0:0:0:
109,192,157021,1,0,0:0:0:0:
402,192,157021,1,0,0:0:0:0:
256,192,157256,1,0,0:0:0:0:
182,192,157256,1,0,0:0:0:0:
329,192,157256,1,0,0:0:0:0:
402,192,157490,1,0,0:0:0:0:
109,192,157490,1,0,0:0:0:0:
256,192,157725,1,0,0:0:0:0:
475,192,157725,1,0,0:0:0:0:
36,192,157725,128,0,157960:0:0:0:0:
329,192,157960,1,0,0:0:0:0:
182,192,158077,1,0,0:0:0:0:
36,192,158077,1,0,0:0:0:0:
256,192,158194,1,0,0:0:0:0:
402,192,158194,1,0,0:0:0:0:
109,192,158194,1,0,0:0:0:0:
36,192,158429,1,0,0:0:0:0:
329,192,158429,1,0,0:0:0:0:
109,192,158546,128,0,158781:0:0:0:0:
256,192,158663,1,0,0:0:0:0:
475,192,158663,1,0,0:0:0:0:
109,192,158898,1,0,0:0:0:0:
402,192,158898,1,0,0:0:0:0:
109,192,159132,128,0,159367:0:0:0:0:
256,192,159132,1,0,0:0:0:0:
329,192,159132,1,0,0:0:0:0:
475,192,159132,1,0,0:0:0:0:
36,192,159367,128,0,159484:0:0:0:0:
402,192,159367,1,0,0:0:0:0:
109,192,159484,128,0,159602:0:0:0:0:
329,192,159484,1,0,0:0:0:0:
182,192,159602,128,0,159836:0:0:0:0:
256,192,159602,1,0,0:0:0:0:
475,192,159602,1,0,0:0:0:0:
329,192,159836,1,0,0:0:0:0:
182,192,159953,1,0,0:0:0:0:
402,192,159953,1,0,0:0:0:0:
36,192,160071,128,0,160188:0:0:0:0:
475,192,160071,1,0,0:0:0:0:
329,192,160071,1,0,0:0:0:0:
256,192,160071,1,0,0:0:0:0:
109,192,160188,128,0,160305:0:0:0:0:
182,192,160305,128,0,160423:0:0:0:0:
402,192,160305,1,0,0:0:0:0:
256,192,160423,128,0,160657:0:0:0:0:
475,192,160540,1,0,0:0:0:0:
329,192,160540,1,0,0:0:0:0:
256,192,160774,1,0,0:0:0:0:
402,192,160774,1,0,0:0:0:0:
182,192,161009,1,0,0:0:0:0:
329,192,161009,1,0,0:0:0:0:
109,192,161009,1,0,0:0:0:0:
36,192,161244,128,0,161361:0:0:0:0:
256,192,161244,1,0,0:0:0:0:
109,192,161361,128,0,161713:0:0:0:0:
329,192,161361,1,0,0:0:0:0:
402,192,161478,1,0,0:0:0:0:
475,192,161478,128,0,161947:0:0:0:0:
182,192,161478,1,0,0:0:0:0:
256,192,161713,1,0,0:0:0:0:
329,192,161947,1,0,0:0:0:0:
402,192,161947,1,0,0:0:0:0:
182,192,161947,1,0,0:0:0:0:
109,192,162182,1,0,0:0:0:0:
329,192,162182,1,0,0:0:0:0:
36,192,162182,128,0,162651:0:0:0:0:
182,192,162416,1,0,0:0:0:0:
256,192,162651,1,0,0:0:0:0:
402,192,162651,1,0,0:0:0:0:
256,192,162886,1,0,0:0:0:0:
402,192,162886,1,0,0:0:0:0:
256,192,163120,1,0,0:0:0:0:
402,192,163120,128,0,163589:0:0:0:0:
36,192,163355,1,0,0:0:0:0:
109,192,163589,1,0,0:0:0:0:
256,192,163589,1,0,0:0:0:0:
182,192,163707,1,0,0:0:0:0:
329,192,163707,1,0,0:0:0:0:
402,192,163765,1,0,0:0:0:0:
256,192,163765,1,0,0:0:0:0:
329,192,163824,1,0,0:0:0:0:
182,192,163824,1,0,0:0:0:0:
256,192,163941,1,0,0:0:0:0:
109,192,163941,1,0,0:0:0:0:
182,192,164059,1,0,0:0:0:0:
36,192,164059,1,0,0:0:0:0:
475,192,164059,128,0,164528:0:0:0:0:
36,192,164293,1,0,0:0:0:0:
182,192,164293,1,0,0:0:0:0:
109,192,164410,1,0,0:0:0:0:
256,192,164410,1,0,0:0:0:0:
182,192,164528,1,0,0:0:0:0:
329,192,164528,1,0,0:0:0:0:
256,192,164645,1,0,0:0:0:0:
109,192,164645,1,0,0:0:0:0:
182,192,164704,1,0,0:0:0:0:
329,192,164704,1,0,0:0:0:0:
402,192,164762,1,0,0:0:0:0:
256,192,164762,1,0,0:0:0:0:
36,192,164762,128,0,165231:0:0:0:0:
329,192,164821,1,0,0:0:0:0:
402,192,164880,1,0,0:0:0:0:
256,192,164880,1,0,0:0:0:0:
475,192,164997,1,0,0:0:0:0:
329,192,164997,1,0,0:0:0:0:
402,192,165055,1,0,0:0:0:0:
256,192,165055,1,0,0:0:0:0:
329,192,165114,1,0,0:0:0:0:
182,192,165114,1,0,0:0:0:0:
256,192,165173,1,0,0:0:0:0:
109,192,165173,1,0,0:0:0:0:
182,192,165231,1,0,0:0:0:0:
475,192,165231,128,0,165466:0:0:0:0:
329,192,165231,1,0,0:0:0:0:
402,192,165466,1,0,0:0:0:0:
329,192,165583,1,0,0:0:0:0:
256,192,165701,1,0,0:0:0:0:
402,192,165701,1,0,0:0:0:0:
109,192,165701,1,0,0:0:0:0:
182,192,165818,1,0,0:0:0:0:
109,192,165935,1,0,0:0:0:0:
36,192,166052,1,0,0:0:0:0:
109,192,166170,1,0,0:0:0:0:
402,192,166170,1,0,0:0:0:0:
475,192,166404,1,0,0:0:0:0:
36,192,166404,1,0,0:0:0:0:
109,192,166639,1,0,0:0:0:0:
256,192,166639,1,0,0:0:0:0:
402,192,166639,1,0,0:0:0:0:
182,192,166873,1,0,0:0:0:0:
329,192,166873,1,0,0:0:0:0:
402,192,166991,1,0,0:0:0:0:
36,192,167108,128,0,167343:0:0:0:0:
475,192,167108,1,0,0:0:0:0:
182,192,167343,1,0,0:0:0:0:
256,192,167460,1,0,0:0:0:0:
329,192,167577,1,0,0:0:0:0:
182,192,167577,1,0,0:0:0:0:
475,192,167577,1,0,0:0:0:0:
402,192,167694,1,0,0:0:0:0:
475,192,167812,1,0,0:0:0:0:
402,192,167929,1,0,0:0:0:0:
329,192,168046,1,0,0:0:0:0:
182,192,168046,128,0,168281:0:0:0:0:
329,192,168281,1,0,0:0:0:0:
36,192,168281,1,0,0:0:0:0:
256,192,168398,1,0,0:0:0:0:
36,192,168515,128,0,168750:0:0:0:0:
109,192,168515,1,0,0:0:0:0:
329,192,168515,1,0,0:0:0:0:
475,192,168515,1,0,0:0:0:0:
256,192,168750,1,0,0:0:0:0:
182,192,168750,128,0,168985:0:0:0:0:
329,192,168867,1,0,0:0:0:0:
402,192,168985,1,0,0:0:0:0:
475,192,168985,1,0,0:0:0:0:
109,192,168985,128,0,169219:0:0:0:0:
256,192,169219,1,0,0:0:0:0:
182,192,169337,1,0,0:0:0:0:
329,192,169454,1,0,0:0:0:0:
475,192,169454,1,0,0:0:0:0:
256,192,169454,1,0,0:0:0:0:
109,192,169571,1,0,0:0:0:0:
402,192,169688,1,0,0:0:0:0:
182,192,169688,128,0,169923:0:0:0:0:
36,192,169806,1,0,0:0:0:0:
475,192,169923,1,0,0:0:0:0:
109,192,169923,128,0,170158:0:0:0:0:
256,192,170158,1,0,0:0:0:0:
402,192,170158,1,0,0:0:0:0:
329,192,170392,1,0,0:0:0:0:
182,192,170392,1,0,0:0:0:0:
36,192,170392,1,0,0:0:0:0:
256,192,170627,1,0,0:0:0:0:
182,192,170744,1,0,0:0:0:0:
109,192,170861,128,0,171096:0:0:0:0:
329,192,170861,1,0,0:0:0:0:
475,192,170861,1,0,0:0:0:0:
182,192,171096,1,0,0:0:0:0:
402,192,171096,1,0,0:0:0:0:
109,192,171213,1,0,0:0:0:0:
329,192,171213,1,0,0:0:0:0:
36,192,171330,1,0,0:0:0:0:
475,192,171330,1,0,0:0:0:0:
256,192,171330,1,0,0:0:0:0:
109,192,171448,1,0,0:0:0:0:
182,192,171565,1,0,0:0:0:0:
402,192,171565,1,0,0:0:0:0:
182,192,171800,1,0,0:0:0:0:
329,192,171800,1,0,0:0:0:0:
475,192,171800,1,0,0:0:0:0:
256,192,172034,1,0,0:0:0:0:
109,192,172034,1,0,0:0:0:0:
402,192,172034,128,0,172269:0:0:0:0:
36,192,172269,1,0,0:0:0:0:
182,192,172269,1,0,0:0:0:0:
329,192,172269,1,0,0:0:0:0:
256,192,172386,1,0,0:0:0:0:
182,192,172503,1,0,0:0:0:0:
109,192,172621,1,0,0:0:0:0:
36,192,172738,128,0,172972:0:0:0:0:
329,192,172738,1,0,0:0:0:0:
109,192,172972,1,0,0:0:0:0:
182,192,173090,1,0,0:0:0:0:
36,192,173090,128,0,173207:0:0:0:0:
256,192,173207,1,0,0:0:0:0:
402,192,173207,1,0,0:0:0:0:
109,192,173207,1,0,0:0:0:0:
475,192,173324,1,0,0:0:0:0:
402,192,173442,1,0,0:0:0:0:
182,192,173442,1,0,0:0:0:0:
329,192,173559,1,0,0:0:0:0:
256,192,173676,128,0,173793:0:0:0:0:
109,192,173676,1,0,0:0:0:0:
402,192,173676,1,0,0:0:0:0:
256,192,173911,128,0,174145:0:0:0:0:
182,192,173911,1,0,0:0:0:0:
36,192,174145,1,0,0:0:0:0:
109,192,174145,1,0,0:0:0:0:
475,192,174145,1,0,0:0:0:0:
182,192,174380,1,0,0:0:0:0:
329,192,174497,1,0,0:0:0:0:
475,192,174614,128,0,174849:0:0:0:0:
109,192,174614,1,0,0:0:0:0:
36,192,174614,1,0,0:0:0:0:
329,192,174849,1,0,0:0:0:0:
402,192,174966,1,0,0:0:0:0:
475,192,174966,1,0,0:0:0:0:
182,192,175084,1,0,0:0:0:0:
36,192,175084,1,0,0:0:0:0:
256,192,175084,1,0,0:0:0:0:
329,192,175201,1,0,0:0:0:0:
402,192,175318,1,0,0:0:0:0:
182,192,175318,1,0,0:0:0:0:
475,192,175436,128,0,175670:0:0:0:0:
109,192,175553,1,0,0:0:0:0:
256,192,175553,1,0,0:0:0:0:
475,192,175787,128,0,176022:0:0:0:0:
182,192,175787,1,0,0:0:0:0:
256,192,175905,1,0,0:0:0:0:
329,192,176022,1,0,0:0:0:0:
402,192,176022,1,0,0:0:0:0:
182,192,176022,1,0,0:0:0:0:
256,192,176257,1,0,0:0:0:0:
182,192,176374,1,0,0:0:0:0:
109,192,176491,1,0,0:0:0:0:
36,192,176491,128,0,180244:0:0:0:0:
402,192,176491,1,0,0:0:0:0:
475,192,176491,1,0,0:0:0:0:
182,192,176726,1,0,0:0:0:0:
329,192,176726,1,0,0:0:0:0:
109,192,176960,1,0,0:0:0:0:
256,192,176960,1,0,0:0:0:0:
402,192,176960,1,0,0:0:0:0:
182,192,177195,1,0,0:0:0:0:
329,192,177195,1,0,0:0:0:0:
256,192,177429,1,0,0:0:0:0:
109,192,177664,1,0,0:0:0:0:
182,192,177664,1,0,0:0:0:0:
256,192,177899,1,0,0:0:0:0:
329,192,177899,1,0,0:0:0:0:
402,192,178133,1,0,0:0:0:0:
475,192,178133,1,0,0:0:0:0:
402,192,178368,1,0,0:0:0:0:
475,192,178368,1,0,0:0:0:0:
109,192,178602,1,0,0:0:0:0:
256,192,178602,1,0,0:0:0:0:
402,192,178602,1,0,0:0:0:0:
182,192,178720,1,0,0:0:0:0:
329,192,178720,1,0,0:0:0:0:
109,192,178778,1,0,0:0:0:0:
402,192,178778,1,0,0:0:0:0:
182,192,178837,1,0,0:0:0:0:
329,192,178837,1,0,0:0:0:0:
402,192,178954,1,0,0:0:0:0:
109,192,178954,1,0,0:0:0:0:
182,192,179071,1,0,0:0:0:0:
329,192,179071,1,0,0:0:0:0:
182,192,179306,1,0,0:0:0:0:
329,192,179306,1,0,0:0:0:0:
256,192,179423,1,0,0:0:0:0:
402,192,179423,1,0,0:0:0:0:
329,192,179541,1,0,0:0:0:0:
475,192,179541,1,0,0:0:0:0:
402,192,179658,1,0,0:0:0:0:
256,192,179658,1,0,0:0:0:0:
475,192,179775,1,0,0:0:0:0:
109,192,179775,1,0,0:0:0:0:
329,192,179775,1,0,0:0:0:0:
402,192,179892,1,0,0:0:0:0:
256,192,179892,1,0,0:0:0:0:
182,192,180010,1,0,0:0:0:0:
329,192,180010,1,0,0:0:0:0:
256,192,180127,1,0,0:0:0:0:
109,192,180244,1,0,0:0:0:0:
182,192,180244,1,0,0:0:0:0:
475,192,180244,128,0,182121:0:0:0:0:
402,192,180244,128,0,180479:0:0:0:0:
256,192,180479,128,0,180713:0:0:0:0:
182,192,180713,1,0,0:0:0:0:
329,192,180713,128,0,181065:0:0:0:0:
182,192,181065,1,0,0:0:0:0:
256,192,181183,128,0,181417:0:0:0:0:
109,192,181417,128,0,181652:0:0:0:0:
182,192,181652,128,0,181886:0:0:0:0:
402,192,181652,1,0,0:0:0:0:
36,192,181652,1,0,0:0:0:0:
329,192,181886,128,0,182121:0:0:0:0:
402,192,182121,128,0,182356:0:0:0:0:
36,192,182121,128,0,182356:0:0:0:0:
109,192,182356,128,0,182590:0:0:0:0:
256,192,182356,128,0,182590:0:0:0:0:
329,192,182590,1,0,0:0:0:0:
182,192,182590,128,0,182825:0:0:0:0:
475,192,182590,1,0,0:0:0:0:
329,192,182825,128,0,183059:0:0:0:0:
36,192,182825,1,0,0:0:0:0:
475,192,183059,128,0,183294:0:0:0:0:
256,192,183294,128,0,183528:0:0:0:0:
402,192,183528,128,0,183763:0:0:0:0:
109,192,183528,1,0,0:0:0:0:
36,192,183528,1,0,0:0:0:0:
256,192,183763,128,0,183998:0:0:0:0:
182,192,183763,1,0,0:0:0:0:
109,192,183880,1,0,0:0:0:0:
36,192,183998,128,0,184467:0:0:0:0:
475,192,183998,128,0,184232:0:0:0:0:
329,192,184232,128,0,184467:0:0:0:0:
402,192,184467,128,0,184701:0:0:0:0:
109,192,184467,1,0,0:0:0:0:
182,192,184467,1,0,0:0:0:0:
256,192,184701,1,0,0:0:0:0:
329,192,184819,1,0,0:0:0:0:
402,192,184936,128,0,185170:0:0:0:0:
182,192,184936,1,0,0:0:0:0:
256,192,185170,128,0,185405:0:0:0:0:
329,192,185405,128,0,185640:0:0:0:0:
36,192,185405,1,0,0:0:0:0:
182,192,185405,1,0,0:0:0:0:
402,192,185640,128,0,185874:0:0:0:0:
36,192,185640,1,0,0:0:0:0:
109,192,185757,1,0,0:0:0:0:
475,192,185874,128,0,186109:0:0:0:0:
182,192,185874,1,0,0:0:0:0:
36,192,186109,128,0,186343:0:0:0:0:
256,192,186109,1,0,0:0:0:0:
109,192,186343,128,0,186578:0:0:0:0:
402,192,186343,1,0,0:0:0:0:
256,192,186343,1,0,0:0:0:0:
182,192,186578,128,0,186812:0:0:0:0:
475,192,186578,128,0,186812:0:0:0:0:
329,192,186578,1,0,0:0:0:0:
256,192,186812,128,0,187047:0:0:0:0:
36,192,186812,1,0,0:0:0:0:
109,192,186930,1,0,0:0:0:0:
329,192,187047,128,0,187282:0:0:0:0:
36,192,187047,1,0,0:0:0:0:
109,192,187164,1,0,0:0:0:0:
475,192,187282,128,0,187516:0:0:0:0:
36,192,187282,1,0,0:0:0:0:
182,192,187282,1,0,0:0:0:0:
402,192,187516,128,0,188455:0:0:0:0:
109,192,187751,1,0,0:0:0:0:
36,192,187751,1,0,0:0:0:0:
329,192,187751,1,0,0:0:0:0:
256,192,187751,128,0,188220:0:0:0:0:
109,192,188220,1,0,0:0:0:0:
182,192,188220,128,0,188455:0:0:0:0:
475,192,188220,1,0,0:0:0:0:
329,192,188455,128,0,188689:0:0:0:0:
36,192,188455,1,0,0:0:0:0:
109,192,188572,1,0,0:0:0:0:
256,192,188689,128,0,188924:0:0:0:0:
36,192,188689,128,0,188924:0:0:0:0:
329,192,188924,128,0,189158:0:0:0:0:
475,192,189158,128,0,189393:0:0:0:0:
36,192,189158,1,0,0:0:0:0:
182,192,189158,1,0,0:0:0:0:
256,192,189393,128,0,190800:0:0:0:0:
329,192,189393,1,0,0:0:0:0:
402,192,189510,1,0,0:0:0:0:
475,192,189627,128,0,189862:0:0:0:0:
329,192,189862,128,0,190097:0:0:0:0:
36,192,190097,1,0,0:0:0:0:
182,192,190097,1,0,0:0:0:0:
109,192,190331,1,0,0:0:0:0:
402,192,190331,1,0,0:0:0:0:
182,192,190448,1,0,0:0:0:0:
329,192,190566,128,0,190800:0:0:0:0:
36,192,190566,1,0,0:0:0:0:
475,192,190800,128,0,191035:0:0:0:0:
256,192,191035,128,0,191269:0:0:0:0:
109,192,191035,1,0,0:0:0:0:
36,192,191035,1,0,0:0:0:0:
402,192,191269,128,0,191504:0:0:0:0:
109,192,191504,1,0,0:0:0:0:
329,192,191504,1,0,0:0:0:0:
475,192,191504,1,0,0:0:0:0:
36,192,191504,128,0,195257:0:0:0:0:
182,192,191739,1,0,0:0:0:0:
256,192,191739,1,0,0:0:0:0:
109,192,191973,1,0,0:0:0:0:
329,192,191973,1,0,0:0:0:0:
182,192,192090,1,0,0:0:0:0:
256,192,192208,128,0,193146:0:0:0:0:
109,192,192208,1,0,0:0:0:0:
402,192,192208,1,0,0:0:0:0:
182,192,192442,1,0,0:0:0:0:
329,192,192442,128,0,192677:0:0:0:0:
109,192,192442,1,0,0:0:0:0:
109,192,192677,1,0,0:0:0:0:
182,192,192677,1,0,0:0:0:0:
182,192,192911,1,0,0:0:0:0:
109,192,192911,1,0,0:0:0:0:
475,192,192911,128,0,193146:0:0:0:0:
329,192,193146,128,0,194084:0:0:0:0:
109,192,193146,1,0,0:0:0:0:
182,192,193146,1,0,0:0:0:0:
402,192,193381,128,0,193615:0:0:0:0:
109,192,193381,1,0,0:0:0:0:
256,192,193381,1,0,0:0:0:0:
182,192,193498,1,0,0:0:0:0:
475,192,193615,128,0,193850:0:0:0:0:
256,192,193615,1,0,0:0:0:0:
109,192,193615,1,0,0:0:0:0:
182,192,193732,1,0,0:0:0:0:
109,192,193791,1,0,0:0:0:0:
256,192,193791,1,0,0:0:0:0:
182,192,193850,1,0,0:0:0:0:
256,192,193967,1,0,0:0:0:0:
109,192,193967,1,0,0:0:0:0:
182,192,194084,1,0,0:0:0:0:
475,192,194084,128,0,194319:0:0:0:0:
256,192,194202,1,0,0:0:0:0:
109,192,194202,1,0,0:0:0:0:
182,192,194319,1,0,0:0:0:0:
329,192,194319,1,0,0:0:0:0:
402,192,194319,128,0,194553:0:0:0:0:
182,192,194436,128,0,194671:0:0:0:0:
329,192,194436,128,0,194671:0:0:0:0:
475,192,194671,1,0,0:0:0:0:
402,192,194729,1,0,0:0:0:0:
475,192,194788,1,0,0:0:0:0:
329,192,194788,1,0,0:0:0:0:
256,192,194847,1,0,0:0:0:0:
402,192,194847,1,0,0:0:0:0:
182,192,194905,1,0,0:0:0:0:
329,192,194905,1,0,0:0:0:0:
109,192,194964,1,0,0:0:0:0:
256,192,194964,1,0,0:0:0:0:
329,192,195023,1,0,0:0:0:0:
182,192,195023,1,0,0:0:0:0:
402,192,195081,1,0,0:0:0:0:
109,192,195081,1,0,0:0:0:0:
329,192,195140,1,0,0:0:0:0:
182,192,195140,1,0,0:0:0:0:
402,192,195199,1,0,0:0:0:0:
109,192,195199,1,0,0:0:0:0:
256,192,195257,1,0,0:0:0:0:
475,192,195257,128,0,195492:0:0:0:0:
329,192,195492,1,0,0:0:0:0:
256,192,195609,1,0,0:0:0:0:
182,192,195726,1,0,0:0:0:0:
329,192,195726,1,0,0:0:0:0:
109,192,195961,128,0,196196:0:0:0:0:
256,192,196196,1,0,0:0:0:0:
329,192,196313,1,0,0:0:0:0:
402,192,196430,1,0,0:0:0:0:
475,192,196665,1,0,0:0:0:0:
36,192,196665,1,0,0:0:0:0:
256,192,196665,1,0,0:0:0:0:
109,192,196782,1,0,0:0:0:0:
182,192,196899,1,0,0:0:0:0:
329,192,197017,1,0,0:0:0:0:
475,192,197134,1,0,0:0:0:0:
402,192,197134,128,0,197486:0:0:0:0:
36,192,197134,1,0,0:0:0:0:
109,192,197251,1,0,0:0:0:0:
182,192,197368,1,0,0:0:0:0:
256,192,197486,1,0,0:0:0:0:
109,192,197603,1,0,0:0:0:0:
475,192,197603,1,0,0:0:0:0:
182,192,197720,1,0,0:0:0:0:
402,192,197720,1,0,0:0:0:0:
256,192,197838,1,0,0:0:0:0:
475,192,197838,128,0,198307:0:0:0:0:
109,192,197838,1,0,0:0:0:0:
329,192,197955,1,0,0:0:0:0:
182,192,198072,1,0,0:0:0:0:
256,192,198189,1,0,0:0:0:0:
329,192,198307,1,0,0:0:0:0:
402,192,198424,1,0,0:0:0:0:
475,192,198541,1,0,0:0:0:0:
256,192,198541,1,0,0:0:0:0:
36,192,198541,1,0,0:0:0:0:
402,192,198659,1,0,0:0:0:0:
329,192,198776,1,0,0:0:0:0:
256,192,198893,1,0,0:0:0:0:
182,192,199010,1,0,0:0:0:0:
36,192,199010,128,0,199245:0:0:0:0:
109,192,199245,1,0,0:0:0:0:
256,192,199245,128,0,199362:0:0:0:0:
402,192,199362,1,0,0:0:0:0:
109,192,199480,1,0,0:0:0:0:
182,192,199714,1,0,0:0:0:0:
475,192,199714,128,0,199949:0:0:0:0:
402,192,199714,1,0,0:0:0:0:
329,192,199949,1,0,0:0:0:0:
256,192,200066,1,0,0:0:0:0:
182,192,200183,1,0,0:0:0:0:
36,192,200183,128,0,200301:0:0:0:0:
256,192,200418,1,0,0:0:0:0:
402,192,200418,1,0,0:0:0:0:
109,192,200418,128,0,200652:0:0:0:0:
182,192,200535,1,0,0:0:0:0:
256,192,200652,1,0,0:0:0:0:
329,192,200770,1,0,0:0:0:0:
475,192,200887,1,0,0:0:0:0:
402,192,200887,128,0,201239:0:0:0:0:
36,192,200887,1,0,0:0:0:0:
109,192,201122,1,0,0:0:0:0:
475,192,201239,128,0,201591:0:0:0:0:
182,192,201239,1,0,0:0:0:0:
256,192,201356,1,0,0:0:0:0:
109,192,201356,1,0,0:0:0:0:
36,192,201356,1,0,0:0:0:0:
182,192,201474,1,0,0:0:0:0:
402,192,201591,128,0,202295:0:0:0:0:
256,192,201591,1,0,0:0:0:0:
329,192,201708,128,0,201943:0:0:0:0:
256,192,201943,1,0,0:0:0:0:
182,192,202060,1,0,0:0:0:0:
475,192,202295,1,0,0:0:0:0:
329,192,202295,1,0,0:0:0:0:
109,192,202295,1,0,0:0:0:0:
402,192,202412,1,0,0:0:0:0:
256,192,202412,1,0,0:0:0:0:
329,192,202529,1,0,0:0:0:0:
182,192,202529,1,0,0:0:0:0:
36,192,202529,1,0,0:0:0:0:
256,192,202646,1,0,0:0:0:0:
109,192,202646,1,0,0:0:0:0:
182,192,202764,1,0,0:0:0:0:
329,192,202764,1,0,0:0:0:0:
475,192,202764,1,0,0:0:0:0:
36,192,202764,128,0,202998:0:0:0:0:
109,192,202998,1,0,0:0:0:0:
256,192,203116,1,0,0:0:0:0:
402,192,203233,1,0,0:0:0:0:
109,192,203233,1,0,0:0:0:0:
475,192,203467,128,0,203702:0:0:0:0:
402,192,203702,1,0,0:0:0:0:
256,192,203819,1,0,0:0:0:0:
109,192,203937,1,0,0:0:0:0:
36,192,204171,1,0,0:0:0:0:
182,192,204171,1,0,0:0:0:0:
109,192,204406,1,0,0:0:0:0:
256,192,204406,1,0,0:0:0:0:
329,192,204523,1,0,0:0:0:0:
402,192,204640,1,0,0:0:0:0:
475,192,204640,128,0,204875:0:0:0:0:
182,192,204640,1,0,0:0:0:0:
256,192,204875,1,0,0:0:0:0:
329,192,204992,1,0,0:0:0:0:
402,192,205109,1,0,0:0:0:0:
256,192,205109,1,0,0:0:0:0:
36,192,205109,1,0,0:0:0:0:
475,192,205227,1,0,0:0:0:0:
182,192,205227,1,0,0:0:0:0:
402,192,205344,128,0,205813:0:0:0:0:
109,192,205344,1,0,0:0:0:0:
475,192,205813,1,0,0:0:0:0:
109,192,206048,1,0,0:0:0:0:
256,192,206048,1,0,0:0:0:0:
36,192,206282,1,0,0:0:0:0:
182,192,206282,1,0,0:0:0:0:
109,192,206400,1,0,0:0:0:0:
36,192,206517,1,0,0:0:0:0:
475,192,206517,1,0,0:0:0:0:
402,192,206517,1,0,0:0:0:0:
329,192,206517,128,0,206751:0:0:0:0:
256,192,206751,1,0,0:0:0:0:
109,192,206751,1,0,0:0:0:0:
475,192,206751,128,0,206986:0:0:0:0:
182,192,206869,1,0,0:0:0:0:
256,192,206986,1,0,0:0:0:0:
109,192,206986,1,0,0:0:0:0:
36,192,206986,1,0,0:0:0:0:
329,192,206986,128,0,207221:0:0:0:0:
475,192,207221,128,0,207455:0:0:0:0:
36,192,207221,1,0,0:0:0:0:
182,192,207221,1,0,0:0:0:0:
256,192,207221,1,0,0:0:0:0:
109,192,207338,1,0,0:0:0:0:
402,192,207455,128,0,207690:0:0:0:0:
182,192,207455,1,0,0:0:0:0:
36,192,207455,128,0,207690:0:0:0:0:
329,192,207455,1,0,0:0:0:0:
256,192,207455,1,0,0:0:0:0:
256,192,207690,128,0,207924:0:0:0:0:
475,192,207690,1,0,0:0:0:0:
402,192,207807,1,0,0:0:0:0:
329,192,207924,128,0,208159:0:0:0:0:
109,192,207924,1,0,0:0:0:0:
36,192,207924,1,0,0:0:0:0:
182,192,207924,1,0,0:0:0:0:
402,192,208159,128,0,208394:0:0:0:0:
36,192,208159,1,0,0:0:0:0:
182,192,208159,1,0,0:0:0:0:
109,192,208159,1,0,0:0:0:0:
109,192,208394,1,0,0:0:0:0:
36,192,208394,1,0,0:0:0:0:
182,192,208394,1,0,0:0:0:0:
182,192,208628,128,0,208863:0:0:0:0:
36,192,208628,1,0,0:0:0:0:
109,192,208628,1,0,0:0:0:0:
402,192,208745,1,0,0:0:0:0:
475,192,208745,1,0,0:0:0:0:
256,192,208863,128,0,209097:0:0:0:0:
109,192,208863,1,0,0:0:0:0:
36,192,208863,1,0,0:0:0:0:
402,192,208980,1,0,0:0:0:0:
475,192,208980,1,0,0:0:0:0:
109,192,209097,1,0,0:0:0:0:
36,192,209097,1,0,0:0:0:0:
329,192,209097,128,0,209332:0:0:0:0:
182,192,209215,1,0,0:0:0:0:
256,192,209332,128,0,209566:0:0:0:0:
36,192,209332,1,0,0:0:0:0:
109,192,209332,1,0,0:0:0:0:
109,192,209566,128,0,209801:0:0:0:0:
329,192,209566,1,0,0:0:0:0:
475,192,209566,1,0,0:0:0:0:
36,192,209801,128,0,210036:0:0:0:0:
182,192,209801,1,0,0:0:0:0:
329,192,209801,1,0,0:0:0:0:
402,192,209801,1,0,0:0:0:0:
109,192,210036,128,0,210270:0:0:0:0:
182,192,210036,1,0,0:0:0:0:
329,192,210036,1,0,0:0:0:0:
475,192,210036,1,0,0:0:0:0:
182,192,210270,1,0,0:0:0:0:
256,192,210270,1,0,0:0:0:0:
402,192,210270,1,0,0:0:0:0:
182,192,210505,1,0,0:0:0:0:
402,192,210505,1,0,0:0:0:0:
475,192,210505,128,0,210739:0:0:0:0:
256,192,210622,1,0,0:0:0:0:
329,192,210622,1,0,0:0:0:0:
402,192,210739,1,0,0:0:0:0:
182,192,210739,1,0,0:0:0:0:
36,192,210739,128,0,210974:0:0:0:0:
256,192,210857,1,0,0:0:0:0:
329,192,210857,1,0,0:0:0:0:
402,192,210974,1,0,0:0:0:0:
182,192,210974,1,0,0:0:0:0:
109,192,210974,128,0,211208:0:0:0:0:
402,192,211208,128,0,211443:0:0:0:0:
256,192,211208,1,0,0:0:0:0:
475,192,211208,1,0,0:0:0:0:
329,192,211443,128,0,211678:0:0:0:0:
256,192,211443,1,0,0:0:0:0:
36,192,211443,1,0,0:0:0:0:
182,192,211678,128,0,211912:0:0:0:0:
475,192,211678,1,0,0:0:0:0:
402,192,211678,1,0,0:0:0:0:
109,192,211678,1,0,0:0:0:0:
256,192,211912,128,0,212147:0:0:0:0:
402,192,211912,1,0,0:0:0:0:
475,192,211912,1,0,0:0:0:0:
36,192,211912,1,0,0:0:0:0:
475,192,212147,1,0,0:0:0:0:
402,192,212147,1,0,0:0:0:0:
109,192,212147,1,0,0:0:0:0:
182,192,212381,1,0,0:0:0:0:
36,192,212381,1,0,0:0:0:0:
329,192,212381,128,0,212616:0:0:0:0:
109,192,212499,1,0,0:0:0:0:
256,192,212499,1,0,0:0:0:0:
36,192,212616,1,0,0:0:0:0:
182,192,212616,1,0,0:0:0:0:
475,192,212616,128,0,212850:0:0:0:0:
109,192,212733,1,0,0:0:0:0:
256,192,212733,1,0,0:0:0:0:
182,192,212850,1,0,0:0:0:0:
36,192,212850,1,0,0:0:0:0:
329,192,212850,128,0,213085:0:0:0:0:
109,192,212968,1,0,0:0:0:0:
475,192,213085,128,0,213320:0:0:0:0:
36,192,213085,1,0,0:0:0:0:
182,192,213085,1,0,0:0:0:0:
256,192,213085,1,0,0:0:0:0:
36,192,213320,1,0,0:0:0:0:
256,192,213320,1,0,0:0:0:0:
402,192,213320,128,0,213554:0:0:0:0:
109,192,213320,1,0,0:0:0:0:
36,192,213554,1,0,0:0:0:0:
329,192,213554,128,0,213789:0:0:0:0:
256,192,213554,1,0,0:0:0:0:
182,192,213554,1,0,0:0:0:0:
36,192,213789,1,0,0:0:0:0:
402,192,213789,128,0,214023:0:0:0:0:
256,192,213789,1,0,0:0:0:0:
109,192,213789,1,0,0:0:0:0:
182,192,214023,1,0,0:0:0:0:
36,192,214023,1,0,0:0:0:0:
329,192,214141,1,0,0:0:0:0:
475,192,214141,1,0,0:0:0:0:
182,192,214258,1,0,0:0:0:0:
36,192,214258,1,0,0:0:0:0:
109,192,214258,128,0,214493:0:0:0:0:
329,192,214375,1,0,0:0:0:0:
475,192,214375,1,0,0:0:0:0:
36,192,214493,1,0,0:0:0:0:
182,192,214493,1,0,0:0:0:0:
256,192,214493,128,0,214727:0:0:0:0:
329,192,214610,1,0,0:0:0:0:
475,192,214610,1,0,0:0:0:0:
182,192,214727,1,0,0:0:0:0:
36,192,214727,1,0,0:0:0:0:
402,192,214727,128,0,214962:0:0:0:0:
36,192,214962,1,0,0:0:0:0:
182,192,214962,1,0,0:0:0:0:
256,192,214962,128,0,215196:0:0:0:0:
329,192,215079,1,0,0:0:0:0:
475,192,215079,1,0,0:0:0:0:
36,192,215196,1,0,0:0:0:0:
182,192,215196,1,0,0:0:0:0:
402,192,215196,128,0,215431:0:0:0:0:
329,192,215314,1,0,0:0:0:0:
475,192,215314,1,0,0:0:0:0:
36,192,215431,1,0,0:0:0:0:
182,192,215431,1,0,0:0:0:0:
256,192,215431,128,0,215665:0:0:0:0:
109,192,215431,1,0,0:0:0:0:
36,192,215665,1,0,0:0:0:0:
182,192,215665,1,0,0:0:0:0:
329,192,215665,128,0,215900:0:0:0:0:
402,192,215783,1,0,0:0:0:0:
109,192,215783,1,0,0:0:0:0:
36,192,215900,1,0,0:0:0:0:
475,192,215900,1,0,0:0:0:0:
256,192,215900,1,0,0:0:0:0:
402,192,216017,1,0,0:0:0:0:
109,192,216017,1,0,0:0:0:0:
36,192,216135,1,0,0:0:0:0:
475,192,216135,1,0,0:0:0:0:
256,192,216135,128,0,216369:0:0:0:0:
109,192,216252,1,0,0:0:0:0:
402,192,216252,1,0,0:0:0:0:
182,192,216369,1,0,0:0:0:0:
329,192,216369,1,0,0:0:0:0:
36,192,216369,128,0,216604:0:0:0:0:
109,192,216486,1,0,0:0:0:0:
402,192,216486,1,0,0:0:0:0:
182,192,216604,1,0,0:0:0:0:
329,192,216604,1,0,0:0:0:0:
256,192,216604,128,0,216838:0:0:0:0:
475,192,216838,128,0,217073:0:0:0:0:
36,192,216838,1,0,0:0:0:0:
182,192,216838,1,0,0:0:0:0:
109,192,216956,1,0,0:0:0:0:
329,192,216956,1,0,0:0:0:0:
402,192,217073,128,0,217307:0:0:0:0:
36,192,217073,1,0,0:0:0:0:
182,192,217073,1,0,0:0:0:0:
256,192,217307,128,0,217542:0:0:0:0:
109,192,217307,1,0,0:0:0:0:
36,192,217307,1,0,0:0:0:0:
182,192,217307,1,0,0:0:0:0:
329,192,217542,128,0,217777:0:0:0:0:
109,192,217542,1,0,0:0:0:0:
36,192,217542,1,0,0:0:0:0:
182,192,217542,1,0,0:0:0:0:
36,192,217777,1,0,0:0:0:0:
109,192,217777,1,0,0:0:0:0:
182,192,217777,1,0,0:0:0:0:
475,192,217777,128,0,218011:0:0:0:0:
36,192,218011,1,0,0:0:0:0:
256,192,218011,1,0,0:0:0:0:
109,192,218128,1,0,0:0:0:0:
329,192,218128,1,0,0:0:0:0:
182,192,218246,1,0,0:0:0:0:
402,192,218246,1,0,0:0:0:0:
256,192,218363,1,0,0:0:0:0:
329,192,218480,1,0,0:0:0:0:
109,192,218480,1,0,0:0:0:0:
402,192,218598,1,0,0:0:0:0:
475,192,218715,1,0,0:0:0:0:
256,192,218715,1,0,0:0:0:0:
36,192,218715,1,0,0:0:0:0:
109,192,218832,1,0,0:0:0:0:
182,192,218949,1,0,0:0:0:0:
402,192,218949,1,0,0:0:0:0:
256,192,219067,1,0,0:0:0:0:
329,192,219184,1,0,0:0:0:0:
109,192,219184,1,0,0:0:0:0:
402,192,219301,1,0,0:0:0:0:
182,192,219419,1,0,0:0:0:0:
329,192,219419,128,0,219653:0:0:0:0:
475,192,219653,1,0,0:0:0:0:
402,192,219770,1,0,0:0:0:0:
475,192,219888,1,0,0:0:0:0:
402,192,220005,1,0,0:0:0:0:
329,192,220122,1,0,0:0:0:0:
256,192,220240,1,0,0:0:0:0:
182,192,220357,1,0,0:0:0:0:
475,192,220357,128,0,220591:0:0:0:0:
109,192,220474,1,0,0:0:0:0:
36,192,220591,1,0,0:0:0:0:
182,192,220709,1,0,0:0:0:0:
329,192,220826,1,0,0:0:0:0:
402,192,220943,1,0,0:0:0:0:
475,192,221061,1,0,0:0:0:0:
402,192,221178,1,0,0:0:0:0:
329,192,221295,1,0,0:0:0:0:
256,192,221413,1,0,0:0:0:0:
109,192,221530,1,0,0:0:0:0:
182,192,221530,1,0,0:0:0:0:
329,192,221530,1,0,0:0:0:0:
402,192,221530,128,0,221999:0:0:0:0:
256,192,221764,1,0,0:0:0:0:
182,192,221882,1,0,0:0:0:0:
329,192,221999,1,0,0:0:0:0:
36,192,221999,1,0,0:0:0:0:
109,192,222116,1,0,0:0:0:0:
402,192,222234,1,0,0:0:0:0:
36,192,222351,1,0,0:0:0:0:
475,192,222468,1,0,0:0:0:0:
256,192,222468,1,0,0:0:0:0:
109,192,222585,1,0,0:0:0:0:
402,192,222703,1,0,0:0:0:0:
182,192,222820,1,0,0:0:0:0:
329,192,222937,1,0,0:0:0:0:
256,192,222937,1,0,0:0:0:0:
475,192,222937,1,0,0:0:0:0:
36,192,222937,128,0,223172:0:0:0:0:
109,192,223172,1,0,0:0:0:0:
182,192,223289,1,0,0:0:0:0:
256,192,223406,1,0,0:0:0:0:
402,192,223406,128,0,223641:0:0:0:0:
475,192,223406,1,0,0:0:0:0:
329,192,223641,1,0,0:0:0:0:
256,192,223758,1,0,0:0:0:0:
182,192,223876,1,0,0:0:0:0:
36,192,223876,1,0,0:0:0:0:
329,192,223876,1,0,0:0:0:0:
475,192,223876,1,0,0:0:0:0:
402,192,223993,1,0,0:0:0:0:
109,192,224110,1,0,0:0:0:0:
475,192,224110,1,0,0:0:0:0:
402,192,224227,1,0,0:0:0:0:
182,192,224345,1,0,0:0:0:0:
329,192,224345,1,0,0:0:0:0:
475,192,224345,128,0,224579:0:0:0:0:
256,192,224579,1,0,0:0:0:0:
402,192,224579,1,0,0:0:0:0:
182,192,224814,1,0,0:0:0:0:
329,192,224814,1,0,0:0:0:0:
475,192,224814,1,0,0:0:0:0:
36,192,224814,128,0,225048:0:0:0:0:
402,192,225048,1,0,0:0:0:0:
329,192,225166,1,0,0:0:0:0:
256,192,225283,128,0,225518:0:0:0:0:
109,192,225283,1,0,0:0:0:0:
182,192,225518,1,0,0:0:0:0:
109,192,225635,1,0,0:0:0:0:
36,192,225752,1,0,0:0:0:0:
256,192,225752,1,0,0:0:0:0:
475,192,225752,1,0,0:0:0:0:
109,192,225869,1,0,0:0:0:0:
182,192,225987,1,0,0:0:0:0:
256,192,226104,1,0,0:0:0:0:
329,192,226221,1,0,0:0:0:0:
475,192,226221,1,0,0:0:0:0:
402,192,226456,1,0,0:0:0:0:
109,192,226573,1,0,0:0:0:0:
402,192,226690,1,0,0:0:0:0:
256,192,226690,1,0,0:0:0:0:
475,192,226690,1,0,0:0:0:0:
109,192,226925,1,0,0:0:0:0:
182,192,226925,128,0,227042:0:0:0:0:
329,192,227042,128,0,227160:0:0:0:0:
36,192,227042,1,0,0:0:0:0:
109,192,227160,1,0,0:0:0:0:
256,192,227160,1,0,0:0:0:0:
402,192,227160,128,0,227394:0:0:0:0:
475,192,227394,1,0,0:0:0:0:
182,192,227394,1,0,0:0:0:0:
329,192,227512,1,0,0:0:0:0:
475,192,227629,1,0,0:0:0:0:
109,192,227629,1,0,0:0:0:0:
256,192,227629,1,0,0:0:0:0:
36,192,227629,1,0,0:0:0:0:
329,192,227746,1,0,0:0:0:0:
475,192,227863,128,0,228098:0:0:0:0:
182,192,227863,1,0,0:0:0:0:
402,192,228098,1,0,0:0:0:0:
109,192,228098,1,0,0:0:0:0:
256,192,228098,1,0,0:0:0:0:
36,192,228333,128,0,228567:0:0:0:0:
182,192,228333,1,0,0:0:0:0:
329,192,228333,1,0,0:0:0:0:
256,192,228567,1,0,0:0:0:0:
402,192,228567,1,0,0:0:0:0:
109,192,228567,1,0,0:0:0:0:
329,192,228802,1,0,0:0:0:0:
182,192,228919,1,0,0:0:0:0:
256,192,229036,1,0,0:0:0:0:
402,192,229036,128,0,229271:0:0:0:0:
329,192,229271,1,0,0:0:0:0:
402,192,229388,1,0,0:0:0:0:
475,192,229505,1,0,0:0:0:0:
256,192,229505,1,0,0:0:0:0:
36,192,229505,1,0,0:0:0:0:
329,192,229740,1,0,0:0:0:0:
402,192,229857,128,0,230092:0:0:0:0:
36,192,229975,1,0,0:0:0:0:
182,192,229975,1,0,0:0:0:0:
402,192,230209,128,0,230444:0:0:0:0:
182,192,230209,1,0,0:0:0:0:
109,192,230326,1,0,0:0:0:0:
182,192,230444,128,0,230678:0:0:0:0:
36,192,230444,1,0,0:0:0:0:
329,192,230444,1,0,0:0:0:0:
256,192,230444,1,0,0:0:0:0:
109,192,230561,1,0,0:0:0:0:
36,192,230678,1,0,0:0:0:0:
256,192,230678,1,0,0:0:0:0:
329,192,230678,1,0,0:0:0:0:
109,192,230796,1,0,0:0:0:0:
402,192,230796,1,0,0:0:0:0:
36,192,230913,1,0,0:0:0:0:
475,192,230913,128,0,231147:0:0:0:0:
256,192,230913,1,0,0:0:0:0:
109,192,231147,1,0,0:0:0:0:
475,192,231265,1,0,0:0:0:0:
36,192,231265,1,0,0:0:0:0:
402,192,231382,1,0,0:0:0:0:
256,192,231382,1,0,0:0:0:0:
109,192,231382,1,0,0:0:0:0:
182,192,231499,1,0,0:0:0:0:
256,192,231617,1,0,0:0:0:0:
329,192,231734,128,0,231968:0:0:0:0:
182,192,231851,1,0,0:0:0:0:
36,192,231851,1,0,0:0:0:0:
329,192,232086,128,0,232320:0:0:0:0:
109,192,232086,1,0,0:0:0:0:
182,192,232203,1,0,0:0:0:0:
256,192,232320,1,0,0:0:0:0:
402,192,232320,1,0,0:0:0:0:
475,192,232320,1,0,0:0:0:0:
329,192,232555,1,0,0:0:0:0:
256,192,232672,1,0,0:0:0:0:
182,192,232789,1,0,0:0:0:0:
329,192,232789,1,0,0:0:0:0:
36,192,232789,128,0,236543:0:0:0:0:
475,192,232789,128,0,233024:0:0:0:0:
402,192,233024,1,0,0:0:0:0:
182,192,233259,1,0,0:0:0:0:
329,192,233259,1,0,0:0:0:0:
109,192,233259,1,0,0:0:0:0:
109,192,233493,1,0,0:0:0:0:
182,192,233493,1,0,0:0:0:0:
402,192,233493,128,0,233962:0:0:0:0:
256,192,233728,1,0,0:0:0:0:
329,192,233962,1,0,0:0:0:0:
475,192,233962,1,0,0:0:0:0:
182,192,233962,1,0,0:0:0:0:
109,192,234197,1,0,0:0:0:0:
256,192,234197,1,0,0:0:0:0:
402,192,234197,1,0,0:0:0:0:
329,192,234432,1,0,0:0:0:0:
475,192,234432,1,0,0:0:0:0:
182,192,234432,128,0,234901:0:0:0:0:
402,192,234666,1,0,0:0:0:0:
329,192,234901,1,0,0:0:0:0:
475,192,234901,1,0,0:0:0:0:
402,192,235018,1,0,0:0:0:0:
256,192,235018,1,0,0:0:0:0:
329,192,235077,1,0,0:0:0:0:
182,192,235077,1,0,0:0:0:0:
109,192,235135,1,0,0:0:0:0:
256,192,235135,1,0,0:0:0:0:
182,192,235253,1,0,0:0:0:0:
256,192,235370,1,0,0:0:0:0:
402,192,235370,1,0,0:0:0:0:
109,192,235370,1,0,0:0:0:0:
182,192,235604,1,0,0:0:0:0:
475,192,235604,1,0,0:0:0:0:
329,192,235604,1,0,0:0:0:0:
402,192,235722,1,0,0:0:0:0:
256,192,235722,1,0,0:0:0:0:
329,192,235839,1,0,0:0:0:0:
182,192,235839,1,0,0:0:0:0:
256,192,235956,1,0,0:0:0:0:
109,192,235956,1,0,0:0:0:0:
475,192,236074,128,0,236543:0:0:0:0:
402,192,236074,1,0,0:0:0:0:
182,192,236074,1,0,0:0:0:0:
329,192,236191,1,0,0:0:0:0:
256,192,236191,1,0,0:0:0:0:
402,192,236308,1,0,0:0:0:0:
329,192,236367,1,0,0:0:0:0:
256,192,236425,1,0,0:0:0:0:
182,192,236484,1,0,0:0:0:0:
402,192,236543,1,0,0:0:0:0:
329,192,236543,1,0,0:0:0:0:
256,192,236543,1,0,0:0:0:0:
109,192,236543,128,0,236777:0:0:0:0:
182,192,236777,1,0,0:0:0:0:
329,192,236895,1,0,0:0:0:0:
182,192,237012,1,0,0:0:0:0:
475,192,237012,1,0,0:0:0:0:
329,192,237129,1,0,0:0:0:0:
182,192,237246,1,0,0:0:0:0:
329,192,237364,1,0,0:0:0:0:
182,192,237481,1,0,0:0:0:0:
402,192,237481,1,0,0:0:0:0:
256,192,237716,1,0,0:0:0:0:
109,192,237716,1,0,0:0:0:0:
182,192,237950,1,0,0:0:0:0:
329,192,237950,1,0,0:0:0:0:
475,192,237950,1,0,0:0:0:0:
402,192,238185,1,0,0:0:0:0:
109,192,238185,1,0,0:0:0:0:
329,192,238302,1,0,0:0:0:0:
256,192,238419,1,0,0:0:0:0:
475,192,238419,1,0,0:0:0:0:
36,192,238419,128,0,238654:0:0:0:0:
109,192,238654,1,0,0:0:0:0:
402,192,238771,1,0,0:0:0:0:
109,192,238888,1,0,0:0:0:0:
256,192,238888,1,0,0:0:0:0:
182,192,238888,1,0,0:0:0:0:
475,192,238888,1,0,0:0:0:0:
402,192,239006,1,0,0:0:0:0:
109,192,239123,1,0,0:0:0:0:
329,192,239123,1,0,0:0:0:0:
402,192,239240,1,0,0:0:0:0:
109,192,239358,1,0,0:0:0:0:
256,192,239358,1,0,0:0:0:0:
475,192,239358,1,0,0:0:0:0:
402,192,239475,1,0,0:0:0:0:
329,192,239592,1,0,0:0:0:0:
182,192,239592,1,0,0:0:0:0:
256,192,239709,1,0,0:0:0:0:
182,192,239827,1,0,0:0:0:0:
475,192,239827,1,0,0:0:0:0:
36,192,239827,1,0,0:0:0:0:
109,192,239827,128,0,240061:0:0:0:0:
329,192,240061,1,0,0:0:0:0:
402,192,240061,128,0,240296:0:0:0:0:
182,192,240296,128,0,240531:0:0:0:0:
36,192,240296,1,0,0:0:0:0:
475,192,240296,1,0,0:0:0:0:
329,192,240531,1,0,0:0:0:0:
402,192,240648,1,0,0:0:0:0:
475,192,240765,1,0,0:0:0:0:
329,192,240765,1,0,0:0:0:0:
109,192,240765,1,0,0:0:0:0:
402,192,240882,1,0,0:0:0:0:
36,192,240882,1,0,0:0:0:0:
329,192,241000,1,0,0:0:0:0:
109,192,241000,1,0,0:0:0:0:
256,192,241117,1,0,0:0:0:0:
182,192,241234,1,0,0:0:0:0:
329,192,241234,1,0,0:0:0:0:
256,192,241469,1,0,0:0:0:0:
329,192,241586,1,0,0:0:0:0:
402,192,241703,1,0,0:0:0:0:
256,192,241703,1,0,0:0:0:0:
109,192,241703,1,0,0:0:0:0:
182,192,241938,1,0,0:0:0:0:
256,192,242055,1,0,0:0:0:0:
329,192,242173,128,0,242407:0:0:0:0:
36,192,242173,1,0,0:0:0:0:
109,192,242173,1,0,0:0:0:0:
475,192,242407,1,0,0:0:0:0:
402,192,242524,1,0,0:0:0:0:
329,192,242642,1,0,0:0:0:0:
256,192,242642,1,0,0:0:0:0:
182,192,242642,1,0,0:0:0:0:
475,192,242876,1,0,0:0:0:0:
109,192,242876,1,0,0:0:0:0:
475,192,243111,1,0,0:0:0:0:
36,192,243111,1,0,0:0:0:0:
182,192,243111,1,0,0:0:0:0:
109,192,243345,1,0,0:0:0:0:
256,192,243345,1,0,0:0:0:0:
329,192,243463,1,0,0:0:0:0:
402,192,243580,1,0,0:0:0:0:
182,192,243580,1,0,0:0:0:0:
36,192,243580,1,0,0:0:0:0:
475,192,243815,1,0,0:0:0:0:
402,192,243932,1,0,0:0:0:0:
329,192,244049,1,0,0:0:0:0:
182,192,244049,1,0,0:0:0:0:
36,192,244049,128,0,244284:0:0:0:0:
109,192,244284,1,0,0:0:0:0:
182,192,244401,1,0,0:0:0:0:
256,192,244518,1,0,0:0:0:0:
402,192,244518,1,0,0:0:0:0:
475,192,244518,1,0,0:0:0:0:
329,192,244753,1,0,0:0:0:0:
402,192,244870,128,0,245105:0:0:0:0:
182,192,244987,1,0,0:0:0:0:
36,192,244987,1,0,0:0:0:0:
402,192,245222,1,0,0:0:0:0:
109,192,245222,1,0,0:0:0:0:
36,192,245457,1,0,0:0:0:0:
182,192,245457,1,0,0:0:0:0:
329,192,245457,1,0,0:0:0:0:
109,192,245691,1,0,0:0:0:0:
256,192,245808,1,0,0:0:0:0:
402,192,245926,1,0,0:0:0:0:
475,192,245926,128,0,246160:0:0:0:0:
329,192,246160,1,0,0:0:0:0:
256,192,246278,1,0,0:0:0:0:
475,192,246278,1,0,0:0:0:0:
182,192,246395,1,0,0:0:0:0:
402,192,246395,1,0,0:0:0:0:
36,192,246395,1,0,0:0:0:0:
256,192,246512,1,0,0:0:0:0:
109,192,246512,1,0,0:0:0:0:
329,192,246629,1,0,0:0:0:0:
182,192,246629,1,0,0:0:0:0:
402,192,246747,128,0,246981:0:0:0:0:
402,192,247099,128,0,247333:0:0:0:0:
329,192,247333,1,0,0:0:0:0:
36,192,247333,1,0,0:0:0:0:
475,192,247333,1,0,0:0:0:0:
256,192,247392,1,0,0:0:0:0:
182,192,247451,1,0,0:0:0:0:
109,192,247509,1,0,0:0:0:0:
36,192,247568,1,0,0:0:0:0:
109,192,247685,1,0,0:0:0:0:
182,192,247802,1,0,0:0:0:0:
329,192,247802,1,0,0:0:0:0:
475,192,247802,128,0,251556:0:0:0:0:
109,192,248037,1,0,0:0:0:0:
256,192,248037,1,0,0:0:0:0:
182,192,248272,1,0,0:0:0:0:
329,192,248272,1,0,0:0:0:0:
36,192,248272,1,0,0:0:0:0:
109,192,248506,1,0,0:0:0:0:
256,192,248506,1,0,0:0:0:0:
402,192,248506,1,0,0:0:0:0:
329,192,248741,1,0,0:0:0:0:
256,192,248975,1,0,0:0:0:0:
402,192,248975,1,0,0:0:0:0:
109,192,248975,1,0,0:0:0:0:
182,192,249210,1,0,0:0:0:0:
329,192,249210,1,0,0:0:0:0:
36,192,249210,1,0,0:0:0:0:
109,192,249444,1,0,0:0:0:0:
256,192,249444,1,0,0:0:0:0:
402,192,249444,1,0,0:0:0:0:
329,192,249679,1,0,0:0:0:0:
402,192,249914,1,0,0:0:0:0:
256,192,249914,1,0,0:0:0:0:
109,192,249914,1,0,0:0:0:0:
329,192,250031,1,0,0:0:0:0:
182,192,250031,1,0,0:0:0:0:
256,192,250089,1,0,0:0:0:0:
109,192,250089,1,0,0:0:0:0:
182,192,250148,1,0,0:0:0:0:
36,192,250148,1,0,0:0:0:0:
109,192,250265,1,0,0:0:0:0:
36,192,250383,1,0,0:0:0:0:
182,192,250383,1,0,0:0:0:0:
329,192,250383,1,0,0:0:0:0:
402,192,250617,128,0,251086:0:0:0:0:
329,192,250617,1,0,0:0:0:0:
182,192,250617,1,0,0:0:0:0:
256,192,250735,1,0,0:0:0:0:
109,192,250735,1,0,0:0:0:0:
182,192,250852,1,0,0:0:0:0:
36,192,250852,1,0,0:0:0:0:
109,192,250911,1,0,0:0:0:0:
182,192,250969,1,0,0:0:0:0:
256,192,251028,1,0,0:0:0:0:
329,192,251086,1,0,0:0:0:0:
36,192,251086,1,0,0:0:0:0:
182,192,251086,1,0,0:0:0:0:
182,192,251204,1,0,0:0:0:0:
329,192,251204,1,0,0:0:0:0:
36,192,251204,1,0,0:0:0:0:
256,192,251321,1,0,0:0:0:0:
109,192,251321,1,0,0:0:0:0:
329,192,251556,1,0,0:0:0:0:
182,192,251556,1,0,0:0:0:0:
36,192,251556,1,0,0:0:0:0:
402,192,251556,128,0,253432:0:0:0:0:
475,192,252025,128,0,252494:0:0:0:0:
329,192,252494,128,0,252728:0:0:0:0:
36,192,252670,128,0,252963:0:0:0:0:
109,192,252728,1,0,0:0:0:0:
182,192,252846,1,0,0:0:0:0:
256,192,252963,1,0,0:0:0:0:
109,192,252963,1,0,0:0:0:0:
475,192,252963,128,0,253198:0:0:0:0:
329,192,253198,1,0,0:0:0:0:
256,192,253315,1,0,0:0:0:0:
182,192,253432,1,0,0:0:0:0:
36,192,253432,128,0,253667:0:0:0:0:
109,192,253667,128,0,253901:0:0:0:0:
329,192,253901,1,0,0:0:0:0:
182,192,253901,128,0,254136:0:0:0:0:
475,192,253901,1,0,0:0:0:0:
256,192,254136,128,0,255309:0:0:0:0:
475,192,254136,1,0,0:0:0:0:
329,192,254253,1,0,0:0:0:0:
402,192,254371,128,0,254605:0:0:0:0:
475,192,254605,128,0,254840:0:0:0:0:
329,192,254840,128,0,255074:0:0:0:0:
182,192,254840,1,0,0:0:0:0:
36,192,254840,1,0,0:0:0:0:
402,192,255074,128,0,255309:0:0:0:0:
109,192,255309,128,0,258593:0:0:0:0:
182,192,255309,1,0,0:0:0:0:
36,192,255309,128,0,255543:0:0:0:0:
329,192,255543,1,0,0:0:0:0:
182,192,255543,128,0,255778:0:0:0:0:
402,192,255778,1,0,0:0:0:0:
475,192,255778,1,0,0:0:0:0:
256,192,255778,128,0,256013:0:0:0:0:
329,192,256013,128,0,256247:0:0:0:0:
182,192,256247,128,0,256482:0:0:0:0:
402,192,256247,1,0,0:0:0:0:
256,192,256482,128,0,256716:0:0:0:0:
329,192,256716,128,0,256951:0:0:0:0:
475,192,256716,1,0,0:0:0:0:
36,192,256716,1,0,0:0:0:0:
402,192,256951,128,0,257185:0:0:0:0:
256,192,257185,128,0,257420:0:0:0:0:
36,192,257185,1,0,0:0:0:0:
329,192,257420,128,0,257655:0:0:0:0:
36,192,257420,1,0,0:0:0:0:
402,192,257655,128,0,257889:0:0:0:0:
182,192,257655,1,0,0:0:0:0:
475,192,257889,128,0,258358:0:0:0:0:
329,192,258358,128,0,258593:0:0:0:0:
36,192,258593,1,0,0:0:0:0:
475,192,258593,128,0,258827:0:0:0:0:
182,192,258593,1,0,0:0:0:0:
402,192,258827,128,0,259062:0:0:0:0:
256,192,259062,1,0,0:0:0:0:
329,192,259062,1,0,0:0:0:0:
36,192,259062,128,0,262815:0:0:0:0:
109,192,259062,128,0,259297:0:0:0:0:
182,192,259297,128,0,259531:0:0:0:0:
402,192,259531,1,0,0:0:0:0:
475,192,259531,1,0,0:0:0:0:
256,192,259531,128,0,259766:0:0:0:0:
109,192,259766,128,0,260000:0:0:0:0:
182,192,260000,128,0,260235:0:0:0:0:
109,192,260235,128,0,260470:0:0:0:0:
256,192,260470,128,0,260704:0:0:0:0:
329,192,260470,1,0,0:0:0:0:
475,192,260470,1,0,0:0:0:0:
402,192,260704,128,0,260939:0:0:0:0:
475,192,260939,128,0,261173:0:0:0:0:
256,192,261173,128,0,261408:0:0:0:0:
329,192,261408,128,0,261642:0:0:0:0:
109,192,261408,1,0,0:0:0:0:
402,192,261642,128,0,262112:0:0:0:0:
109,192,261642,1,0,0:0:0:0:
182,192,262112,128,0,262346:0:0:0:0:
256,192,262346,128,0,262581:0:0:0:0:
109,192,262346,1,0,0:0:0:0:
475,192,262346,1,0,0:0:0:0:
329,192,262581,1,0,0:0:0:0:
182,192,262581,128,0,262815:0:0:0:0:
402,192,262698,1,0,0:0:0:0:
109,192,262815,1,0,0:0:0:0:
329,192,262815,1,0,0:0:0:0:
475,192,262815,128,0,266569:0:0:0:0:
109,192,263050,1,0,0:0:0:0:
329,192,263050,1,0,0:0:0:0:
182,192,263284,1,0,0:0:0:0:
256,192,263284,1,0,0:0:0:0:
329,192,263402,1,0,0:0:0:0:
109,192,263402,1,0,0:0:0:0:
182,192,263519,1,0,0:0:0:0:
256,192,263519,1,0,0:0:0:0:
36,192,263754,1,0,0:0:0:0:
402,192,263754,128,0,263988:0:0:0:0:
256,192,263754,1,0,0:0:0:0:
182,192,263988,1,0,0:0:0:0:
329,192,263988,1,0,0:0:0:0:
36,192,263988,128,0,264223:0:0:0:0:
256,192,264105,1,0,0:0:0:0:
182,192,264223,1,0,0:0:0:0:
329,192,264223,1,0,0:0:0:0:
109,192,264223,128,0,264457:0:0:0:0:
256,192,264340,1,0,0:0:0:0:
182,192,264457,1,0,0:0:0:0:
329,192,264457,1,0,0:0:0:0:
402,192,264457,128,0,264692:0:0:0:0:
36,192,264692,1,0,0:0:0:0:
182,192,264692,1,0,0:0:0:0:
109,192,264809,1,0,0:0:0:0:
256,192,264809,1,0,0:0:0:0:
182,192,264926,1,0,0:0:0:0:
329,192,264926,1,0,0:0:0:0:
256,192,265044,1,0,0:0:0:0:
402,192,265044,1,0,0:0:0:0:
329,192,265102,1,0,0:0:0:0:
182,192,265102,1,0,0:0:0:0:
256,192,265161,1,0,0:0:0:0:
109,192,265161,1,0,0:0:0:0:
402,192,265161,1,0,0:0:0:0:
182,192,265278,1,0,0:0:0:0:
36,192,265278,1,0,0:0:0:0:
109,192,265396,1,0,0:0:0:0:
256,192,265396,1,0,0:0:0:0:
182,192,265513,1,0,0:0:0:0:
329,192,265513,1,0,0:0:0:0:
109,192,265630,128,0,266569:0:0:0:0:
256,192,265630,1,0,0:0:0:0:
402,192,265630,1,0,0:0:0:0:
182,192,265747,1,0,0:0:0:0:
329,192,265865,128,0,266099:0:0:0:0:
256,192,265865,1,0,0:0:0:0:
402,192,265865,1,0,0:0:0:0:
36,192,266099,128,0,266334:0:0:0:0:
402,192,266099,128,0,266334:0:0:0:0:
182,192,266099,1,0,0:0:0:0:
256,192,266217,1,0,0:0:0:0:
329,192,266334,1,0,0:0:0:0:
182,192,266334,128,0,266569:0:0:0:0:
329,192,266569,1,0,0:0:0:0:
256,192,266569,1,0,0:0:0:0:
402,192,266569,1,0,0:0:0:0:
36,192,266569,128,0,266803:0:0:0:0:
402,192,266803,1,0,0:0:0:0:
109,192,266862,128,0,267038:0:0:0:0:
182,192,266920,1,0,0:0:0:0:
256,192,267038,1,0,0:0:0:0:
329,192,267038,1,0,0:0:0:0:
475,192,267038,1,0,0:0:0:0:
36,192,267038,128,0,267272:0:0:0:0:
402,192,267272,1,0,0:0:0:0:
109,192,267272,128,0,267507:0:0:0:0:
329,192,267390,1,0,0:0:0:0:
256,192,267507,1,0,0:0:0:0:
182,192,267507,1,0,0:0:0:0:
402,192,267507,128,0,267741:0:0:0:0:
329,192,267741,128,0,267976:0:0:0:0:
109,192,267741,1,0,0:0:0:0:
402,192,267976,128,0,268211:0:0:0:0:
36,192,267976,1,0,0:0:0:0:
182,192,267976,1,0,0:0:0:0:
256,192,267976,1,0,0:0:0:0:
475,192,268211,128,0,268445:0:0:0:0:
109,192,268211,1,0,0:0:0:0:
182,192,268328,1,0,0:0:0:0:
256,192,268445,1,0,0:0:0:0:
329,192,268445,1,0,0:0:0:0:
36,192,268445,128,0,268680:0:0:0:0:
109,192,268680,128,0,268914:0:0:0:0:
402,192,268680,1,0,0:0:0:0:
182,192,268680,1,0,0:0:0:0:
256,192,268797,1,0,0:0:0:0:
36,192,268914,128,0,269149:0:0:0:0:
475,192,268914,1,0,0:0:0:0:
182,192,268914,1,0,0:0:0:0:
329,192,268914,1,0,0:0:0:0:
109,192,269149,128,0,269383:0:0:0:0:
256,192,269149,1,0,0:0:0:0:
402,192,269149,1,0,0:0:0:0:
329,192,269266,1,0,0:0:0:0:
256,192,269383,1,0,0:0:0:0:
182,192,269383,1,0,0:0:0:0:
475,192,269383,128,0,269618:0:0:0:0:
402,192,269618,1,0,0:0:0:0:
36,192,269618,128,0,269853:0:0:0:0:
329,192,269853,1,0,0:0:0:0:
182,192,269853,1,0,0:0:0:0:
475,192,269853,1,0,0:0:0:0:
109,192,269853,128,0,270087:0:0:0:0:
182,192,270087,128,0,270322:0:0:0:0:
256,192,270087,1,0,0:0:0:0:
402,192,270087,1,0,0:0:0:0:
329,192,270204,1,0,0:0:0:0:
256,192,270322,1,0,0:0:0:0:
402,192,270322,1,0,0:0:0:0:
475,192,270322,128,0,270556:0:0:0:0:
256,192,270556,128,0,270791:0:0:0:0:
109,192,270556,1,0,0:0:0:0:
475,192,270791,128,0,271025:0:0:0:0:
36,192,270791,1,0,0:0:0:0:
182,192,270791,1,0,0:0:0:0:
402,192,270791,1,0,0:0:0:0:
256,192,271025,128,0,271260:0:0:0:0:
109,192,271025,1,0,0:0:0:0:
109,192,271143,1,0,0:0:0:0:
475,192,271260,128,0,271495:0:0:0:0:
36,192,271260,1,0,0:0:0:0:
182,192,271260,1,0,0:0:0:0:
256,192,271495,128,0,271729:0:0:0:0:
109,192,271495,1,0,0:0:0:0:
475,192,271729,128,0,271964:0:0:0:0:
329,192,271729,1,0,0:0:0:0:
182,192,271729,1,0,0:0:0:0:
36,192,271729,1,0,0:0:0:0:
256,192,271964,128,0,272198:0:0:0:0:
109,192,271964,1,0,0:0:0:0:
182,192,272081,1,0,0:0:0:0:
36,192,272198,1,0,0:0:0:0:
109,192,272198,1,0,0:0:0:0:
402,192,272198,128,0,272433:0:0:0:0:
182,192,272433,128,0,272667:0:0:0:0:
36,192,272433,1,0,0:0:0:0:
109,192,272433,1,0,0:0:0:0:
256,192,272667,128,0,272902:0:0:0:0:
36,192,272667,1,0,0:0:0:0:
109,192,272667,1,0,0:0:0:0:
475,192,272667,1,0,0:0:0:0:
329,192,272902,128,0,273137:0:0:0:0:
475,192,272902,1,0,0:0:0:0:
475,192,273137,1,0,0:0:0:0:
402,192,273137,1,0,0:0:0:0:
36,192,273371,128,0,273606:0:0:0:0:
329,192,273371,1,0,0:0:0:0:
329,192,273489,1,0,0:0:0:0:
109,192,273606,128,0,273840:0:0:0:0:
256,192,273606,1,0,0:0:0:0:
475,192,273606,1,0,0:0:0:0:
402,192,273606,1,0,0:0:0:0:
182,192,273840,128,0,274075:0:0:0:0:
329,192,273840,1,0,0:0:0:0:
402,192,273958,1,0,0:0:0:0:
475,192,274075,1,0,0:0:0:0:
329,192,274075,1,0,0:0:0:0:
256,192,274075,1,0,0:0:0:0:
36,192,274075,128,0,274544:0:0:0:0:
402,192,274310,1,0,0:0:0:0:
329,192,274427,1,0,0:0:0:0:
256,192,274544,1,0,0:0:0:0:
109,192,274544,1,0,0:0:0:0:
402,192,274544,1,0,0:0:0:0:
182,192,274779,1,0,0:0:0:0:
329,192,274779,1,0,0:0:0:0:
256,192,274896,1,0,0:0:0:0:
329,192,275013,1,0,0:0:0:0:
109,192,275013,1,0,0:0:0:0:
475,192,275013,128,0,275248:0:0:0:0:
256,192,275131,1,0,0:0:0:0:
36,192,275131,1,0,0:0:0:0:
182,192,275248,1,0,0:0:0:0:
109,192,275248,1,0,0:0:0:0:
402,192,275248,128,0,275482:0:0:0:0:
329,192,275482,128,0,275717:0:0:0:0:
36,192,275482,1,0,0:0:0:0:
109,192,275482,1,0,0:0:0:0:
182,192,275482,1,0,0:0:0:0:
256,192,275717,128,0,275952:0:0:0:0:
36,192,275717,1,0,0:0:0:0:
109,192,275834,1,0,0:0:0:0:
182,192,275952,1,0,0:0:0:0:
475,192,275952,1,0,0:0:0:0:
36,192,275952,128,0,276186:0:0:0:0:
402,192,276069,1,0,0:0:0:0:
109,192,276186,128,0,276421:0:0:0:0:
329,192,276186,1,0,0:0:0:0:
475,192,276186,1,0,0:0:0:0:
182,192,276421,128,0,276655:0:0:0:0:
475,192,276421,1,0,0:0:0:0:
329,192,276421,1,0,0:0:0:0:
402,192,276421,1,0,0:0:0:0:
256,192,276655,128,0,276890:0:0:0:0:
475,192,276655,1,0,0:0:0:0:
329,192,276890,128,0,277124:0:0:0:0:
475,192,276890,1,0,0:0:0:0:
36,192,276890,1,0,0:0:0:0:
256,192,277124,128,0,277359:0:0:0:0:
36,192,277124,1,0,0:0:0:0:
475,192,277124,1,0,0:0:0:0:
109,192,277359,128,0,277594:0:0:0:0:
36,192,277359,1,0,0:0:0:0:
475,192,277359,1,0,0:0:0:0:
402,192,277359,1,0,0:0:0:0:
182,192,277594,128,0,277828:0:0:0:0:
402,192,277594,1,0,0:0:0:0:
36,192,277594,1,0,0:0:0:0:
329,192,277828,1,0,0:0:0:0:
256,192,277828,1,0,0:0:0:0:
475,192,277828,1,0,0:0:0:0:
36,192,277828,128,0,278766:0:0:0:0:
402,192,278063,1,0,0:0:0:0:
109,192,278297,128,0,278532:0:0:0:0:
256,192,278297,1,0,0:0:0:0:
475,192,278297,1,0,0:0:0:0:
182,192,278532,128,0,278766:0:0:0:0:
402,192,278532,1,0,0:0:0:0:
329,192,278649,1,0,0:0:0:0:
256,192,278766,1,0,0:0:0:0:
475,192,278766,1,0,0:0:0:0:
109,192,278766,128,0,279001:0:0:0:0:
36,192,279001,128,0,279236:0:0:0:0:
402,192,279001,1,0,0:0:0:0:
256,192,279001,1,0,0:0:0:0:
109,192,279236,128,0,279470:0:0:0:0:
256,192,279236,1,0,0:0:0:0:
329,192,279236,1,0,0:0:0:0:
475,192,279236,1,0,0:0:0:0:
182,192,279470,128,0,279705:0:0:0:0:
402,192,279470,1,0,0:0:0:0:
256,192,279470,1,0,0:0:0:0:
475,192,279588,1,0,0:0:0:0:
402,192,279705,128,0,279939:0:0:0:0:
36,192,279705,1,0,0:0:0:0:
329,192,279705,1,0,0:0:0:0:
109,192,279822,1,0,0:0:0:0:
256,192,279822,1,0,0:0:0:0:
329,192,279939,128,0,280174:0:0:0:0:
182,192,279939,1,0,0:0:0:0:
36,192,279939,1,0,0:0:0:0:
109,192,280057,1,0,0:0:0:0:
256,192,280057,1,0,0:0:0:0:
402,192,280174,128,0,280409:0:0:0:0:
182,192,280174,1,0,0:0:0:0:
36,192,280174,1,0,0:0:0:0:
109,192,280291,1,0,0:0:0:0:
256,192,280291,1,0,0:0:0:0:
475,192,280409,1,0,0:0:0:0:
182,192,280409,1,0,0:0:0:0:
36,192,280409,1,0,0:0:0:0:
329,192,280526,1,0,0:0:0:0:
256,192,280526,1,0,0:0:0:0:
109,192,280526,1,0,0:0:0:0:
402,192,280643,128,0,280878:0:0:0:0:
182,192,280643,1,0,0:0:0:0:
475,192,280643,1,0,0:0:0:0:
36,192,280643,128,0,281347:0:0:0:0:
256,192,280760,1,0,0:0:0:0:
109,192,280760,1,0,0:0:0:0:
329,192,280878,128,0,281112:0:0:0:0:
182,192,280878,1,0,0:0:0:0:
475,192,280878,1,0,0:0:0:0:
256,192,280995,1,0,0:0:0:0:
109,192,280995,1,0,0:0:0:0:
402,192,281112,128,0,281347:0:0:0:0:
475,192,281112,1,0,0:0:0:0:
182,192,281112,1,0,0:0:0:0:
256,192,281230,1,0,0:0:0:0:
109,192,281230,1,0,0:0:0:0:
475,192,281347,128,0,281581:0:0:0:0:
182,192,281347,1,0,0:0:0:0:
329,192,281347,1,0,0:0:0:0:
475,192,282051,1,0,0:0:0:0:
329,192,282051,1,0,0:0:0:0:
182,192,282051,1,0,0:0:0:0:
36,192,282051,128,0,290026:0:0:0:0:
109,192,282520,1,0,0:0:0:0:
256,192,282637,1,0,0:0:0:0:
329,192,282754,1,0,0:0:0:0:
402,192,282872,1,0,0:0:0:0:
475,192,282989,1,0,0:0:0:0:
402,192,283106,1,0,0:0:0:0:
475,192,283223,1,0,0:0:0:0:
402,192,283341,1,0,0:0:0:0:
329,192,283458,1,0,0:0:0:0:
256,192,283575,1,0,0:0:0:0:
329,192,283693,1,0,0:0:0:0:
256,192,283810,1,0,0:0:0:0:
182,192,283927,1,0,0:0:0:0:
109,192,284044,1,0,0:0:0:0:
182,192,284162,1,0,0:0:0:0:
109,192,284279,1,0,0:0:0:0:
182,192,284396,1,0,0:0:0:0:
256,192,284514,1,0,0:0:0:0:
182,192,284631,1,0,0:0:0:0:
256,192,284748,1,0,0:0:0:0:
329,192,284865,1,0,0:0:0:0:
256,192,284983,1,0,0:0:0:0:
329,192,285100,1,0,0:0:0:0:
256,192,285217,1,0,0:0:0:0:
329,192,285335,1,0,0:0:0:0:
256,192,285452,1,0,0:0:0:0:
182,192,285569,1,0,0:0:0:0:
109,192,285686,1,0,0:0:0:0:
256,192,285804,1,0,0:0:0:0:
182,192,285921,1,0,0:0:0:0:
109,192,286038,1,0,0:0:0:0:
182,192,286156,1,0,0:0:0:0:
109,192,286273,1,0,0:0:0:0:
182,192,286390,1,0,0:0:0:0:
256,192,286508,1,0,0:0:0:0:
329,192,286625,1,0,0:0:0:0:
182,192,286742,1,0,0:0:0:0:
256,192,286859,1,0,0:0:0:0:
329,192,286977,1,0,0:0:0:0:
402,192,287094,1,0,0:0:0:0:
475,192,287211,1,0,0:0:0:0:
402,192,287329,1,0,0:0:0:0:
475,192,287446,1,0,0:0:0:0:
402,192,287563,1,0,0:0:0:0:
329,192,287680,1,0,0:0:0:0:
256,192,287798,1,0,0:0:0:0:
329,192,287915,1,0,0:0:0:0:
256,192,288032,1,0,0:0:0:0:
182,192,288150,1,0,0:0:0:0:
109,192,288267,1,0,0:0:0:0:
182,192,288384,1,0,0:0:0:0:
109,192,288501,1,0,0:0:0:0:
402,192,288619,1,0,0:0:0:0:
329,192,288736,1,0,0:0:0:0:
402,192,288853,1,0,0:0:0:0:
329,192,288971,1,0,0:0:0:0:
256,192,289088,1,0,0:0:0:0:
182,192,289205,1,0,0:0:0:0:
256,192,289322,1,0,0:0:0:0:
182,192,289440,1,0,0:0:0:0:
109,192,289557,1,0,0:0:0:0:
182,192,289674,1,0,0:0:0:0:
109,192,289792,1,0,0:0:0:0:
182,192,289909,1,0,0:0:0:0:
109,192,290026,1,0,0:0:0:0:
