osu file format v14

[General]
AudioFilename: preparing for te shakedown_200705155_soundcloud.mp3
AudioLeadIn: 0
PreviewTime: 10350
Countdown: 0
SampleSet: None
StackLeniency: 0.2
Mode: 1
LetterboxInBreaks: 0
WidescreenStoryboard: 0

[Editor]
DistanceSpacing: 0.9
BeatDivisor: 2
GridSize: 32
TimelineZoom: 5.099998

[Metadata]
Title:preparing for te shakedown
TitleUnicode:preparing for te shakedown
Artist:yumyumyuumyy
ArtistUnicode:yumyumyuumyy
Creator:[Toy]
Version:this isnt firce force
Source:
Tags:
BeatmapID:712167
BeatmapSetID:316625

[Difficulty]
HPDrainRate:3
CircleSize:2
OverallDifficulty:10
ApproachRate:10
SliderMultiplier:1.4
SliderTickRate:1

[Events]
//Background and Video events
0,0,"patrick.jpg",0,0
//Break Periods
//Storyboard Layer 0 (Background)
//Storyboard Layer 1 (Fail)
//Storyboard Layer 2 (Pass)
//Storyboard Layer 3 (Foreground)
//Storyboard Sound Samples

[TimingPoints]
1440,297.029702970297,4,1,0,100,1,0

[HitObjects]
256,192,1440,5,8,0:0:0:0:
256,192,1514,1,0,0:0:0:0:
256,192,1551,1,0,0:0:0:0:
256,192,1588,1,8,0:0:0:0:
256,192,1662,1,0,0:0:0:0:
256,192,1699,1,0,0:0:0:0:
256,192,1737,1,8,0:0:0:0:
256,192,1811,1,0,0:0:0:0:
256,192,1848,1,0,0:0:0:0:
256,192,1885,1,8,0:0:0:0:
256,192,1959,1,0,0:0:0:0:
256,192,1996,1,0,0:0:0:0:
256,192,2034,1,8,0:0:0:0:
256,192,2108,1,0,0:0:0:0:
256,192,2145,1,0,0:0:0:0:
256,192,2182,1,8,0:0:0:0:
256,192,2256,1,0,0:0:0:0:
256,192,2293,1,0,0:0:0:0:
256,192,2331,1,8,0:0:0:0:
256,192,2405,1,0,0:0:0:0:
256,192,2442,1,0,0:0:0:0:
256,192,2479,1,8,0:0:0:0:
256,192,2553,1,0,0:0:0:0:
256,192,2590,1,0,0:0:0:0:
256,192,2628,1,8,0:0:0:0:
256,192,2665,1,0,0:0:0:0:
256,192,2702,1,0,0:0:0:0:
256,192,2739,1,0,0:0:0:0:
256,192,2776,1,8,0:0:0:0:
256,192,2850,1,0,0:0:0:0:
256,192,2887,1,0,0:0:0:0:
256,192,2925,1,8,0:0:0:0:
256,192,2962,1,0,0:0:0:0:
256,192,2999,1,0,0:0:0:0:
256,192,3036,1,0,0:0:0:0:
256,192,3073,1,8,0:0:0:0:
256,192,3147,1,0,0:0:0:0:
256,192,3184,1,0,0:0:0:0:
256,192,3222,1,8,0:0:0:0:
256,192,3259,1,0,0:0:0:0:
256,192,3296,1,0,0:0:0:0:
256,192,3333,1,0,0:0:0:0:
256,192,3370,1,8,0:0:0:0:
256,192,3444,1,0,0:0:0:0:
256,192,3481,1,0,0:0:0:0:
256,192,3519,1,8,0:0:0:0:
256,192,3556,1,0,0:0:0:0:
256,192,3593,1,0,0:0:0:0:
256,192,3630,1,0,0:0:0:0:
256,192,3667,1,8,0:0:0:0:
256,192,3741,1,0,0:0:0:0:
256,192,3778,1,0,0:0:0:0:
256,192,3816,1,8,0:0:0:0:
256,192,3853,1,0,0:0:0:0:
256,192,3890,1,0,0:0:0:0:
256,192,3927,1,0,0:0:0:0:
256,192,3964,1,8,0:0:0:0:
256,192,4001,1,0,0:0:0:0:
256,192,4038,1,0,0:0:0:0:
256,192,4075,1,0,0:0:0:0:
256,192,4113,1,8,0:0:0:0:
256,192,4187,1,0,0:0:0:0:
256,192,4224,1,0,0:0:0:0:
256,192,4261,1,8,0:0:0:0:
256,192,4335,1,0,0:0:0:0:
256,192,4372,1,0,0:0:0:0:
256,192,4410,1,8,0:0:0:0:
256,192,4447,1,0,0:0:0:0:
256,192,4484,1,0,0:0:0:0:
256,192,4521,1,0,0:0:0:0:
256,192,4558,1,8,0:0:0:0:
256,192,4595,1,0,0:0:0:0:
256,192,4632,1,0,0:0:0:0:
256,192,4669,1,0,0:0:0:0:
256,192,4707,1,8,0:0:0:0:
256,192,4781,1,0,0:0:0:0:
256,192,4818,1,0,0:0:0:0:
256,192,4855,1,8,0:0:0:0:
256,192,4929,1,0,0:0:0:0:
256,192,4966,1,0,0:0:0:0:
256,192,5004,1,8,0:0:0:0:
256,192,5041,1,0,0:0:0:0:
256,192,5078,1,0,0:0:0:0:
256,192,5115,1,0,0:0:0:0:
256,192,5152,1,8,0:0:0:0:
256,192,5190,1,0,0:0:0:0:
256,192,5226,1,0,0:0:0:0:
256,192,5263,1,0,0:0:0:0:
256,192,5301,1,8,0:0:0:0:
256,192,5338,1,0,0:0:0:0:
256,192,5375,1,0,0:0:0:0:
256,192,5412,1,0,0:0:0:0:
256,192,5449,1,8,0:0:0:0:
256,192,5487,1,0,0:0:0:0:
256,192,5523,1,0,0:0:0:0:
256,192,5560,1,0,0:0:0:0:
256,192,5598,1,8,0:0:0:0:
256,192,5635,1,0,0:0:0:0:
256,192,5672,1,0,0:0:0:0:
256,192,5709,1,0,0:0:0:0:
256,192,5746,1,8,0:0:0:0:
256,192,5784,1,0,0:0:0:0:
256,192,5820,1,0,0:0:0:0:
256,192,5857,1,0,0:0:0:0:
256,192,5895,1,8,0:0:0:0:
256,192,5932,1,0,0:0:0:0:
256,192,5969,1,0,0:0:0:0:
256,192,6006,1,0,0:0:0:0:
256,192,6043,1,8,0:0:0:0:
256,192,6081,1,0,0:0:0:0:
256,192,6117,1,0,0:0:0:0:
256,192,6154,1,0,0:0:0:0:
256,192,6192,1,8,0:0:0:0:
256,192,6241,1,0,0:0:0:0:
256,192,6266,1,0,0:0:0:0:
256,192,6291,1,8,0:0:0:0:
256,192,6340,1,0,0:0:0:0:
256,192,6365,1,0,0:0:0:0:
256,192,6390,1,8,0:0:0:0:
256,192,6440,1,0,0:0:0:0:
256,192,6464,1,0,0:0:0:0:
256,192,6489,1,8,0:0:0:0:
256,192,6538,1,0,0:0:0:0:
256,192,6563,1,0,0:0:0:0:
256,192,6588,1,8,0:0:0:0:
256,192,6637,1,0,0:0:0:0:
256,192,6662,1,0,0:0:0:0:
256,192,6687,1,8,0:0:0:0:
256,192,6737,1,0,0:0:0:0:
256,192,6761,1,0,0:0:0:0:
256,192,6786,1,8,0:0:0:0:
256,192,6835,1,0,0:0:0:0:
256,192,6860,1,0,0:0:0:0:
256,192,6885,1,8,0:0:0:0:
256,192,6934,1,0,0:0:0:0:
256,192,6959,1,0,0:0:0:0:
256,192,6984,1,8,0:0:0:0:
256,192,7034,1,0,0:0:0:0:
256,192,7058,1,0,0:0:0:0:
256,192,7083,1,8,0:0:0:0:
256,192,7132,1,0,0:0:0:0:
256,192,7157,1,0,0:0:0:0:
256,192,7182,1,8,0:0:0:0:
256,192,7231,1,0,0:0:0:0:
256,192,7256,1,0,0:0:0:0:
256,192,7281,1,8,0:0:0:0:
256,192,7331,1,0,0:0:0:0:
256,192,7355,1,0,0:0:0:0:
256,192,7380,1,8,0:0:0:0:
256,192,7405,1,0,0:0:0:0:
256,192,7429,1,0,0:0:0:0:
256,192,7454,1,0,0:0:0:0:
256,192,7479,1,8,0:0:0:0:
256,192,7528,1,0,0:0:0:0:
256,192,7553,1,0,0:0:0:0:
256,192,7578,1,8,0:0:0:0:
256,192,7603,1,0,0:0:0:0:
256,192,7628,1,0,0:0:0:0:
256,192,7652,1,0,0:0:0:0:
256,192,7677,1,8,0:0:0:0:
256,192,7726,1,0,0:0:0:0:
256,192,7751,1,0,0:0:0:0:
256,192,7776,1,8,0:0:0:0:
256,192,7801,1,0,0:0:0:0:
256,192,7825,1,0,0:0:0:0:
256,192,7850,1,0,0:0:0:0:
256,192,7875,1,8,0:0:0:0:
256,192,7925,1,0,0:0:0:0:
256,192,7949,1,0,0:0:0:0:
256,192,7974,1,8,0:0:0:0:
256,192,7999,1,0,0:0:0:0:
256,192,8023,1,0,0:0:0:0:
256,192,8048,1,0,0:0:0:0:
256,192,8073,1,8,0:0:0:0:
256,192,8122,1,0,0:0:0:0:
256,192,8147,1,0,0:0:0:0:
256,192,8172,1,8,0:0:0:0:
256,192,8197,1,0,0:0:0:0:
256,192,8222,1,0,0:0:0:0:
256,192,8246,1,0,0:0:0:0:
256,192,8271,1,8,0:0:0:0:
256,192,8296,1,0,0:0:0:0:
256,192,8320,1,0,0:0:0:0:
256,192,8345,1,0,0:0:0:0:
256,192,8370,1,8,0:0:0:0:
256,192,8419,1,0,0:0:0:0:
256,192,8444,1,0,0:0:0:0:
256,192,8469,1,8,0:0:0:0:
256,192,8519,1,0,0:0:0:0:
256,192,8543,1,0,0:0:0:0:
256,192,8568,1,8,0:0:0:0:
256,192,8593,1,0,0:0:0:0:
256,192,8617,1,0,0:0:0:0:
256,192,8642,1,0,0:0:0:0:
256,192,8667,1,8,0:0:0:0:
256,192,8692,1,0,0:0:0:0:
256,192,8716,1,0,0:0:0:0:
256,192,8741,1,0,0:0:0:0:
256,192,8766,1,8,0:0:0:0:
256,192,8816,1,0,0:0:0:0:
256,192,8840,1,0,0:0:0:0:
256,192,8865,1,8,0:0:0:0:
256,192,8914,1,0,0:0:0:0:
256,192,8939,1,0,0:0:0:0:
256,192,8964,1,8,0:0:0:0:
256,192,8989,1,0,0:0:0:0:
256,192,9013,1,0,0:0:0:0:
256,192,9038,1,0,0:0:0:0:
256,192,9063,1,8,0:0:0:0:
256,192,9113,1,0,0:0:0:0:
256,192,9137,1,0,0:0:0:0:
256,192,9162,1,8,0:0:0:0:
256,192,9211,1,0,0:0:0:0:
256,192,9236,1,0,0:0:0:0:
256,192,9261,1,8,0:0:0:0:
256,192,9286,1,0,0:0:0:0:
256,192,9310,1,0,0:0:0:0:
256,192,9335,1,0,0:0:0:0:
256,192,9360,1,8,0:0:0:0:
256,192,9410,1,0,0:0:0:0:
256,192,9434,1,0,0:0:0:0:
256,192,9459,1,8,0:0:0:0:
256,192,9508,1,0,0:0:0:0:
256,192,9533,1,0,0:0:0:0:
256,192,9558,1,8,0:0:0:0:
256,192,9583,1,0,0:0:0:0:
256,192,9607,1,0,0:0:0:0:
256,192,9632,1,0,0:0:0:0:
256,192,9657,1,8,0:0:0:0:
256,192,9682,1,0,0:0:0:0:
256,192,9707,1,0,0:0:0:0:
256,192,9731,1,0,0:0:0:0:
256,192,9756,1,8,0:0:0:0:
256,192,9781,1,0,0:0:0:0:
256,192,9805,1,0,0:0:0:0:
256,192,9830,1,0,0:0:0:0:
256,192,9855,1,8,0:0:0:0:
256,192,9880,1,0,0:0:0:0:
256,192,9904,1,0,0:0:0:0:
256,192,9929,1,0,0:0:0:0:
256,192,9954,1,8,0:0:0:0:
256,192,9979,1,0,0:0:0:0:
256,192,10004,1,0,0:0:0:0:
256,192,10028,1,0,0:0:0:0:
256,192,10053,1,8,0:0:0:0:
256,192,10078,1,0,0:0:0:0:
256,192,10102,1,0,0:0:0:0:
256,192,10127,1,0,0:0:0:0:
256,192,10152,1,8,0:0:0:0:
256,192,10177,1,0,0:0:0:0:
256,192,10201,1,0,0:0:0:0:
256,192,10226,1,0,0:0:0:0:
256,192,10251,1,8,0:0:0:0:
256,192,10276,1,0,0:0:0:0:
256,192,10301,1,0,0:0:0:0:
256,192,10326,1,0,0:0:0:0:
256,192,10350,1,0,0:0:0:0:
256,192,10647,1,8,0:0:0:0:
256,192,10672,1,8,0:0:0:0:
256,192,10697,1,8,0:0:0:0:
256,192,10722,1,8,0:0:0:0:
256,192,10746,1,8,0:0:0:0:
256,192,10771,1,8,0:0:0:0:
256,192,10796,1,8,0:0:0:0:
256,192,10821,1,0,0:0:0:0:
256,192,10845,1,0,0:0:0:0:
256,192,10870,1,0,0:0:0:0:
256,192,10895,1,0,0:0:0:0:
256,192,10920,1,0,0:0:0:0:
256,192,10944,1,0,0:0:0:0:
256,192,11019,1,0,0:0:0:0:
256,192,11093,1,0,0:0:0:0:
256,192,11167,1,0,0:0:0:0:
256,192,11204,1,0,0:0:0:0:
256,192,11241,1,0,0:0:0:0:
256,192,11279,1,0,0:0:0:0:
256,192,11316,1,0,0:0:0:0:
256,192,11353,1,0,0:0:0:0:
256,192,11390,1,0,0:0:0:0:
256,192,11427,1,0,0:0:0:0:
256,192,11446,1,0,0:0:0:0:
256,192,11464,1,0,0:0:0:0:
256,192,11483,1,0,0:0:0:0:
256,192,11501,1,0,0:0:0:0:
256,192,11520,1,0,0:0:0:0:
256,192,11539,1,8,0:0:0:0:
256,192,11687,1,0,0:0:0:0:
256,192,11836,1,8,0:0:0:0:
256,192,11910,1,8,0:0:0:0:
256,192,11984,1,0,0:0:0:0:
256,192,12058,1,0,0:0:0:0:
256,192,12133,1,0,0:0:0:0:
256,192,12151,1,0,0:0:0:0:
256,192,12170,1,8,0:0:0:0:
256,192,12188,1,8,0:0:0:0:
256,192,12207,1,0,0:0:0:0:
256,192,12225,1,0,0:0:0:0:
256,192,12244,1,8,0:0:0:0:
256,192,12263,1,0,0:0:0:0:
256,192,12281,1,0,0:0:0:0:
256,192,12355,1,0,0:0:0:0:
256,192,12430,1,0,0:0:0:0:
256,192,12578,1,8,0:0:0:0:
256,192,12652,1,8,0:0:0:0:
256,192,12727,1,0,0:0:0:0:
256,192,12875,1,0,0:0:0:0:
256,192,13024,1,8,0:0:0:0:
256,192,13042,1,0,0:0:0:0:
256,192,13061,1,0,0:0:0:0:
256,192,13079,1,8,0:0:0:0:
256,192,13097,1,0,0:0:0:0:
256,192,13116,1,0,0:0:0:0:
256,192,13135,1,8,0:0:0:0:
256,192,13153,1,0,0:0:0:0:
256,192,13172,1,8,0:0:0:0:
256,192,13246,1,0,0:0:0:0:
256,192,13321,1,0,0:0:0:0:
256,192,13469,1,8,0:0:0:0:
256,192,13494,1,8,0:0:0:0:
256,192,13543,1,0,0:0:0:0:
256,192,13617,1,8,0:0:0:0:
256,192,13642,1,8,0:0:0:0:
256,192,13766,1,8,0:0:0:0:
256,192,13791,1,8,0:0:0:0:
256,192,13816,1,8,0:0:0:0:
256,192,13840,1,8,0:0:0:0:
256,192,13915,1,0,0:0:0:0:
256,192,14063,1,8,0:0:0:0:
256,192,14082,1,0,0:0:0:0:
256,192,14092,1,0,0:0:0:0:
256,192,14100,1,8,0:0:0:0:
256,192,14110,1,0,0:0:0:0:
256,192,14119,1,0,0:0:0:0:
256,192,14129,1,8,0:0:0:0:
256,192,14138,1,0,0:0:0:0:
256,192,14175,1,8,0:0:0:0:
256,192,14193,1,8,0:0:0:0:
256,192,14212,1,0,0:0:0:0:
256,192,14360,1,0,0:0:0:0:
256,192,14509,1,8,0:0:0:0:
256,192,14527,1,8,0:0:0:0:
256,192,14546,1,0,0:0:0:0:
256,192,14565,1,8,0:0:0:0:
256,192,14583,1,8,0:0:0:0:
256,192,14602,1,0,0:0:0:0:
256,192,14620,1,8,0:0:0:0:
256,192,14639,1,8,0:0:0:0:
256,192,14657,1,0,0:0:0:0:
256,192,14676,1,8,0:0:0:0:
256,192,14694,1,8,0:0:0:0:
256,192,14713,1,0,0:0:0:0:
256,192,14732,1,8,0:0:0:0:
256,192,14750,1,8,0:0:0:0:
256,192,14769,1,0,0:0:0:0:
256,192,14787,1,8,0:0:0:0:
256,192,14806,1,0,0:0:0:0:
256,192,14824,1,0,0:0:0:0:
256,192,14843,1,0,0:0:0:0:
256,192,14862,1,0,0:0:0:0:
256,192,14880,1,0,0:0:0:0:
256,192,14899,1,0,0:0:0:0:
256,192,14917,1,0,0:0:0:0:
256,192,14936,1,0,0:0:0:0:
256,192,14954,1,8,0:0:0:0:
256,192,14973,1,8,0:0:0:0:
256,192,14991,1,8,0:0:0:0:
256,192,15010,1,8,0:0:0:0:
256,192,15029,1,8,0:0:0:0:
256,192,15047,1,8,0:0:0:0:
256,192,15066,1,8,0:0:0:0:
256,192,15084,1,8,0:0:0:0:
256,192,15103,1,0,0:0:0:0:
256,192,15251,1,0,0:0:0:0:
256,192,15270,1,0,0:0:0:0:
256,192,15289,1,0,0:0:0:0:
256,192,15307,1,8,0:0:0:0:
256,192,15326,1,0,0:0:0:0:
256,192,15344,1,0,0:0:0:0:
256,192,15363,1,8,0:0:0:0:
256,192,15381,1,8,0:0:0:0:
256,192,15400,1,0,0:0:0:0:
256,192,15548,1,0,0:0:0:0:
256,192,15697,1,0,0:0:0:0:
256,192,15772,1,0,0:0:0:0:
256,192,15846,1,0,0:0:0:0:
256,192,15920,1,0,0:0:0:0:
256,192,15957,1,0,0:0:0:0:
256,192,15994,1,0,0:0:0:0:
256,192,16032,1,0,0:0:0:0:
256,192,16069,1,0,0:0:0:0:
256,192,16106,1,0,0:0:0:0:
256,192,16143,1,0,0:0:0:0:
256,192,16180,1,0,0:0:0:0:
256,192,16199,1,0,0:0:0:0:
256,192,16217,1,0,0:0:0:0:
256,192,16236,1,0,0:0:0:0:
256,192,16254,1,0,0:0:0:0:
256,192,16273,1,0,0:0:0:0:
256,192,16292,1,8,0:0:0:0:
256,192,16440,1,0,0:0:0:0:
256,192,16589,1,8,0:0:0:0:
256,192,16663,1,8,0:0:0:0:
256,192,16737,1,0,0:0:0:0:
256,192,16811,1,0,0:0:0:0:
256,192,16886,1,0,0:0:0:0:
256,192,16904,1,0,0:0:0:0:
256,192,16923,1,8,0:0:0:0:
256,192,16941,1,8,0:0:0:0:
256,192,16960,1,0,0:0:0:0:
256,192,16978,1,0,0:0:0:0:
256,192,16997,1,8,0:0:0:0:
256,192,17016,1,0,0:0:0:0:
256,192,17034,1,0,0:0:0:0:
256,192,17108,1,0,0:0:0:0:
256,192,17183,1,0,0:0:0:0:
256,192,17331,1,8,0:0:0:0:
256,192,17405,1,8,0:0:0:0:
256,192,17480,1,0,0:0:0:0:
256,192,17628,1,0,0:0:0:0:
256,192,17777,1,8,0:0:0:0:
256,192,17795,1,0,0:0:0:0:
256,192,17814,1,0,0:0:0:0:
256,192,17832,1,8,0:0:0:0:
256,192,17850,1,0,0:0:0:0:
256,192,17869,1,0,0:0:0:0:
256,192,17888,1,8,0:0:0:0:
256,192,17906,1,0,0:0:0:0:
256,192,17925,1,8,0:0:0:0:
256,192,17999,1,0,0:0:0:0:
256,192,18074,1,0,0:0:0:0:
256,192,18222,1,8,0:0:0:0:
256,192,18247,1,8,0:0:0:0:
256,192,18296,1,0,0:0:0:0:
256,192,18370,1,8,0:0:0:0:
256,192,18395,1,8,0:0:0:0:
256,192,18519,1,8,0:0:0:0:
256,192,18544,1,8,0:0:0:0:
256,192,18569,1,8,0:0:0:0:
256,192,18593,1,8,0:0:0:0:
256,192,18668,1,0,0:0:0:0:
256,192,18816,1,8,0:0:0:0:
256,192,18835,1,0,0:0:0:0:
256,192,18845,1,0,0:0:0:0:
256,192,18853,1,8,0:0:0:0:
256,192,18863,1,0,0:0:0:0:
256,192,18872,1,0,0:0:0:0:
256,192,18882,1,8,0:0:0:0:
256,192,18891,1,0,0:0:0:0:
256,192,18928,1,8,0:0:0:0:
256,192,18946,1,8,0:0:0:0:
256,192,18965,1,0,0:0:0:0:
256,192,19113,1,0,0:0:0:0:
256,192,19262,1,8,0:0:0:0:
256,192,19280,1,8,0:0:0:0:
256,192,19299,1,0,0:0:0:0:
256,192,19318,1,8,0:0:0:0:
256,192,19336,1,8,0:0:0:0:
256,192,19355,1,0,0:0:0:0:
256,192,19373,1,8,0:0:0:0:
256,192,19392,1,8,0:0:0:0:
256,192,19410,1,0,0:0:0:0:
256,192,19429,1,8,0:0:0:0:
256,192,19447,1,8,0:0:0:0:
256,192,19466,1,0,0:0:0:0:
256,192,19485,1,8,0:0:0:0:
256,192,19503,1,8,0:0:0:0:
256,192,19522,1,0,0:0:0:0:
256,192,19540,1,8,0:0:0:0:
256,192,19559,1,0,0:0:0:0:
256,192,19577,1,0,0:0:0:0:
256,192,19596,1,0,0:0:0:0:
256,192,19615,1,0,0:0:0:0:
256,192,19633,1,0,0:0:0:0:
256,192,19652,1,0,0:0:0:0:
256,192,19670,1,0,0:0:0:0:
256,192,19689,1,0,0:0:0:0:
256,192,19707,1,8,0:0:0:0:
256,192,19726,1,8,0:0:0:0:
256,192,19744,1,8,0:0:0:0:
256,192,19763,1,8,0:0:0:0:
256,192,19782,1,8,0:0:0:0:
256,192,19800,1,8,0:0:0:0:
256,192,19819,1,8,0:0:0:0:
256,192,19837,1,8,0:0:0:0:
256,192,19856,1,0,0:0:0:0:
256,192,20004,1,0,0:0:0:0:
256,192,20023,1,0,0:0:0:0:
256,192,20042,1,0,0:0:0:0:
256,192,20060,1,8,0:0:0:0:
256,192,20079,1,0,0:0:0:0:
256,192,20097,1,0,0:0:0:0:
256,192,20116,1,8,0:0:0:0:
256,192,20134,1,8,0:0:0:0:
256,192,20153,1,0,0:0:0:0:
256,192,20301,1,0,0:0:0:0:
256,192,20449,12,0,20746,0:0:0:0:
256,192,20895,5,0,0:0:0:0:
256,192,20914,1,0,0:0:0:0:
256,192,20932,1,0,0:0:0:0:
256,192,20951,1,0,0:0:0:0:
256,192,20969,1,0,0:0:0:0:
256,192,20988,1,0,0:0:0:0:
256,192,21006,1,0,0:0:0:0:
256,192,21025,1,0,0:0:0:0:
256,192,21043,1,0,0:0:0:0:
256,192,21340,1,8,0:0:0:0:
256,192,21638,1,8,0:0:0:0:
256,192,21656,1,0,0:0:0:0:
256,192,21675,1,0,0:0:0:0:
256,192,21693,1,8,0:0:0:0:
256,192,21712,1,8,0:0:0:0:
256,192,21786,1,8,0:0:0:0:
256,192,22083,1,8,0:0:0:0:
256,192,22101,1,0,0:0:0:0:
256,192,22120,1,0,0:0:0:0:
256,192,22138,1,8,0:0:0:0:
256,192,22157,1,8,0:0:0:0:
256,192,22231,1,8,0:0:0:0:
256,192,22529,1,8,0:0:0:0:
256,192,22547,1,0,0:0:0:0:
256,192,22566,1,0,0:0:0:0:
256,192,22584,1,8,0:0:0:0:
256,192,22603,1,8,0:0:0:0:
256,192,22677,1,8,0:0:0:0:
256,192,22974,12,0,24014,0:0:0:0:
