osu file format v14

[General]
AudioFilename: preparing for te shakedown_200705155_soundcloud.mp3
AudioLeadIn: 0
PreviewTime: 10350
Countdown: 1
SampleSet: None
StackLeniency: 0.7
Mode: 0
LetterboxInBreaks: 1
WidescreenStoryboard: 1

[Editor]
DistanceSpacing: 0.5
BeatDivisor: 8
GridSize: 4
TimelineZoom: 1

[Metadata]
Title:preparing for te shakedown
TitleUnicode:preparing for te shakedown
Artist:yumyumyuumyy
ArtistUnicode:yumyumyuumyy
Creator:[Toy]
Version:omar god
Source:
Tags:
BeatmapID:705479
BeatmapSetID:316625

[Difficulty]
HPDrainRate:5
CircleSize:2
OverallDifficulty:10
ApproachRate:9
SliderMultiplier:1.8
SliderTickRate:1

[Events]
//Background and Video events
0,0,"patrick.jpg",0,0
//Break Periods
//Storyboard Layer 0 (Background)
//Storyboard Layer 1 (Fail)
//Storyboard Layer 2 (Pass)
//Storyboard Layer 3 (Foreground)
//Storyboard Sound Samples

[TimingPoints]
1440,297.029702970297,4,2,0,60,1,0
10944,-62.5,4,2,0,60,0,0
23865,-62.5,4,2,0,5,0,0

[HitObjects]
176,108,1440,6,0,L|284:64,1,90
252,256,1737,2,0,L|144:300,1,90
180,88,2034,2,0,L|288:44,1,90
248,276,2331,2,0,L|140:320,1,90
184,68,2628,2,0,L|292:24,1,90
244,296,2925,2,0,L|136:340,1,90
36,192,3222,1,0,0:0:0:0:
276,128,3370,1,0,0:0:0:0:
152,316,3519,1,0,0:0:0:0:
80,92,3667,1,0,0:0:0:0:
272,40,3816,6,0,P|352:56|384:72,1,90
168,384,4113,2,0,P|88:368|56:352,1,90
276,128,4410,1,0,0:0:0:0:
264,252,4558,1,0,0:0:0:0:
192,172,4707,1,0,0:0:0:0:
396,204,4855,1,0,0:0:0:0:
275,58,5003,1,0,0:0:0:0:
438,67,5152,1,0,0:0:0:0:
264,252,5301,6,0,L|348:184,1,90
276,344,5598,2,0,L|170:368,1,90
68,248,5895,1,0,0:0:0:0:
152,104,6043,1,0,0:0:0:0:
296,140,6192,6,0,L|356:164,3,60
400,184,6588,1,0,0:0:0:0:
428,228,6687,1,0,0:0:0:0:
408,280,6786,1,0,0:0:0:0:
364,312,6885,1,0,0:0:0:0:
312,316,6984,1,0,0:0:0:0:
268,284,7083,1,0,0:0:0:0:
260,232,7182,1,0,0:0:0:0:
312,228,7281,1,0,0:0:0:0:
352,264,7380,5,0,0:0:0:0:
344,316,7479,1,0,0:0:0:0:
304,352,7578,1,0,0:0:0:0:
252,356,7677,1,0,0:0:0:0:
200,344,7776,1,0,0:0:0:0:
152,316,7875,1,0,0:0:0:0:
124,272,7974,1,0,0:0:0:0:
104,220,8073,1,0,0:0:0:0:
104,168,8172,1,0,0:0:0:0:
132,120,8271,1,0,0:0:0:0:
168,80,8370,1,0,0:0:0:0:
220,68,8469,1,0,0:0:0:0:
272,68,8568,6,0,L|352:68,1,60
256,188,8766,2,0,L|176:188,1,60
168,308,8964,2,0,L|144:368,1,60
260,300,9162,2,0,L|268:372,1,60
360,256,9360,2,0,L|408:200,1,60
424,164,9558,1,0,0:0:0:0:
404,112,9657,1,0,0:0:0:0:
356,88,9756,5,0,0:0:0:0:
304,80,9855,1,0,0:0:0:0:
252,80,9954,1,0,0:0:0:0:
208,112,10053,1,0,0:0:0:0:
180,160,10152,1,0,0:0:0:0:
220,200,10251,1,0,0:0:0:0:
184,240,10350,5,0,0:0:0:0:
308,164,10548,1,0,0:0:0:0:
56,176,10746,1,0,0:0:0:0:
88,328,10944,6,0,P|172:312|368:360,1,288
416,316,11316,1,0,0:0:0:0:
416,316,11390,1,0,0:0:0:0:
412,252,11464,1,0,0:0:0:0:
412,252,11539,1,0,0:0:0:0:
180,136,11836,2,0,L|128:104,1,36
380,64,12133,6,0,L|388:112,1,36
180,336,12430,1,0,0:0:0:0:
260,192,12578,2,0,L|264:132,1,36
260,192,13024,2,0,L|260:144,1,36
264,40,13172,5,0,0:0:0:0:
264,40,13469,1,0,0:0:0:0:
364,328,13618,1,0,0:0:0:0:
364,328,13915,2,0,L|400:356,1,36
128,224,14063,2,0,L|92:196,1,36
408,80,14212,1,0,0:0:0:0:
100,352,14360,1,0,0:0:0:0:
388,240,14509,6,0,L|460:208,2,72
356,248,14732,1,0,0:0:0:0:
356,248,14806,1,0,0:0:0:0:
164,144,14954,1,0,0:0:0:0:
0,152,15103,2,0,B|60:148|80:124|80:124|96:60|200:52,2,192
120,296,15697,6,0,P|208:216|424:248,1,288
268,308,16142,1,0,0:0:0:0:
164,144,16291,2,0,L|148:104,1,36
348,144,16551,2,0,L|364:104,1,36
120,296,16885,6,0,L|100:336,1,36
236,220,17182,1,0,0:0:0:0:
236,220,17331,2,0,L|216:260,1,36,2|0,0:0|0:0,0:0:0:0:
352,148,17628,1,0,0:0:0:0:
352,148,17777,2,0,L|332:188,1,36,2|0,0:0|0:0,0:0:0:0:
376,340,17925,2,0,P|396:268|400:364,1,288
236,220,18370,1,0,0:0:0:0:
136,44,18519,2,0,P|127:75|125:33,1,108
98,36,18667,2,0,L|96:88,1,36
352,148,18816,2,0,L|368:100,1,36
268,316,18964,1,0,0:0:0:0:
212,328,19113,1,0,0:0:0:0:
156,316,19261,6,0,P|84:280|240:80,1,432
268,104,19855,2,0,B|392:164|444:200|444:200|408:120,1,288
136,88,20449,6,0,B|124:324|124:324|132:200|132:200|268:104|268:104|136:200|136:200|272:356,1,864
444,156,21638,6,0,L|424:196,1,36
88,264,21935,1,0,0:0:0:0:
172,144,22083,2,0,L|200:112,1,36
264,320,22529,2,0,L|240:347,1,36
388,368,22677,1,0,0:0:0:0:
256,192,22826,12,0,23865,0:0:0:0:
