osu file format v14

[General]
AudioFilename: preparing for te shakedown_200705155_soundcloud.mp3
AudioLeadIn: 0
PreviewTime: 10350
Countdown: 1
SampleSet: None
StackLeniency: 0.7
Mode: 0
LetterboxInBreaks: 1
WidescreenStoryboard: 1

[Editor]
DistanceSpacing: 0.6
BeatDivisor: 8
GridSize: 4
TimelineZoom: 2.5

[Metadata]
Title:preparing for te shakedown
TitleUnicode:preparing for te shakedown
Artist:yumyumyuumyy
ArtistUnicode:yumyumyuumyy
Creator:[Toy]
Version:holy heck its meme
Source:
Tags:
BeatmapID:705514
BeatmapSetID:316625

[Difficulty]
HPDrainRate:6
CircleSize:4
OverallDifficulty:8
ApproachRate:9.5
SliderMultiplier:1.4
SliderTickRate:1

[Events]
//Background and Video events
0,0,"patrick.jpg",0,0
//Break Periods
//Storyboard Layer 0 (Background)
//Storyboard Layer 1 (Fail)
//Storyboard Layer 2 (Pass)
//Storyboard Layer 3 (Foreground)
//Storyboard Sound Samples

[TimingPoints]
1440,297.029702970297,4,2,0,80,1,0
1440,-100,4,2,0,60,0,0
1440,-100,4,2,0,40,0,0
4558,-66.6666666666667,4,2,0,60,0,0
5895,-100,4,2,0,80,0,0
7875,-80,4,2,0,80,0,0
8271,-66.6666666666667,4,2,0,80,0,0
8568,-100,4,2,0,73,0,0
9459,-50,4,2,0,40,0,0
10350,-66.6666666666667,4,2,0,80,0,0
10944,-66.6666666666667,4,2,0,70,0,0
10982,-66.6666666666667,4,2,0,10,0,0
11019,-66.6666666666667,4,2,0,11,0,0
11056,-66.6666666666667,4,2,0,12,0,0
11093,-66.6666666666667,4,2,0,13,0,0
11130,-66.6666666666667,4,2,0,14,0,0
11167,-66.6666666666667,4,2,0,16,0,0
11204,-66.6666666666667,4,2,0,17,0,0
11241,-66.6666666666667,4,2,0,80,0,0
11836,-50,4,2,0,80,0,0
11910,-66.6666666666667,4,2,0,5,0,0
12133,-100,4,2,0,80,0,0
13024,-50,4,2,0,80,0,0
15103,-100,4,2,0,80,0,0
15301,-66.6666666666667,4,2,0,80,0,0
15499,-50,4,2,0,80,0,0
15697,-66.6666666666667,4,2,0,5,0,0
15734,-66.6666666666667,4,2,0,10,0,0
15771,-66.6666666666667,4,2,0,15,0,0
15808,-66.6666666666667,4,2,0,20,0,0
15845,-66.6666666666667,4,2,0,25,0,0
15883,-66.6666666666667,4,2,0,30,0,0
15994,-66.6666666666667,4,2,0,50,0,0
16291,-50,4,2,0,80,0,0
19261,-100,4,2,0,100,0,0
20449,-66.6666666666667,4,2,0,80,0,0
20746,-66.6666666666667,4,2,0,20,0,0
20784,-66.6666666666667,4,2,0,25,0,0
20821,-66.6666666666667,4,2,0,30,0,0
20858,-66.6666666666667,4,2,0,35,0,0
20895,-66.6666666666667,4,2,0,40,0,0
20932,-66.6666666666667,4,2,0,45,0,0
20969,-66.6666666666667,4,2,0,50,0,0
21006,-66.6666666666667,4,2,0,55,0,0
21043,-66.6666666666667,4,2,0,70,0,0

[HitObjects]
96,204,251,5,0,0:0:0:0:
108,212,548,1,0,0:0:0:0:
120,220,845,1,0,0:0:0:0:
132,228,1142,1,0,0:0:0:0:
251,141,1440,5,0,0:0:0:0:
312,189,1588,1,0,0:0:0:0:
333,114,1737,1,0,0:0:0:0:
264,126,1885,5,0,0:0:0:0:
328,205,2033,1,0,0:0:0:0:
377,116,2182,1,0,0:0:0:0:
288,105,2331,5,0,0:0:0:0:
350,233,2479,1,0,0:0:0:0:
444,127,2628,1,0,0:0:0:0:
327,97,2776,5,0,0:0:0:0:
357,276,2924,1,0,0:0:0:0:
511,179,3073,1,0,0:0:0:0:
440,112,3222,5,0,0:0:0:0:
277,48,3370,1,0,0:0:0:0:
166,153,3519,1,0,0:0:0:0:
408,46,3667,5,0,0:0:0:0:
216,29,3815,1,0,0:0:0:0:
129,175,3964,1,0,0:0:0:0:
328,48,4113,5,0,0:0:0:0:
232,176,4261,1,0,0:0:0:0:
284,320,4410,1,0,0:0:0:0:
152,344,4558,5,0,0:0:0:0:
340,256,4707,2,0,B|372:232|372:232|380:204|420:176,1,105.000004005432
476,300,5004,1,0,0:0:0:0:
296,88,5152,2,0,B|264:112|264:112|256:140|216:168,1,105.000004005432
104,208,5449,5,0,0:0:0:0:
384,80,5598,1,0,0:0:0:0:
188,68,5746,1,0,0:0:0:0:
392,320,5895,6,0,B|368:328|348:320|348:320|304:332,1,70,2|0,0:0|0:0,0:0:0:0:
92,296,6192,5,0,0:0:0:0:
92,296,6291,2,0,L|156:264,1,46.6666666666667
292,200,6489,1,0,0:0:0:0:
292,200,6588,2,0,L|240:184,1,46.6666666666667
88,96,6786,1,0,0:0:0:0:
88,96,6885,2,0,L|136:84,1,46.6666666666667
284,56,7083,5,0,0:0:0:0:
304,60,7182,1,0,0:0:0:0:
320,68,7281,1,0,0:0:0:0:
336,80,7380,1,0,0:0:0:0:
348,92,7479,2,0,P|376:116|396:152,1,46.6666666666667,0|0,1:0|0:0,0:0:0:0:
440,236,7677,5,0,0:0:0:0:
396,252,7776,1,0,0:0:0:0:
356,264,7875,2,0,P|336:272|276:280,1,58.3333333333333,0|0,1:0|0:0,0:0:0:0:
188,328,8073,5,0,0:0:0:0:
168,280,8172,1,0,0:0:0:0:
164,228,8271,2,0,B|172:184|180:160|180:144,1,70.0000026702882,0|0,1:0|1:0,1:0:0:0:
232,60,8469,5,0,0:0:0:0:
276,76,8568,2,0,L|288:112,5,23.3333333333333
312,116,8865,2,0,L|340:140,5,23.3333333333333
328,156,9162,2,0,L|312:192,5,23.3333333333333
300,212,9459,2,0,L|320:240,11,23.3333333333333
320,264,9756,2,0,L|296:288,11,23.3333333333333
292,308,10053,2,0,L|316:332,12,23.3333333333333,0|0|0|0|0|0|0|0|0|0|0|0|0,0:0|0:0|0:0|0:0|0:0|0:0|0:0|0:0|0:0|0:0|0:0|0:0|1:0,0:0:0:0:
132,64,10573,6,0,B|128:132|92:148|92:148|96:184|76:224,1,157.500006008148,0|0,1:0|1:0,1:0:0:0:
208,328,10944,2,0,L|240:332,7,26.2500010013581,0|0|0|0|0|0|0|0,1:0|2:0|2:0|2:0|2:0|2:0|2:0|2:0,2:0:0:0:
260,328,11241,2,0,L|292:316,8,26.2500010013581
28,276,11836,6,0,B|68:272|84:256|84:256|124:252,1,70
356,55,12133,5,0,0:0:0:0:
396,88,12207,1,0,0:0:0:0:
416,128,12281,1,0,0:0:0:0:
426,232,12430,1,0,1:0:0:0:
299,269,12578,1,0,0:0:0:0:
263,143,12727,5,8,0:0:0:0:
56,340,13024,6,0,L|44:288,1,35
32,200,13172,1,0,1:0:0:0:
156,48,13469,6,0,L|148:84,1,35
200,312,13618,2,0,L|212:264,1,35
408,288,13915,6,0,L|432:328,1,35
432,112,14063,2,0,L|400:72,1,35
312,40,14212,5,0,1:0:0:0:
244,328,14360,1,0,1:0:0:0:
132,244,14509,5,0,0:0:0:0:
124,204,14583,1,0,0:0:0:0:
128,164,14657,1,0,0:0:0:0:
220,36,14806,1,0,0:0:0:0:
408,148,14954,1,0,0:0:0:0:
380,316,15103,6,0,B|348:308|348:308|334:313|280:300,1,87.5
264,248,15301,2,0,B|308:239|340:248|364:228|364:228|396:232,1,122.500004673004
420,188,15499,2,0,B|362:181|362:181|328:168|304:179|304:179|264:184|264:184|252:172,1,163.333333333333
220,184,15697,6,0,L|200:212,7,26.2500010013581
196,232,15994,2,0,L|192:268,7,26.2500010013581
196,296,16291,2,0,L|220:324,1,35
380,104,16588,2,0,L|336:92,1,35
72,144,16885,5,0,0:0:0:0:
72,144,16959,1,0,0:0:0:0:
72,144,17034,1,0,0:0:0:0:
132,288,17182,1,0,1:0:0:0:
232,136,17331,2,0,L|268:176,1,35
424,344,17628,6,0,B|456:288|440:200,1,140
392,112,17925,1,0,1:0:0:0:
120,88,18222,6,0,L|108:56,1,35
160,104,18370,2,0,L|148:68,1,35
184,304,18667,2,0,L|148:328,1,35
432,104,18816,1,0,0:0:0:0:
304,220,19261,5,0,0:0:0:0:
328,204,19336,1,0,0:0:0:0:
352,188,19410,1,0,0:0:0:0:
328,340,19558,1,0,0:0:0:0:
480,100,19707,1,0,0:0:0:0:
456,84,19782,1,0,0:0:0:0:
432,68,19856,1,0,0:0:0:0:
456,220,20004,1,0,0:0:0:0:
328,276,20152,1,0,0:0:0:0:
192,236,20301,1,0,0:0:0:0:
256,48,20449,6,0,L|256:256,1,196.875007510186
252,280,20746,2,0,L|208:288,8,26.2500010013581,0|0|0|0|0|0|0|0|8,0:0|0:0|0:0|0:0|0:0|0:0|0:0|0:0|0:0,0:0:0:0:
140,136,21340,2,0,L|152:96,1,26.2500010013581
368,52,21638,5,0,0:0:0:0:
356,124,21712,1,0,0:0:0:0:
344,196,21786,1,0,0:0:0:0:
280,340,21935,1,0,1:0:0:0:
144,272,22083,2,0,L|124:288,1,26.2500010013581
108,116,22232,1,8,0:0:0:0:
256,192,22306,12,0,23717,0:0:0:0:
