osu file format v14

[General]
AudioFilename: preparing for te shakedown_200705155_soundcloud.mp3
AudioLeadIn: 0
PreviewTime: 10350
Countdown: 1
SampleSet: Soft
StackLeniency: 0.6
Mode: 0
LetterboxInBreaks: 1
WidescreenStoryboard: 1

[Editor]
DistanceSpacing: 0.5
BeatDivisor: 6
GridSize: 6
TimelineZoom: 1.400004

[Metadata]
Title:preparing for te shakedown
TitleUnicode:preparing for te shakedown
Artist:yumyumyuumyy
ArtistUnicode:yumyumyuumyy
Creator:[Toy]
Version:hi im patrick
Source:
Tags:
BeatmapID:705808
BeatmapSetID:316625

[Difficulty]
HPDrainRate:0
CircleSize:4
OverallDifficulty:0
ApproachRate:9
SliderMultiplier:3.6
SliderTickRate:6

[Events]
//Background and Video events
0,0,"patrick.jpg",0,0
//Break Periods
//Storyboard Layer 0 (Background)
//Storyboard Layer 1 (Fail)
//Storyboard Layer 2 (Pass)
//Storyboard Layer 3 (Foreground)
//Storyboard Sound Samples

[TimingPoints]
1440,297.029702970297,4,2,0,100,1,0
10944,-200,4,2,0,100,0,0
13840,-50,4,2,0,100,0,0
15400,-200,4,2,0,100,0,0
15845,-50,4,2,0,100,0,0

[HitObjects]
78,276,1440,5,0,0:0:0:0:
492,24,1588,1,0,0:0:0:0:
96,48,1737,1,0,0:0:0:0:
486,138,1885,1,0,0:0:0:0:
66,294,2034,1,0,0:0:0:0:
474,36,2182,1,0,0:0:0:0:
252,336,2331,1,0,0:0:0:0:
294,12,2479,1,0,0:0:0:0:
24,168,2628,5,0,0:0:0:0:
180,348,2776,1,0,0:0:0:0:
228,12,2925,1,0,0:0:0:0:
432,318,3073,1,0,0:0:0:0:
450,12,3222,1,0,0:0:0:0:
24,12,3370,1,0,0:0:0:0:
492,84,3519,1,0,0:0:0:0:
24,102,3667,1,0,0:0:0:0:
480,174,3816,5,0,0:0:0:0:
24,198,3964,1,0,0:0:0:0:
480,258,4113,1,0,0:0:0:0:
24,276,4261,1,0,0:0:0:0:
480,336,4410,1,0,0:0:0:0:
18,360,4558,1,0,0:0:0:0:
24,12,4707,1,0,0:0:0:0:
480,336,4855,1,0,0:0:0:0:
450,12,5004,5,0,0:0:0:0:
24,198,5152,1,0,0:0:0:0:
480,336,5301,1,0,0:0:0:0:
18,360,5449,1,0,0:0:0:0:
480,174,5598,1,0,0:0:0:0:
24,198,5746,1,0,0:0:0:0:
450,12,5895,1,0,0:0:0:0:
18,360,6043,1,0,0:0:0:0:
96,36,6192,5,0,0:0:0:0:
116,24,6291,1,0,0:0:0:0:
139,15,6390,1,0,0:0:0:0:
162,10,6489,1,0,0:0:0:0:
186,8,6588,1,0,0:0:0:0:
210,9,6687,1,0,0:0:0:0:
233,14,6786,1,0,0:0:0:0:
256,22,6885,1,0,0:0:0:0:
277,33,6984,1,0,0:0:0:0:
297,47,7083,1,0,0:0:0:0:
314,64,7182,1,0,0:0:0:0:
329,82,7281,1,0,0:0:0:0:
341,103,7380,1,0,0:0:0:0:
349,126,7479,1,0,0:0:0:0:
355,149,7578,1,0,0:0:0:0:
357,173,7677,1,0,0:0:0:0:
356,197,7776,1,0,0:0:0:0:
352,220,7875,1,0,0:0:0:0:
344,243,7974,1,0,0:0:0:0:
333,264,8073,1,0,0:0:0:0:
319,284,8172,1,0,0:0:0:0:
302,301,8271,1,0,0:0:0:0:
284,316,8370,1,0,0:0:0:0:
263,328,8469,1,0,0:0:0:0:
241,337,8568,1,0,0:0:0:0:
217,343,8667,1,0,0:0:0:0:
194,345,8766,1,0,0:0:0:0:
170,344,8865,1,0,0:0:0:0:
146,340,8964,1,0,0:0:0:0:
123,332,9063,1,0,0:0:0:0:
102,324,9162,6,0,L|36:294,12,60
36,276,9855,6,0,L|42:204,13,45
402,60,11241,2,0,L|432:42,1,22.5
474,114,11316,2,0,L|498:144,1,22.5
450,210,11390,2,0,L|438:246,1,22.5
360,240,11464,2,0,L|348:276,1,22.5
270,228,11539,2,0,L|234:252,1,22.5
48,174,11836,2,0,L|12:198,1,22.5
96,36,12133,5,0,0:0:0:0:
396,312,12281,1,0,0:0:0:0:
480,18,12578,1,0,0:0:0:0:
6,378,13024,1,0,0:0:0:0:
6,378,13506,1,0,0:0:0:0:
480,18,13654,1,0,0:0:0:0:
6,378,13915,1,0,0:0:0:0:
480,18,14063,1,0,0:0:0:0:
60,144,14509,6,0,L|60:48,8,90
512,372,14954,1,0,0:0:0:0:
276,132,15103,6,0,L|276:36,8,90
0,384,15548,1,0,0:0:0:0:
54,258,15994,6,0,L|36:204,1,45
66,210,16031,2,0,L|60:162,1,45
90,162,16068,2,0,L|120:120,1,45
138,144,16105,2,0,L|198:138,1,45
458,258,16291,2,0,L|476:204,1,45
446,210,16328,2,0,L|452:162,1,45
422,162,16365,2,0,L|392:120,1,45
374,144,16402,2,0,L|314:138,1,45
30,6,16588,1,0,0:0:0:0:
54,258,16885,6,0,L|36:204,1,45
66,210,16922,2,0,L|60:162,1,45
90,162,16959,2,0,L|120:120,1,45
138,144,16996,2,0,L|198:138,1,45
458,126,17331,2,0,L|476:180,1,45
446,174,17368,2,0,L|452:222,1,45
422,222,17405,2,0,L|392:264,1,45
374,240,17442,2,0,L|314:246,1,45
30,6,17628,5,0,0:0:0:0:
492,372,17776,1,0,0:0:0:0:
30,6,18222,5,0,0:0:0:0:
492,372,18370,1,0,0:0:0:0:
20,372,18667,5,0,0:0:0:0:
482,6,18815,1,0,0:0:0:0:
150,12,19261,6,0,L|132:366,5,240
192,120,19855,6,0,L|174:474,6,240
282,186,20598,6,0,L|288:114,10,45
330,120,20839,6,0,L|336:48,10,45
372,84,21062,6,0,L|378:12,14,45
60,216,21638,6,0,L|66:144,10,45
372,84,22083,6,0,L|378:12,10,45
504,384,22529,6,0,L|510:312,10,45
56,260,22974,6,0,L|62:188,5,45
180,150,23141,6,0,L|186:78,7,45
414,234,23420,6,0,L|420:162,10,45
