osu file format v14

[General]
AudioFilename: preparing for te shakedown_200705155_soundcloud.mp3
AudioLeadIn: 0
PreviewTime: 10350
Countdown: 1
SampleSet: None
StackLeniency: 0.6
Mode: 0
LetterboxInBreaks: 1
WidescreenStoryboard: 1

[Editor]
DistanceSpacing: 6
BeatDivisor: 4
GridSize: 6
TimelineZoom: 6

[Metadata]
Title:preparing for te shakedown
TitleUnicode:preparing for te shakedown
Artist:yumyumyuumyy
ArtistUnicode:yumyumyuumyy
Creator:[Toy]
Version:WC 666
Source:
Tags:
BeatmapID:726207
BeatmapSetID:316625

[Difficulty]
HPDrainRate:6
CircleSize:6
OverallDifficulty:6
ApproachRate:6
SliderMultiplier:3.6
SliderTickRate:6

[Events]
//Background and Video events
0,0,"patrick.jpg",0,0
//Break Periods
//Storyboard Layer 0 (Background)
//Storyboard Layer 1 (Fail)
//Storyboard Layer 2 (Pass)
//Storyboard Layer 3 (Foreground)
//Storyboard Sound Samples

[TimingPoints]
1440,297.029702970297,4,2,0,100,1,0
10944,-200,4,2,0,100,0,0
13840,-50,4,2,0,100,0,0
15400,-200,4,2,0,100,0,0
15845,-50,4,2,0,100,0,0

[HitObjects]
256,192,103,12,0,9905,0:0:0:0:
410,23,10350,5,0,0:0:0:0:
96,42,10647,5,0,0:0:0:0:
54,192,10796,1,0,0:0:0:0:
468,192,10944,2,0,P|432:288|426:42,1,1125
410,23,13098,5,8,0:0:0:0:
101,360,13469,5,8,0:0:0:0:
410,23,13618,1,8,0:0:0:0:
60,258,13915,2,0,P|174:276|204:372,2,180
420,312,14212,5,0,0:0:0:0:
96,66,14360,1,0,0:0:0:0:
324,336,14509,2,0,P|348:258|462:222,1,180
432,216,14657,2,0,P|354:192|318:78,1,180
312,108,14806,2,0,P|288:186|174:222,1,180
203,226,14954,1,0,0:0:0:0:
203,226,15029,1,0,0:0:0:0:
203,226,15103,6,0,P|282:190|310:107,1,180
313,107,15251,2,0,P|349:187|432:215,1,180
432,217,15400,2,8,P|352:253|324:336,1,180
330,336,15994,5,0,0:0:0:0:
242,353,16068,1,0,0:0:0:0:
157,327,16142,1,0,0:0:0:0:
95,263,16216,1,0,0:0:0:0:
70,177,16291,1,0,0:0:0:0:
89,90,16365,1,0,0:0:0:0:
147,23,16439,1,0,0:0:0:0:
230,0,16513,1,0,0:0:0:0:
319,3,16588,1,0,0:0:0:0:
391,55,16662,1,0,0:0:0:0:
429,135,16736,1,0,0:0:0:0:
425,224,16810,1,0,0:0:0:0:
379,301,16885,6,0,P|162:336|72:198,1,360
114,53,17182,6,0,P|331:18|421:156,1,360
126,312,17479,6,0,P|91:94|229:4,1,360
378,48,17776,6,0,P|412:265|274:355,2,360
378,48,18296,5,0,0:0:0:0:
192,48,18370,1,0,0:0:0:0:
288,330,18667,5,0,0:0:0:0:
276,12,18741,1,0,0:0:0:0:
144,306,18964,2,0,P|288:216|450:342,1,360
120,60,19336,5,0,0:0:0:0:
275,78,19410,2,0,B|318:222|318:222|306:12,1,360
120,60,19707,5,0,0:0:0:0:
244,318,19781,2,0,B|232:108|232:108|275:252,1,360
120,60,20078,5,0,0:0:0:0:
154,204,20152,2,0,B|197:348|197:348|185:138,1,360
192,150,20449,5,0,0:0:0:0:
192,150,20598,1,0,0:0:0:0:
192,150,20746,1,0,0:0:0:0:
192,150,20969,2,0,P|432:168|198:180,1,720
204,192,21638,5,0,0:0:0:0:
186,240,21786,2,0,B|414:246|414:246|228:210,1,360
282,222,22083,5,0,0:0:0:0:
264,270,22231,2,0,B|492:276|492:276|306:240,1,360
24,0,22529,5,0,0:0:0:0:
