osu file format v14

[General]
AudioFilename: preparing for te shakedown_200705155_soundcloud.mp3
AudioLeadIn: 0
PreviewTime: 10350
Countdown: 0
SampleSet: None
StackLeniency: 0.7
Mode: 0
LetterboxInBreaks: 1
WidescreenStoryboard: 1

[Editor]
DistanceSpacing: 0.9
BeatDivisor: 4
GridSize: 16
TimelineZoom: 3

[Metadata]
Title:preparing for te shakedown
TitleUnicode:preparing for te shakedown
Artist:yumyumyuumyy
ArtistUnicode:yumyumyuumyy
Creator:[Toy]
Version:The Moment Fus Was Waiting For
Source:
Tags:
BeatmapID:752192
BeatmapSetID:316625

[Difficulty]
HPDrainRate:3
CircleSize:3.8
OverallDifficulty:6
ApproachRate:8
SliderMultiplier:2.7
SliderTickRate:1

[Events]
//Background and Video events
0,0,"patrick.jpg",0,0
//Break Periods
//Storyboard Layer 0 (Background)
//Storyboard Layer 1 (Fail)
//Storyboard Layer 2 (Pass)
//Storyboard Layer 3 (Foreground)
//Storyboard Sound Samples

[TimingPoints]
1440,297.029702970297,4,2,0,100,1,0
7380,74.2574257425743,4,2,0,100,1,0
7380,-50,4,2,0,100,0,0
8001,297.029702970297,4,2,0,100,1,0

[Colours]
Combo1 : 128,255,0
Combo2 : 128,255,128

[HitObjects]
400,160,1440,5,0,0:0:0:0:
400,224,1588,1,0,0:0:0:0:
304,160,1737,1,0,0:0:0:0:
304,224,1885,1,0,0:0:0:0:
208,160,2034,1,0,0:0:0:0:
208,224,2182,1,0,0:0:0:0:
112,160,2331,1,0,0:0:0:0:
112,224,2479,1,0,0:0:0:0:
144,224,2628,2,2,L|256:352,1,135
279,325,2925,2,8,L|368:224,1,135
368,160,3222,2,2,L|256:32,1,135
232,58,3519,2,8,L|144:160,1,135
256,192,3816,12,0,5895,0:0:0:0:
64,192,6192,5,0,0:0:0:0:
80,160,6266,1,0,0:0:0:0:
112,144,6340,1,0,0:0:0:0:
144,160,6415,1,0,0:0:0:0:
160,192,6489,1,0,0:0:0:0:
176,224,6563,1,0,0:0:0:0:
192,256,6638,1,0,0:0:0:0:
192,288,6712,1,0,0:0:0:0:
176,320,6786,1,0,0:0:0:0:
144,336,6860,1,0,0:0:0:0:
112,336,6935,1,0,0:0:0:0:
80,320,7009,1,0,0:0:0:0:
64,288,7083,1,0,0:0:0:0:
64,256,7157,1,0,0:0:0:0:
80,224,7232,1,0,0:0:0:0:
112,192,7306,1,0,0:0:0:0:
144,176,7380,1,0,0:0:0:0:
176,160,7454,1,0,0:0:0:0:
224,144,7528,1,0,0:0:0:0:
256,160,7602,1,0,0:0:0:0:
272,192,7677,1,0,0:0:0:0:
288,224,7751,1,0,0:0:0:0:
320,240,7825,1,0,0:0:0:0:
352,224,7899,1,0,0:0:0:0:
368,192,7974,1,0,0:0:0:0:
368,160,8075,1,0,0:0:0:0:
352,128,8149,1,0,0:0:0:0:
336,96,8223,1,0,0:0:0:0:
304,80,8298,1,0,0:0:0:0:
272,64,8372,1,0,0:0:0:0:
240,64,8446,1,0,0:0:0:0:
208,80,8520,1,0,0:0:0:0:
176,96,8595,1,0,0:0:0:0:
256,192,8669,12,0,10080,0:0:0:0:
256,160,10377,5,8,0:0:0:0:
160,80,10600,1,8,0:0:0:0:
352,80,10822,1,8,0:0:0:0:
256,80,10971,6,2,B|304:160|304:160|160:176|160:176|352:224|352:224|208:304,1,540
96,224,11862,1,0,0:0:0:0:
400,80,12159,2,8,L|448:128,2,67.5
272,208,12604,1,0,0:0:0:0:
416,336,13050,1,0,0:0:0:0:
288,336,13496,1,0,0:0:0:0:
416,336,13644,1,0,0:0:0:0:
288,336,13941,1,0,0:0:0:0:
288,208,14090,1,8,0:0:0:0:
112,64,14461,2,2,L|32:144,2,67.5
400,64,14832,1,8,0:0:0:0:
176,192,14981,1,2,0:0:0:0:
400,192,15129,2,8,B|224:304|224:304|432:288,1,405
256,192,15649,12,0,16020,0:0:0:0:
256,64,16317,5,0,0:0:0:0:
256,320,16614,1,8,0:0:0:0:
80,224,16911,2,2,L|80:144,2,67.5
416,96,17357,1,8,0:0:0:0:
304,208,17654,1,0,0:0:0:0:
384,320,17802,1,2,0:0:0:0:
384,320,18248,1,2,0:0:0:0:
304,208,18397,1,8,0:0:0:0:
256,112,18694,2,0,L|128:176,1,135
160,320,19288,5,2,0:0:0:0:
64,320,19362,1,2,0:0:0:0:
112,240,19437,1,2,0:0:0:0:
112,288,19585,1,8,0:0:0:0:
352,64,19733,5,2,0:0:0:0:
448,64,19807,1,2,0:0:0:0:
400,144,19882,1,2,0:0:0:0:
400,96,20030,1,8,0:0:0:0:
256,256,20179,2,10,L|256:112,1,135
256,192,20476,12,4,24040,0:0:0:0:
