osu file format v14

[General]
AudioFilename: preparing for te shakedown_200705155_soundcloud.mp3
AudioLeadIn: 0
PreviewTime: 10350
Countdown: 1
SampleSet: None
StackLeniency: 0.7
Mode: 0
LetterboxInBreaks: 1
WidescreenStoryboard: 0

[Editor]
DistanceSpacing: 2
BeatDivisor: 4
GridSize: 4
TimelineZoom: 3.599999

[Metadata]
Title:preparing for te shakedown
TitleUnicode:preparing for te shakedown
Artist:yumyumyuumyy
ArtistUnicode:yumyumyuumyy
Creator:[Toy]
Version:TE TA TIDDLY
Source:
Tags:
BeatmapID:705478
BeatmapSetID:316625

[Difficulty]
HPDrainRate:6
CircleSize:5
OverallDifficulty:8
ApproachRate:9
SliderMultiplier:1.4
SliderTickRate:1

[Events]
//Background and Video events
0,0,"patrick.jpg",0,0
//Break Periods
//Storyboard Layer 0 (Background)
//Storyboard Layer 1 (Fail)
//Storyboard Layer 2 (Pass)
//Storyboard Layer 3 (Foreground)
//Storyboard Sound Samples

[TimingPoints]
1440,297.029702970297,4,2,0,100,1,0
10944,-133.333333333333,4,2,0,100,0,0
13024,-200,4,2,0,100,0,0
15647,-200,4,2,0,100,0,0

[HitObjects]
131,157,1440,6,0,L|86:90,1,70
270,102,1737,2,0,L|347:87,1,70
341,268,2034,2,0,L|394:333,1,70
198,301,2331,2,0,L|121:362,1,70
236,155,2628,5,0,0:0:0:0:
136,127,2776,1,0,0:0:0:0:
229,67,2925,1,0,0:0:0:0:
101,41,3073,1,0,0:0:0:0:
276,155,3222,5,0,0:0:0:0:
376,127,3370,1,0,0:0:0:0:
283,67,3519,1,0,0:0:0:0:
411,41,3667,1,0,0:0:0:0:
386,222,3816,6,0,L|420:303,1,70
292,213,4113,2,0,L|297:305,1,70
191,188,4410,2,0,L|140:262,1,70
104,108,4707,2,0,L|38:157,1,70
231,114,5004,5,0,0:0:0:0:
230,51,5152,1,0,0:0:0:0:
398,134,5301,1,0,0:0:0:0:
460,133,5449,1,0,0:0:0:0:
334,271,5598,1,0,0:0:0:0:
335,333,5746,1,0,0:0:0:0:
211,193,5895,1,0,0:0:0:0:
148,192,6043,1,0,0:0:0:0:
112,258,6192,5,0,0:0:0:0:
134,289,6291,2,0,L|149:338,1,46.6666666666667
182,285,6489,1,0,0:0:0:0:
207,318,6588,2,0,L|248:374,1,46.6666666666667
260,300,6786,1,0,0:0:0:0:
293,325,6885,2,0,L|341:353,1,46.6666666666667
335,287,7083,1,0,0:0:0:0:
364,317,7182,2,0,L|422:332,1,46.6666666666667
430,300,7380,6,0,L|463:253,2,46.6666666666667
434,246,7677,2,0,L|413:195,2,46.6666666666667
443,204,7974,2,0,L|475:141,2,46.6666666666667
427,165,8271,1,0,0:0:0:0:
446,127,8370,1,0,0:0:0:0:
420,93,8469,1,0,0:0:0:0:
386,68,8568,2,0,L|354:50,3,23.3333333333333
349,70,8766,2,0,L|328:84,3,23.3333333333333
309,74,8964,2,0,L|271:63,3,23.3333333333333
266,59,9162,2,0,L|234:41,3,23.3333333333333
229,61,9360,2,0,L|208:75,3,23.3333333333333
189,65,9558,2,0,L|151:54,3,23.3333333333333
158,77,9756,2,0,L|151:90,10,11.6666666666667
175,88,10053,2,0,L|184:94,10,11.6666666666667
256,192,10350,12,0,10944,0:0:0:0:
171,83,11241,6,0,L|165:55,6,17.500000667572
410,315,11836,1,0,0:0:0:0:
142,255,12133,1,0,0:0:0:0:
128,235,12207,1,0,0:0:0:0:
122,212,12281,1,0,0:0:0:0:
88,323,12430,5,0,0:0:0:0:
394,92,12578,1,0,0:0:0:0:
382,63,12876,1,0,0:0:0:0:
255,309,13024,2,0,L|233:342,1,35
88,61,13469,5,0,0:0:0:0:
394,292,13617,1,0,0:0:0:0:
382,321,13915,1,0,0:0:0:0:
255,75,14063,1,0,0:0:0:0:
111,215,14212,2,0,L|68:211,1,35
324,98,14509,5,0,0:0:0:0:
331,78,14583,1,0,0:0:0:0:
349,68,14657,1,0,0:0:0:0:
252,196,14806,1,0,0:0:0:0:
416,88,14955,1,0,0:0:0:0:
433,66,15029,1,0,0:0:0:0:
459,56,15103,1,0,0:0:0:0:
260,313,15301,1,0,0:0:0:0:
64,52,15499,1,0,0:0:0:0:
57,249,15647,6,0,L|66:323,1,70
141,335,15994,2,0,L|152:351,6,11.6666666666667
328,37,16588,1,0,0:0:0:0:
166,167,16885,5,0,0:0:0:0:
155,151,16959,1,0,0:0:0:0:
139,140,17034,1,0,0:0:0:0:
273,46,17182,1,0,0:0:0:0:
86,323,17331,1,0,0:0:0:0:
33,316,17627,1,0,0:0:0:0:
396,69,17776,2,0,P|410:53|429:46,1,35
284,291,18222,5,0,0:0:0:0:
408,151,18370,1,0,0:0:0:0:
441,280,18667,1,0,0:0:0:0:
53,38,18816,1,0,0:0:0:0:
332,48,18964,6,0,P|347:40|369:46,1,35
195,207,19261,1,0,0:0:0:0:
178,230,19336,1,0,0:0:0:0:
156,247,19410,1,0,0:0:0:0:
330,164,19558,1,0,0:0:0:0:
131,156,19707,5,0,0:0:0:0:
101,174,19781,1,0,0:0:0:0:
67,183,19855,1,0,0:0:0:0:
408,231,20004,1,0,0:0:0:0:
44,45,20153,5,0,0:0:0:0:
380,351,20301,1,0,0:0:0:0:
256,192,20449,12,0,21043,0:0:0:0:
249,61,21340,5,0,0:0:0:0:
189,253,21638,1,0,0:0:0:0:
180,274,21712,1,0,0:0:0:0:
165,292,21786,1,0,0:0:0:0:
289,325,21935,1,0,0:0:0:0:
54,180,22083,1,0,0:0:0:0:
354,100,22380,1,0,0:0:0:0:
55,325,22529,2,0,P|46:315|30:327,1,35
159,94,22974,6,0,L|131:71,1,35
365,282,23420,2,0,L|395:311,1,35
31,181,24014,2,0,L|45:180,5,11.6666666666667
